osu file format v14

[General]
AudioFilename: audio.mp3
AudioLeadIn: 0
PreviewTime: 43274
Countdown: 0
SampleSet: Soft
StackLeniency: 0.7
Mode: 0
LetterboxInBreaks: 0
WidescreenStoryboard: 0

[Editor]
DistanceSpacing: 1.2
BeatDivisor: 4
GridSize: 4
TimelineZoom: 1.7

[Metadata]
Title:-BWW SCREAM-
TitleUnicode:-BWW SCREAM-
Artist:Giga
ArtistUnicode:れをる
Creator:Arutsuki
Version:Easy
Source:
Tags:BlanKo Kujinn
BeatmapID:1271457
BeatmapSetID:573263

[Difficulty]
HPDrainRate:2
CircleSize:2.8
OverallDifficulty:2.6
ApproachRate:3
SliderMultiplier:0.8
SliderTickRate:1

[Events]
//Background and Video events
0,0,"51103549_p0.png",0,0
//Break Periods
//Storyboard Layer 0 (Background)
//Storyboard Layer 1 (Fail)
//Storyboard Layer 2 (Pass)
//Storyboard Layer 3 (Foreground)
//Storyboard Sound Samples

[TimingPoints]
608,333.333333333333,4,2,1,70,1,0
5941,-100,4,2,1,70,0,0
10941,-100,4,2,1,65,0,0
11024,-100,4,2,1,60,0,0
11107,-100,4,2,1,55,0,0
11191,-100,4,2,1,50,0,0
11274,-100,4,2,1,100,0,0
11607,-100,4,2,1,70,0,0
11941,333.333333333333,4,2,1,70,1,0
33274,-100,4,2,1,90,0,0
42607,-100,4,2,1,70,0,0
46607,-100,4,2,1,70,0,1
65274,-100,4,2,1,70,0,0

[Colours]
Combo1 : 197,124,124
Combo2 : 139,124,154
Combo3 : 192,192,192
Combo4 : 157,68,238
Combo5 : 194,90,187
Combo6 : 64,55,217

[HitObjects]
32,316,608,6,0,B|32:237|32:237|43:190,1,120,0|0,0:0|0:0,0:0:0:0:
108,128,1441,2,0,B|114:106|114:106|114:44,2,80,0|0|0,0:0|0:0|0:0,0:0:0:0:
225,210,2607,2,0,B|219:232|219:232|219:294,1,80
297,344,3274,6,0,B|377:345|377:345|417:330,1,120,0|0,0:0|0:0,0:0:0:0:
480,261,4107,2,0,B|485:239|485:239|486:170,2,80
352,194,5274,2,0,B|352:136|352:136|357:114,1,80
288,47,5941,70,0,B|243:44|243:44|195:47,1,80,2|2,0:0|0:0,0:0:0:0:
129,100,6607,2,0,B|126:145|126:145|129:193,1,80,2|2,0:0|0:0,0:0:0:0:
207,234,7274,1,2,0:0:0:0:
276,167,7607,2,0,B|310:164|310:164|355:167,1,80,2|2,0:0|0:0,0:0:0:0:
422,235,8274,1,2,0:0:0:0:
357,305,8607,22,0,B|312:308|312:308|277:305,1,80,2|2,0:0|0:0,0:0:0:0:
208,237,9274,2,0,B|163:234|163:234|128:237,1,80,2|2,0:0|0:0,0:0:0:0:
47,288,9941,2,0,B|16:230|55:176|55:176|84:125|40:66|40:66|88:84|127:62,1,320,10|0,0:0|0:0,0:0:0:0:
256,201,11941,38,0,P|259:265|219:320,2,120,2|2|8,0:0|0:0|0:0,0:0:0:0:
165,168,13274,1,2,0:0:0:0:
217,87,13607,2,0,B|253:73|296:86|296:86|333:98|376:85,1,160,8|8,0:0|0:0,0:0:0:0:
447,22,14607,6,0,P|471:91|450:148,2,120,2|2|8,0:0|0:0|0:0,0:0:0:0:
375,86,15941,1,2,0:0:0:0:
284,53,16274,2,0,B|243:37|205:53|205:53|167:34|125:51,1,160,8|8,0:0|0:0,0:0:0:0:
51,107,17274,6,0,P|27:168|46:233,2,120,2|2|8,0:0|0:0|0:0,0:0:0:0:
128,49,18607,1,2,0:0:0:0:
199,113,18941,2,0,B|220:151|205:192|205:192|185:232|206:275,1,160,8|8,0:0|0:0,0:0:0:0:
281,322,19941,54,0,B|303:275|285:230|285:230|293:213|298:191,2,120,2|2|8,0:0|0:0|0:0,0:0:0:0:
197,368,21274,2,0,P|142:373|98:361,1,80,2|8,0:0|0:0,0:0:0:0:
42,309,21941,2,0,P|37:254|49:210,1,80,2|8,0:0|0:0,0:0:0:0:
109,162,22607,54,0,B|173:128|231:158|231:158|287:187|345:159,1,240,2|8,0:0|0:0,0:0:0:0:
402,88,23941,2,0,P|341:67|280:85,2,120,2|2|8,0:0|0:0|0:0,0:0:0:0:
440,176,25274,6,0,B|467:256|409:258|445:332|445:332|403:309|343:335,1,240,2|8,0:0|0:0,0:0:0:0:
274,348,26607,2,0,P|225:358|181:350,1,80,2|8,0:0|0:0,0:0:0:0:0
148,269,27274,2,0,P|187:262|226:265,1,80,2|8,0:0|0:0,0:0:0:0:
321,284,27941,70,0,B|329:217|273:182|273:182|330:143|320:78,1,240,2|8,0:0|0:0,0:0:0:0:
225,96,29274,2,0,P|171:97|111:59,2,120,2|2|8,0:0|0:0|0:0,0:0:0:0:
320,79,30607,6,0,P|365:71|408:80,1,80,2|8,0:0|0:0,0:0:0:0:
455,153,31274,2,0,P|463:198|454:241,1,80,2|8,0:0|0:0,0:0:0:0:
370,271,31941,1,0,0:0:0:0:
255,116,32607,1,0,0:0:0:0:
134,265,33274,6,0,B|139:186|139:186|114:148|121:89,2,160,0|0|0,0:0|0:0|0:0,0:0:0:0:
255,116,35274,1,0,0:0:0:0:
376,265,35941,2,0,B|371:186|371:186|396:148|389:89,2,160,0|0|0,0:0|0:0|0:0,0:0:0:0:
295,317,37607,2,0,B|204:317,2,80,0|0|0,0:0|0:0|0:0,0:0:0:0:
376,265,38607,5,0,0:0:0:0:
255,115,39274,1,0,0:0:0:0:
133,263,39941,1,0,0:0:0:0:
255,101,40607,1,0,0:0:0:0:
256,192,41274,12,0,42607,0:0:0:0:
212,220,43941,6,0,B|152:224|152:224|84:214,2,120,2|2|0,0:0|0:0|0:0,0:0:0:0:
298,178,45274,2,0,B|358:174|358:174|417:182,2,120,2|2|0,0:0|0:0|0:0,0:0:0:0:
212,220,46607,6,0,B|207:179|207:179|214:128,2,80,2|8|0,0:0|0:0|0:0,0:0:0:0:
244,310,47607,1,8,0:0:0:0:
335,279,47941,2,0,B|373:271|373:271|416:278|416:278|475:265,2,120,2|0|8,0:0|0:0|0:0,0:0:0:0:
244,310,49274,6,0,B|227:248|227:248|249:177,1,120,2|2,0:0|0:0,0:0:0:0:
289,58,50274,1,8,0:0:0:0:
195,78,50607,2,0,B|154:196,1,120,2|2,0:0|0:0,0:0:0:0:
233,312,51607,1,8,0:0:0:0:
139,336,51941,6,0,B|99:340|99:340|57:333,2,80,2|8|0,0:0|0:0|0:0,0:0:0:0:
233,312,52941,1,8,0:0:0:0:
297,249,53274,2,0,L|308:150,1,80,2|8,0:0|0:0,0:0:0:0:
381,109,53941,2,0,L|392:208,1,80,2|2,0:0|0:0,0:0:0:0:
468,243,54607,6,0,B|476:191|476:191|463:91,2,120,2|2|8,0:0|0:0|0:0,0:0:0:0:
418,325,55941,1,2,0:0:0:0:
324,305,56274,2,0,B|284:301|284:301|240:309,2,80,8|2|8,0:0|0:0|0:0,0:0:0:0:
418,325,57274,6,0,B|424:283|401:248|401:248|423:210|411:167,1,160,2|2,0:0|0:0,0:0:0:0:
342,104,58274,1,8,0:0:0:0:
326,198,58607,2,0,B|283:205|283:205|187:194,2,120,0|2|8,0:0|0:0|0:0,0:0:0:0:
371,112,59941,5,2,0:0:0:0:
430,186,60274,2,0,B|469:191|469:191|516:183,2,80,8|0|8,0:0|0:0|0:0,0:0:0:0:
371,112,61274,2,0,B|330:105|330:105|291:110,1,80,2|8,0:0|0:0,0:0:0:0:
236,189,61941,2,0,B|195:195|195:195|156:190,1,80,0|8,0:0|0:0,0:0:0:0:
77,136,62607,6,0,B|66:196|66:196|82:269,2,120,2|2|8,0:0|0:0|0:0,0:0:0:0:
144,67,63941,2,0,B|186:62|186:62|235:68,1,80,2|8,0:0|0:0,0:0:0:0:
297,128,64607,2,0,B|302:170|302:170|296:219,1,80,2|8,0:0|0:0,0:0:0:0:
218,261,65274,5,0,0:0:0:0:
218,261,66607,6,0,B|215:228|215:228|221:209|221:181,2,80,2|0|8,0:0|0:0|0:0,0:0:0:0:
225,356,67607,1,0,0:0:0:0:
300,296,67941,2,0,B|356:264|413:304|413:304|453:288,1,160,2|8,0:0|0:0,0:0:0:0:
503,208,68941,1,0,0:0:0:0:
445,131,69274,6,0,B|409:118|409:118|351:158|295:126,1,160,2|8,0:0|0:0,0:0:0:0:
214,73,70274,1,0,0:0:0:0:
143,137,70607,2,0,L|59:137,2,80,2|8|2,0:0|0:0|0:0,0:0:0:0:
212,203,71607,1,8,0:0:0:0:
281,269,71941,6,0,P|355:296|445:256,1,160,0|8,0:0|0:0,0:0:0:0:
483,191,72941,1,0,0:0:0:0:
416,122,73274,2,0,L|416:40,2,80,2|2|8,0:0|0:0|0:0,0:0:0:0:
356,197,74274,1,2,0:0:0:0:
266,162,74607,6,0,B|205:147|205:147|141:163,1,120,2|2,0:0|0:0,0:0:0:0:
209,291,75607,1,8,0:0:0:0:
296,250,75941,6,0,L|388:253,1,80,8|8,0:0|0:0,0:0:0:0:
471,261,76607,2,0,L|468:169,1,80,2|2,0:0|0:0,0:0:0:0:
482,93,77274,5,4,0:0:0:0:
