osu file format v14

[General]
AudioFilename: audio.mp3
AudioLeadIn: 0
PreviewTime: 33274
Countdown: 0
SampleSet: Soft
StackLeniency: 0.5
Mode: 0
LetterboxInBreaks: 0
WidescreenStoryboard: 1

[Editor]
Bookmarks: 20774,33274,54607,66607,67774,77274
DistanceSpacing: 0.6
BeatDivisor: 8
GridSize: 32
TimelineZoom: 4.099998

[Metadata]
Title:-BWW SCREAM-
TitleUnicode:-BWW SCREAM-
Artist:Giga
ArtistUnicode:Giga
Creator:Arbane
Version:Sebu's Extra
Source:
Tags:
BeatmapID:1925324
BeatmapSetID:839022

[Difficulty]
HPDrainRate:6
CircleSize:4.4
OverallDifficulty:9
ApproachRate:9.4
SliderMultiplier:1.9
SliderTickRate:1

[Events]
//Background and Video events
0,0,"Konachan.com - 233443 sample.jpg",0,0
//Break Periods
//Storyboard Layer 0 (Background)
//Storyboard Layer 1 (Fail)
//Storyboard Layer 2 (Pass)
//Storyboard Layer 3 (Foreground)
//Storyboard Layer 4 (Overlay)
//Storyboard Sound Samples

[TimingPoints]
608,333.333333333333,4,2,0,60,1,0
608,-133.333333333333,4,2,0,60,0,0
5107,-66.6666666666667,4,2,0,60,0,0
5524,-50,4,2,0,60,0,0
5774,-66.6666666666667,4,2,0,60,0,0
5941,-83.3333333333333,4,2,0,60,0,0
6774,-133.333333333333,4,2,0,60,0,0
7441,-66.6666666666667,4,2,0,60,0,0
8274,-133.333333333333,4,2,0,60,0,0
11274,-333.333333333333,4,2,0,60,0,0
11607,-50,4,2,0,60,0,0
11941,333.333333333333,4,2,0,70,1,0
11941,-66.6666666666667,4,2,0,70,0,0
13274,-66.6666666666667,4,2,0,70,0,0
13315,-66.6666666666667,4,2,0,70,0,0
13440,-66.6666666666667,4,2,0,70,0,0
13482,-66.6666666666667,4,2,0,70,0,0
13607,-66.6666666666667,4,2,0,70,0,0
13649,-66.6666666666667,4,2,0,70,0,0
13774,-66.6666666666667,4,2,0,70,0,0
18774,-100,4,2,0,70,0,0
19274,-66.6666666666667,4,2,0,70,0,0
19607,-50,4,2,0,70,0,0
19940,-66.6666666666667,4,2,0,70,0,0
22607,-50,4,2,0,70,0,0
23774,-333.333333333333,4,2,0,70,0,0
23940,-66.6666666666667,4,2,0,70,0,0
24107,-50,4,2,0,70,0,0
24274,-333.333333333333,4,2,0,70,0,0
24440,-40,4,2,0,70,0,0
24607,-50,4,2,0,70,0,0
24940,-66.6666666666667,4,2,0,70,0,0
25274,-50,4,2,0,70,0,0
25940,-66.6666666666667,4,2,0,70,0,0
26107,-50,4,2,0,70,0,0
26274,-50,4,2,0,70,0,0
28274,-66.6666666666667,4,2,0,70,0,0
29274,-133.333333333333,4,2,0,70,0,0
29940,-100,4,2,0,70,0,0
30107,-66.6666666666667,4,2,0,70,0,0
30274,-100,4,2,0,70,0,0
30440,-66.6666666666667,4,2,0,70,0,0
30607,-66.6666666666667,4,2,0,70,0,0
31940,-25,4,2,0,70,0,0
32107,-333.333333333333,4,2,0,70,0,0
32607,-100,4,2,0,70,0,0
33440,-100,4,2,0,60,0,0
33940,-100,4,2,0,50,0,0
34607,-100,4,2,0,40,0,0
37274,-100,4,2,0,40,0,0
40607,-100,4,2,0,50,0,0
41274,-100,4,2,0,60,0,0
41607,-100,4,2,0,70,0,0
42107,-166.666666666667,4,2,0,70,0,0
42607,-37.7358490566038,4,2,0,70,0,0
43274,-100,4,2,0,70,0,0
43940,-50,4,2,0,70,0,0
47440,-100,4,2,0,70,0,0
47940,-40,4,2,0,70,0,0
48940,-100,4,2,0,70,0,0
49274,-50,4,2,0,70,0,0
50107,-100,4,2,0,70,0,0
50274,-50,4,2,0,70,0,0
50440,-100,4,2,0,70,0,0
50607,-50,4,2,0,70,0,0
51440,-100,4,2,0,70,0,0
51607,-66.6666666666667,4,2,0,70,0,0
51774,-50,4,2,0,70,0,0
52440,-100,4,2,0,70,0,0
53107,-40,4,2,0,70,0,0
53274,-100,4,2,0,70,0,0
53440,-40,4,2,0,70,0,0
53607,-100,4,2,0,70,0,0
53774,-66.6666666666667,4,2,0,70,0,0
54607,-50,4,2,0,70,0,0
54940,-66.6666666666667,4,2,0,70,0,0
55274,-40,4,2,0,70,0,0
55940,-133.333333333333,4,2,0,70,0,0
56607,-40,4,2,0,70,0,0
57274,-32.3729362253156,4,2,0,70,0,0
57607,-133.333333333333,4,2,0,70,0,0
57940,-50,4,2,0,70,0,0
58607,-100,4,2,0,70,0,0
60607,-40,4,2,0,70,0,0
61274,-100,4,2,0,70,0,0
62107,-40,4,2,0,70,0,0
62149,-40,4,2,0,70,0,0
62274,-40,4,2,0,70,0,0
62315,-40,4,2,0,70,0,0
62440,-40,4,2,0,70,0,0
62940,-66.6666666666667,4,2,0,70,0,0
63607,-50,4,2,0,70,0,0
65274,-333.333333333333,4,2,0,70,0,0
65940,-333.333333333333,4,2,0,60,0,0
66607,-50,4,2,0,70,0,0
67274,-133.333333333333,4,2,0,70,0,0
67940,-50,4,2,0,70,0,0
68607,-66.6666666666667,4,2,0,70,0,0
68774,-50,4,2,0,70,0,0
68940,-66.6666666666667,4,2,0,70,0,0
69107,-50,4,2,0,70,0,0
69274,-181.818181818182,4,2,0,70,0,0
69940,-200,4,2,0,70,0,0
70107,-40,4,2,0,70,0,0
70607,-100,4,2,0,70,0,0
71940,-256.410256410256,4,2,0,70,0,0
73274,-512.820512820513,4,2,0,70,0,0
73607,-50,4,2,0,70,0,0
73940,-100,4,2,0,70,0,0
74107,-33.3333333333333,4,2,0,70,0,0
74440,-100,4,2,0,70,0,0
74857,-33.3333333333333,4,2,0,70,0,0
75107,-66.6666666666667,4,2,0,70,0,0
75274,-250,4,2,0,70,0,0
75607,-50,4,2,0,70,0,0
75940,-33.3333333333333,4,2,0,70,0,0
76940,-50,4,2,0,70,0,0

[HitObjects]
474,249,608,5,6,0:0:0:0:
383,232,774,1,0,0:0:0:0:
292,211,941,1,0,0:0:0:0:
220,282,1107,1,2,0:0:0:0:
220,282,1441,6,0,L|226:317,1,35.625001358986,2|0,0:0|0:0,0:0:0:0:
135,302,1774,2,0,L|142:337,1,35.625001358986,2|0,0:0|0:0,0:0:0:0:
29,244,2107,5,2,0:0:0:0:
142,338,2607,6,0,L|135:302,1,35.625001358986,2|0,0:0|0:0,0:0:0:0:
226,317,2940,2,0,L|220:282,1,35.625001358986,2|0,0:0|0:0,0:0:0:0:
474,249,3274,5,2,0:0:0:0:
383,232,3440,1,0,0:0:0:0:
292,211,3607,1,0,0:0:0:0:
142,338,3773,1,2,0:0:0:0:
142,338,4107,6,0,L|150:292,1,35.625001358986,2|0,0:0|0:0,0:0:0:0:
292,211,4441,2,0,L|284:165,1,35.625001358986,2|0,0:0|0:0,0:0:0:0:
263,6,4774,1,2,0:0:0:0:
504,267,5107,6,0,B|493:288|493:288|418:273|418:273|415:280|415:280|343:267|343:267|326:296,1,213.750008153916,2|0,0:0|0:0,0:0:0:0:
319,330,5441,1,0,0:0:0:0:
319,330,5524,6,0,B|298:298|298:261|326:243|320:243|314:243|343:229|346:183|310:139,1,190,2|0,0:0|0:0,0:0:0:0:
249,127,5774,1,2,0:0:0:0:
501,63,5941,5,0,1:0:0:0:
489,165,6107,1,0,0:0:0:0:
422,82,6274,2,0,L|284:77,1,113.999996520996,0|0,1:0|0:0,0:0:0:0:
164,70,6607,1,0,1:0:0:0:
159,254,6774,2,0,L|161:182,1,71.2500027179719,0|0,0:0|1:0,0:0:0:0:
305,149,7107,2,0,L|307:77,1,71.2500027179719,0|0,0:0|1:0,0:0:0:0:
80,219,7441,1,0,0:0:0:0:
80,219,7607,6,0,B|66:238|66:238|78:333|78:333|55:358,2,142.500005435944,0|0|0,1:0|1:0|1:0,0:0:0:0:
0,188,8107,1,0,0:0:0:0:
166,254,8274,2,0,L|161:182,1,71.2500027179719,0|0,1:0|1:0,0:0:0:0:
410,60,8607,5,0,1:0:0:0:
308,78,8774,1,0,1:0:0:0:
284,175,8941,1,0,1:0:0:0:
386,157,9107,1,0,1:0:0:0:
183,351,9274,5,0,1:0:0:0:
159,254,9441,1,0,1:0:0:0:
261,272,9608,1,0,1:0:0:0:
285,369,9774,1,0,1:0:0:0:
95,338,9941,5,0,3:0:0:0:
75,342,10024,1,0,0:0:0:0:
94,319,10107,1,0,3:0:0:0:
74,323,10190,1,0,0:0:0:0:
0,253,10274,5,0,3:0:0:0:
20,257,10357,1,0,0:0:0:0:
1,234,10440,1,0,3:0:0:0:
21,238,10523,1,0,0:0:0:0:
78,135,10607,5,0,0:0:0:0:
37,152,10691,1,0,0:0:0:0:
0,103,10774,1,0,0:0:0:0:
45,51,10857,1,0,0:0:0:0:
125,75,10941,5,2,3:0:0:0:
199,43,11024,1,2,3:0:0:0:
267,85,11107,1,2,3:0:0:0:
341,53,11190,1,2,3:0:0:0:
402,117,11274,6,0,L|408:167,1,42.7499986953736,2|0,0:0|0:0,0:0:0:0:
512,233,11607,6,0,B|468:234|468:234|462:231|462:231|416:232,3,95,0|0|0|0,3:0|3:0|3:0|3:0,0:0:0:0:
283,331,11941,6,0,P|278:211|359:209,1,213.750008153916,4|0,1:0|0:0,0:0:0:0:
373,341,12274,1,10,1:2:0:0:
373,341,12441,2,0,B|254:432|251:230|114:348,2,285.000010871888,2|2|2,1:2|0:0|0:0,0:0:0:0:
474,166,13274,6,0,L|484:102,1,35.625001358986,0|0,1:0|0:0,0:0:0:0:
406,159,13440,2,0,L|416:95,1,35.625001358986
338,152,13607,2,0,L|348:88,1,35.625001358986,8|0,1:2|0:0,0:0:0:0:
164,104,13774,1,0,0:0:0:0:
174,18,13857,1,0,0:0:0:0:
239,51,13940,2,0,L|247:202,1,142.500005435944,0|2,0:0|0:0,0:0:0:0:
56,236,14274,2,0,L|48:85,1,142.500005435944,8|2,1:2|0:0,0:0:0:0:
145,327,14607,6,0,P|84:322|150:252,1,213.750008153916,2|0,1:2|0:0,0:0:0:0:
219,349,14940,1,10,1:2:0:0:
219,349,15107,2,0,L|443:337,1,213.750008153916,2|0,1:2|0:0,0:0:0:0:
504,332,15440,1,2,1:2:0:0:
403,179,15607,6,0,L|411:90,1,71.2500027179719,8|0,1:2|0:0,0:0:0:0:
417,36,15774,1,2,1:2:0:0:
279,212,15940,5,0,1:0:0:0:
358,265,16107,1,2,0:0:0:0:
349,64,16274,2,0,L|168:73,1,142.500005435944,8|2,1:2|1:2,0:0:0:0:
32,54,16607,1,0,1:0:0:0:
21,18,16690,1,0,1:0:0:0:
58,8,16774,1,2,1:2:0:0:
45,156,16940,2,0,L|35:298,1,142.500005435944,8|2,1:2|1:2,0:0:0:0:
102,334,17190,1,2,0:0:0:0:
195,285,17274,6,0,P|216:348|286:324,1,142.500005435944,0|2,1:0|0:0,0:0:0:0:
264,169,17607,2,0,L|357:175,1,71.2500027179719,8|0,1:2|0:0,0:0:0:0:
502,179,17774,6,0,B|507:176|507:176|511:136,3,35.625001358986,2|0|0|0,1:0|0:0|0:0|0:0,0:0:0:0:
486,182,17940,2,0,L|495:354,1,142.500005435944,0|2,0:0|0:0,0:0:0:0:
354,366,18274,1,8,1:2:0:0:
258,240,18440,1,2,0:0:0:0:
396,214,18607,5,2,1:2:0:0:
491,276,18774,2,0,L|493:324,2,47.5,0|2|8,0:0|0:0|1:2,0:0:0:0:
264,247,19107,1,2,1:2:0:0:
264,247,19190,1,0,0:0:0:0:
264,247,19274,2,0,L|276:86,1,142.500005435944,0|2,0:0|0:0,0:0:0:0:
390,62,19607,6,0,P|433:98|294:143,1,285,10|0,1:2|0:0,0:0:0:0:
211,67,19940,6,0,L|42:77,1,142.500005435944,2|0,1:2|0:0,0:0:0:0:
92,365,20274,1,10,1:2:0:0:
92,365,20440,2,0,L|76:149,1,213.750008153916,2|0,1:2|0:0,0:0:0:0:
142,106,20774,1,2,0:0:0:0:
178,302,20940,2,0,P|198:239|263:246,1,142.500005435944,8|0,1:2|0:0,0:0:0:0:
400,360,21274,5,0,1:0:0:0:
353,261,21440,1,2,0:0:0:0:
512,200,21607,1,10,1:2:0:0:
469,274,21774,5,2,1:2:0:0:
449,103,21940,1,0,3:0:0:0:
462,62,22024,1,0,3:0:0:0:
425,44,22107,5,2,1:2:0:0:
420,203,22274,1,10,1:2:0:0:
329,8,22440,1,0,1:0:0:0:
269,82,22607,6,0,B|175:80|175:80|176:76|176:76|84:74,1,190,4|0,1:0|0:0,0:0:0:0:
196,196,22940,2,0,B|206:240|206:240|266:227,1,95,8|0,1:2|0:0,0:0:0:0:
420,203,23107,1,0,1:0:0:0:
491,298,23274,5,2,0:0:0:0:
494,311,23357,1,2,0:0:0:0:
426,355,23440,5,2,0:0:0:0:
415,364,23523,1,2,0:0:0:0:
357,307,23607,6,0,L|262:300,1,95,8|0,1:2|0:0,0:0:0:0:
82,286,23774,6,0,L|84:313,1,14.2499995651245,0|0,0:0|0:0,0:0:0:0:
106,378,23940,2,0,L|112:282,1,71.2500027179719,6|0,1:2|0:0,0:0:0:0:
25,238,24107,6,0,L|31:142,1,95,0|0,0:0|0:0,0:0:0:0:
8,115,24274,2,0,L|6:142,1,14.2499995651245,8|0,1:2|0:0,0:0:0:0:
77,73,24440,6,0,P|128:91|101:151,1,118.75,2|0,1:2|0:0,0:0:0:0:
116,216,24607,1,0,0:0:0:0:
268,43,24774,6,0,P|226:78|188:24,1,95,0|0,0:0|0:0,0:0:0:0:
144,7,24941,1,8,1:2:0:0:
205,213,25108,6,0,P|195:159|260:153,1,71.2500027179719,0|0,0:0|0:0,0:0:0:0:
463,131,25274,5,4,1:2:0:0:
463,131,25440,2,0,B|368:138|368:138|366:136|366:136|256:144,2,190,0|8|0,0:0|1:2|1:0,0:0:0:0:
512,341,25940,2,0,L|424:337,1,71.2500027179719,2|0,0:0|0:0,0:0:0:0:
472,225,26107,6,0,B|480:261|480:261|491:216,2,63.3333333333333,2|2|2,0:0|0:0|0:0,0:0:0:0:
405,267,26274,6,0,B|318:231|312:340|213:269,1,190,10|2,1:2|0:0,0:0:0:0:
115,384,26607,6,0,L|104:283,1,95,4|0,1:2|0:0,0:0:0:0:
110,217,26774,6,0,B|127:214|127:214|156:230|156:230|172:226,2,63.3333333333333,2|2|2,0:0|0:0|0:0,0:0:0:0:
40,247,26940,6,0,L|29:146,1,95,8|0,1:2|0:0,0:0:0:0:
93,112,27107,2,0,L|82:11,1,95,0|0,1:0|0:0,0:0:0:0:
291,42,27274,5,2,1:2:0:0:
245,101,27357,1,2,1:2:0:0:
179,67,27440,1,2,1:2:0:0:
190,218,27607,1,10,1:2:0:0:
291,42,27774,1,2,1:2:0:0:
383,82,27940,6,0,L|392:295,1,190,4|0,1:2|0:0,0:0:0:0:
505,357,28274,2,0,L|509:265,1,71.2500027179719,8|0,1:2|0:0,0:0:0:0:
462,128,28440,2,0,L|466:36,1,71.2500027179719,0|0,1:2|0:0,0:0:0:0:
510,213,28774,6,0,P|480:151|405:210,1,142.500005435944,0|8,0:0|1:2,0:0:0:0:
395,349,29107,1,0,0:1:0:0:
240,294,29274,6,0,L|228:238,1,35.625001358986,4|0,1:2|0:0,0:0:0:0:
257,188,29440,2,0,L|245:132,1,35.625001358986,2|0,0:0|0:0,0:0:0:0:
274,82,29607,2,0,L|262:26,1,35.625001358986,10|0,1:2|0:0,0:0:0:0:
119,27,29774,5,2,1:2:0:0:
119,27,29857,1,0,0:0:0:0:
119,27,29940,2,0,L|105:102,1,47.5,6|0,1:2|0:0,0:0:0:0:
14,109,30107,2,0,B|43:102|43:102|-5:87,1,71.2500027179719,2|0,0:2|0:0,0:0:0:0:
66,265,30274,2,0,L|80:190,1,47.5,10|0,1:2|0:0,0:0:0:0:
171,183,30441,2,0,B|142:190|142:190|190:205,1,71.2500027179719,0|0,0:0|0:0,0:0:0:0:
265,93,30607,6,0,B|269:85|269:85|265:37,5,47.5000018119813,4|0|0|2|0|0,1:2|0:0|0:0|0:0|0:0|0:0,0:0:0:0:
378,134,30940,5,10,0:2:0:0:
362,116,31024,1,2,0:0:0:0:
325,134,31107,1,2,1:2:0:0:
333,180,31191,1,2,0:0:0:0:
399,200,31274,5,0,0:0:0:0:
474,205,31357,1,2,0:0:0:0:
496,282,31440,1,0,0:0:0:0:
441,333,31524,1,2,0:0:0:0:
356,266,31607,5,14,1:2:0:0:
301,307,31690,1,2,0:0:0:0:
332,370,31774,1,2,0:0:0:0:
286,318,31857,1,2,0:0:0:0:
216,322,31940,6,0,B|164:386|164:386|122:311|122:311|166:317,1,190,4|0,1:2|0:0,0:0:0:0:
55,277,32107,6,0,L|26:281,1,28.4999991302491,0|0,0:0|0:0,0:0:0:0:
1,305,32440,5,2,0:0:0:0:
1,305,32524,1,2,0:0:0:0:
1,305,32607,2,0,L|162:315,1,142.5,2|0,0:0|0:0,0:0:0:0:
216,322,32940,1,2,0:0:0:0:
0,23,33274,6,0,L|12:138,1,95,4|0,0:1|0:0,0:0:0:0:
102,125,33607,1,0,0:0:0:0:
163,54,33774,1,0,3:0:0:0:
194,215,33940,2,0,L|137:211,2,47.5,2|0|0,3:0|0:0|0:0,0:0:0:0:
255,87,34274,2,0,B|333:73|309:144|392:119,1,142.5,0|0,0:0|0:0,0:0:0:0:
450,89,34607,5,2,0:0:0:0:
275,168,34774,1,0,0:0:0:0:
275,168,34857,1,0,0:0:0:0:
275,168,34940,2,0,L|281:283,1,95,0|0,3:0|0:0,0:0:0:0:
285,339,35274,1,2,3:0:0:0:
393,359,35440,1,2,0:0:0:0:
472,278,35607,1,2,0:0:0:0:
370,262,35774,1,2,0:0:0:0:
275,168,35940,5,2,3:2:0:0:
302,190,36024,1,0,0:0:0:0:
301,238,36107,1,0,0:0:0:0:
318,197,36190,1,0,0:0:0:0:
354,190,36274,1,0,3:0:0:0:
482,115,36440,5,0,3:0:0:0:
460,130,36524,2,0,L|463:161,1,23.75
436,119,36607,5,2,3:0:0:0:
413,29,36774,1,0,0:0:0:0:
323,52,36940,1,0,0:0:0:0:
251,211,37107,2,0,L|256:251,2,23.75,2|0|0,0:0|0:0|0:0,0:0:0:0:
160,79,37274,5,2,3:2:0:0:
186,11,37440,1,2,3:2:0:0:
234,69,37607,2,0,L|229:109,6,23.75,2|0|0|0|0|0|0,3:0|0:0|0:0|0:0|0:0|0:0|0:0,0:0:0:0:
135,151,37941,5,0,3:0:0:0:
87,92,38107,1,2,0:0:0:0:
61,163,38274,1,2,0:0:0:0:
162,305,38440,1,2,0:0:0:0:
0,238,38607,6,0,L|119:232,1,95,2|0,3:2|0:0,0:0:0:0:
166,308,38857,1,0,0:0:0:0:
166,308,38940,2,0,L|285:314,1,95,2|0,3:2|0:0,0:0:0:0:
173,384,39274,2,0,P|121:373|95:340,1,95,2|0,3:0|0:0,0:0:0:0:
227,227,39607,1,0,0:0:0:0:
227,227,39690,1,0,0:0:0:0:
227,227,39774,1,2,3:0:0:0:
260,303,39940,6,0,L|141:309,1,95,2|0,0:0|0:0,0:0:0:0:
315,218,40274,1,0,3:0:0:0:
403,210,40440,1,0,0:0:0:0:
481,281,40607,2,0,L|487:328,1,47.5,2|0,3:0|0:0,0:0:0:0:
413,361,40774,2,0,L|408:394,2,23.75
363,294,40940,1,2,3:0:0:0:
219,353,41107,5,0,0:0:0:0:
219,353,41190,1,0,0:0:0:0:
219,353,41274,2,0,L|338:359,1,95,0|0,3:0|0:0,0:0:0:0:
350,139,41607,1,0,3:0:0:0:
270,125,41774,1,0,3:0:0:0:
270,125,41857,1,0,0:0:0:0:
270,125,41940,2,0,L|258:209,1,47.5,2|0,3:0|0:0,0:0:0:0:
219,353,42107,6,0,B|200:333|200:333|207:298|207:298|214:297|214:297|224:255|224:255|205:232,1,142.500005435944
123,223,42607,6,0,B|78:275|-8:231|13:157|50:133|50:133|76:117|105:126|105:126|105:118|105:118|110:128|110:128|109:120|109:120|115:130|115:130|113:122|113:122|119:132|119:132|117:124|117:124|123:134|123:134|121:126|121:126|127:136|127:136|125:128|125:128|130:138|130:138|129:130|129:130|133:140|133:140|133:132|133:132|136:142|136:142|136:134|136:134|140:144|140:144|140:136|140:136|143:146|143:146|143:138|143:138|146:147|146:147|146:139|146:139|149:149|149:149|149:141|149:141|152:150|152:150|152:142|152:142|155:152|155:152|155:144|155:144|158:153|158:153|158:145|158:145|161:155|161:155|161:146|161:146|164:156|164:156|164:147|164:147|166:157|166:157|167:148|167:148|169:158|169:158|169:149|169:149|282:171|320:-12|108:-12|155:127,1,881.125036973478
160,83,43274,5,0,3:0:0:0:
176,102,43357,1,0,3:0:0:0:
213,107,43440,1,0,3:0:0:0:
255,76,43524,1,0,3:0:0:0:
304,44,43607,1,0,3:0:0:0:
374,42,43690,1,0,3:0:0:0:
433,90,43774,1,0,3:0:0:0:
433,172,43857,1,0,3:0:0:0:
367,230,43940,6,0,P|387:364|471:276,2,285,6|2|2,1:0|0:1|1:0,0:0:0:0:
433,172,44607,1,8,1:2:0:0:
192,25,44774,5,2,0:0:0:0:
387,76,44940,2,0,L|450:94,1,47.5,2|0,0:0|0:0,0:0:0:0:
433,172,45107,1,2,0:0:0:0:
280,373,45274,6,0,B|315:356|315:356|297:150|297:150|334:137,2,285,2|2|2,1:0|0:1|1:0,0:0:0:0:
433,172,45940,1,8,1:2:0:0:
192,25,46107,2,0,P|233:90|155:88,2,190,2|2|2,0:0|0:0|0:0,0:0:0:0:
0,218,46607,6,0,L|208:184,1,190,6|0,1:0|0:0,0:0:0:0:
258,169,46857,1,2,0:1:0:0:
243,241,46940,2,0,L|364:262,1,95,8|0,1:0|0:0,0:0:0:0:
501,342,47107,2,0,B|495:210|495:210|454:260,1,190,0|2,1:0|0:1,0:0:0:0:
354,379,47357,1,0,0:0:0:0:
354,379,47440,6,0,L|347:333,1,47.5
410,194,47607,2,0,L|418:148,1,47.5,10|0,1:0|0:0,0:0:0:0:
376,44,47774,2,0,L|368:90,1,47.5
121,159,47940,6,0,B|232:235|235:95|341:160,1,237.5,2|2,1:0|0:1,0:0:0:0:
441,8,48274,1,8,1:0:0:0:
289,230,48440,1,2,1:2:0:0:
131,5,48607,1,2,1:2:0:0:
207,25,48690,1,0,1:0:0:0:
181,100,48774,1,2,1:2:0:0:
40,327,48940,2,0,L|45:264,1,47.5,8|0,1:0|0:0,0:0:0:0:
52,156,49107,2,0,L|49:204,1,47.5,0|0,1:0|0:0,0:0:0:0:
110,245,49274,6,0,L|395:262,1,285,2|2,1:0|0:1,0:0:0:0:
449,208,49607,1,8,1:0:0:0:
312,18,49774,2,0,P|297:122|405:43,1,285,2|0,1:0|0:0,0:0:0:0:
206,31,50107,2,0,L|159:21,1,47.5,2|0,0:0|0:0,0:0:0:0:
168,108,50274,6,0,L|177:202,1,95,8|0,1:0|0:0,0:0:0:0:
187,293,50440,2,0,L|140:283,1,47.5,2|0,0:0|0:0,0:0:0:0:
0,301,50607,6,0,B|121:205|129:406|272:286,1,285,2|2,1:0|0:1,0:0:0:0:
321,347,50940,1,8,1:0:0:0:
492,263,51107,2,0,B|463:380|463:380|378:285|378:285|449:270,1,285,2|0,1:0|0:0,0:0:0:0:
449,195,51440,6,0,L|495:185,1,47.5,2|0,0:0|0:0,0:0:0:0:
303,151,51607,2,0,L|282:219,1,71.2500027179719,8|0,1:0|0:0,0:0:0:0:
422,87,51774,2,0,L|359:17,1,95,0|0,0:0|0:0,0:0:0:0:
233,121,51940,6,0,B|189:163|189:163|217:300,1,190,2|0,1:0|0:0,0:0:0:0:
232,364,52190,1,2,0:1:0:0:
288,311,52274,2,0,L|412:275,1,95,8|0,1:0|0:0,0:0:0:0:
136,309,52440,6,0,L|126:355,1,47.5,0|0,1:0|0:0,0:0:0:0:
61,316,52607,2,0,L|70:269,1,47.5,2|0,0:1|0:0,0:0:0:0:
105,100,52774,2,0,L|95:146,1,47.5,0|0,0:0|0:0,0:0:0:0:
30,107,52941,2,0,L|39:60,1,47.5,10|0,1:0|0:0,0:0:0:0:
208,40,53107,6,0,B|149:30|149:30|210:75,1,118.75,2|0,0:1|0:0,0:0:0:0:
374,101,53274,6,0,L|381:147,1,47.5,0|0,1:0|0:0,0:0:0:0:
444,218,53440,2,0,B|502:227|502:227|441:182,1,118.75,2|0,0:1|0:0,0:0:0:0:
300,108,53607,6,0,L|292:61,1,47.5,8|0,1:0|0:0,0:0:0:0:
467,38,53774,2,0,L|456:108,1,71.2500027179719,2|0,0:1|0:0,0:0:0:0:
328,258,53940,5,2,1:2:0:0:
358,331,54023,1,2,1:2:0:0:
431,302,54107,1,0,1:0:0:0:
283,190,54274,5,0,1:0:0:0:
268,182,54357,1,2,1:2:0:0:
233,267,54440,5,0,1:0:0:0:
248,259,54523,1,2,1:2:0:0:
178,199,54607,6,0,B|205:298|205:298|141:370|141:370|166:283,1,285,4|0,1:0|0:0,0:0:0:0:
94,266,54940,2,0,L|26:246,1,71.2500027179719,10|0,1:0|0:0,0:0:0:0:
4,140,55107,2,0,L|72:160,1,71.2500027179719,0|0,1:0|0:0,0:0:0:0:
301,226,55274,6,0,B|140:305|171:19|-5:145,2,356.25,2|2|2,0:1|0:1|0:1,0:0:0:0:
453,22,55940,6,0,L|397:32,1,35.625001358986,0|0,1:0|0:0,0:0:0:0:
346,42,56107,2,0,L|310:48,1,35.625001358986,0|0,0:0|0:0,0:0:0:0:
255,154,56274,2,0,L|290:147,1,35.625001358986,8|0,1:0|0:0,0:0:0:0:
362,134,56441,2,0,L|397:127,1,35.625001358986,0|0,1:0|0:0,0:0:0:0:
410,375,56607,6,0,L|455:1,2,356.25,2|2|2,0:1|0:1|0:1,0:0:0:0:
410,375,57274,6,0,B|417:315|417:315|440:298|440:298|422:276|422:276|429:217|429:217|397:194|397:194|433:179|433:179|440:115|440:115|469:96|469:96|446:71|446:71|455:1,1,440.182499680959,2|0,1:0|0:0,0:0:0:0:
453,22,57607,6,0,L|397:32,1,35.625001358986,10|0,1:0|0:0,0:0:0:0:
346,42,57774,2,0,L|310:48,1,35.625001358986,0|0,1:0|0:0,0:0:0:0:
171,156,57940,6,0,P|233:232|306:99,2,285,2|2|2,0:1|0:1|0:1,0:0:0:0:
193,20,58524,1,0,0:0:0:0:
193,20,58607,6,0,L|186:77,1,47.5,0|0,1:0|0:0,0:0:0:0:
250,154,58774,2,0,L|255:201,1,47.5,2|0,0:1|0:0,0:0:0:0:
193,288,58940,2,0,L|187:335,1,47.5,8|0,1:0|0:0,0:0:0:0:
326,380,59107,1,0,1:0:0:0:
31,208,59274,5,2,1:2:0:0:
61,135,59357,1,2,1:2:0:0:
134,164,59441,1,2,1:2:0:0:
112,353,59607,2,0,L|117:305,1,47.5,8|0,1:0|0:0,0:0:0:0:
134,164,59774,1,2,1:2:0:0:
193,20,59940,5,2,1:0:0:0:
223,93,60023,1,2,1:2:0:0:
296,64,60107,2,0,L|359:71,1,47.5,2|0,1:0|0:0,0:0:0:0:
438,81,60274,1,10,1:0:0:0:
471,375,60440,1,0,1:0:0:0:
324,377,60607,6,0,B|409:344|409:344|439:63,2,356.25,2|2|2,0:1|0:1|0:1,0:0:0:0:
217,126,61274,6,0,L|208:173,1,47.5,0|0,1:0|0:0,0:0:0:0:
287,163,61440,2,0,L|333:172,1,47.5,0|0,0:0|0:0,0:0:0:0:
287,288,61607,2,0,L|297:242,1,47.5,8|0,1:0|0:0,0:0:0:0:
218,252,61774,2,0,L|171:242,1,47.5,0|0,1:0|0:0,0:0:0:0:
0,207,61940,1,0,0:0:0:0:
132,320,62107,6,0,P|159:331|189:364,1,59.375,2|0,0:1|0:0,0:0:0:0:
182,318,62274,6,0,P|152:316|126:304,1,59.375,10|0,1:0|0:0,0:0:0:0:
47,360,62440,1,0,0:0:0:0:
32,41,62607,6,0,P|91:124|47:359,1,356.25,2|0,1:0|0:0,0:0:0:0:
133,192,62940,2,0,P|155:169|216:150,1,71.2500027179719,10|0,1:0|0:0,0:0:0:0:
317,85,63107,2,0,P|326:116|312:178,1,71.2500027179719,0|0,1:0|0:0,0:0:0:0:
317,298,63274,6,0,P|286:290|239:247,2,71.2500027179719,2|0|0,0:1|0:0|0:0,0:0:0:0:
383,275,63524,1,2,0:1:0:0:
416,365,63607,2,0,L|439:147,1,190,10|2,1:0|1:0,0:0:0:0:
452,0,63940,5,0,1:0:0:0:
451,15,64107,2,0,B|345:-42|332:145|195:56,1,285,2|0,0:1|0:0,0:0:0:0:
151,0,64440,1,2,1:2:0:0:
31,208,64607,5,2,1:2:0:0:
61,135,64690,1,2,1:2:0:0:
134,164,64774,1,2,1:2:0:0:
271,324,64940,5,8,1:0:0:0:
79,358,65107,1,2,1:2:0:0:
326,130,65274,6,0,L|430:141,1,99.7499969558717,2|0,0:0|0:0,0:0:0:0:
486,67,65940,6,0,L|484:24,1,42.7499986953736,2|0,0:0|0:0,0:0:0:0:
435,141,66274,5,0,3:0:0:0:
439,211,66357,5,0,3:0:0:0:
443,281,66440,5,0,3:0:0:0:
447,351,66524,5,0,3:0:0:0:
430,278,66607,6,0,L|290:293,2,126.666666666667,6|2|2,1:0|0:1|0:1,0:0:0:0:
275,222,66940,6,0,P|192:197|163:330,1,253.333333333333,2|0,0:1|0:0,0:0:0:0:
113,381,67274,2,0,L|78:386,1,35.625001358986,8|0,1:0|0:0,0:0:0:0:
0,277,67440,2,0,L|35:282,1,35.625001358986,0|0,0:0|0:0,0:0:0:0:
108,372,67607,2,0,L|73:377,1,35.625001358986,2|0,0:3|0:0,0:0:0:0:
0,138,67774,5,2,0:3:0:0:
47,211,67857,1,2,0:3:0:0:
108,165,67940,6,0,L|102:97,1,47.5,0|0,1:0|0:0,0:0:0:0:
195,186,68107,2,0,L|189:118,1,47.5,2|0,0:0|0:0,0:0:0:0:
191,131,68274,6,0,L|186:178,1,47.5,2|0,0:0|0:0,0:0:0:0:
273,209,68440,2,0,L|267:141,1,47.5,0|0,1:0|0:0,0:0:0:0:
357,166,68607,6,0,P|378:189|369:231,1,71.2500027179719,8|0,1:0|0:0,0:0:0:0:
471,298,68774,2,0,P|428:288|385:327,1,95,2|0,0:0|0:0,0:0:0:0:
353,384,68940,6,0,L|248:362,1,71.2500027179719,2|0,0:0|0:0,0:0:0:0:
229,310,69107,2,0,L|124:332,1,95,2|0,0:0|0:0,0:0:0:0:
55,266,69274,6,0,P|0:278|44:249,1,143.687504384995,2|0,1:3|0:0,0:0:0:0:
64,173,69774,1,0,0:0:0:0:
64,173,69940,6,0,L|71:126,1,35.625001358986,8|0,1:0|0:0,0:0:0:0:
82,70,70107,2,0,B|52:94|52:94|64:175,1,118.75
132,300,70274,5,2,0:0:0:0:
150,267,70357,1,2,0:0:0:0:
220,321,70440,5,2,1:2:0:0:
221,311,70524,1,2,1:2:0:0:
304,285,70607,5,0,1:0:0:0:
302,97,70774,1,0,0:0:0:0:
484,36,70940,1,0,0:0:0:0:
286,288,71107,5,0,1:0:0:0:
317,101,71274,1,8,1:0:0:0:
396,90,71357,1,0,1:0:0:0:
432,161,71440,1,0,1:0:0:0:
301,374,71607,1,8,1:0:0:0:
72,237,71774,1,0,1:0:0:0:
497,247,71940,6,0,P|457:266|492:239,1,129.675004353104,2|0,0:1|0:0,0:0:0:0:
381,301,72607,5,4,3:1:0:0:
359,297,72690,1,0,3:0:0:0:
324,234,72774,5,0,3:0:0:0:
307,239,72857,1,0,3:0:0:0:
242,204,72940,5,0,3:0:0:0:
233,212,73023,1,0,3:0:0:0:
157,213,73107,5,0,1:0:0:0:
153,221,73190,1,0,1:0:0:0:
103,316,73274,6,0,L|98:343,1,27.787500932808,2|0,1:3|0:0,0:0:0:0:
97,349,73607,5,2,1:0:0:0:
152,9,73774,1,2,0:1:0:0:
154,0,73857,1,2,0:1:0:0:
78,20,73940,6,0,P|61:45|91:51,1,71.25,8|0,1:0|0:0,0:0:0:0:
144,104,74107,6,0,P|234:94|200:178,1,213.750008153916,2|0,0:0|0:0,0:0:0:0:
131,177,74274,6,0,P|102:261|190:250,1,213.750008153916,0|0,1:0|0:0,0:0:0:0:
258,229,74440,6,0,P|278:225|267:260,1,71.25,2|0,1:3|0:0,0:0:0:0:
316,320,74607,6,0,B|356:348|356:348|325:299,1,95,4|0,1:3|0:0,0:0:0:0:
506,254,74857,6,0,B|442:344|442:344|373:245|373:245|486:250,1,285.000010871888,8|0,1:3|0:0,0:0:0:0:
470,189,75107,2,0,B|478:156|478:156|437:145,1,71.2500027179719,2|0,1:0|0:0,0:0:0:0:
420,78,75274,6,0,L|428:18,1,57,0|0,0:0|0:0,0:0:0:0:
429,10,75607,6,0,B|290:-37|333:198|169:114,1,285,4|0,1:0|0:0,0:0:0:0:
94,181,75940,6,0,L|103:38,1,142.500005435944,8|0,1:0|0:0,0:0:0:0:
227,54,76107,1,0,0:0:0:0:
113,35,76274,2,0,L|104:180,1,142.500005435944,8|0,1:0|0:0,0:0:0:0:
328,294,76440,5,0,0:0:0:0:
329,284,76524,1,0,0:0:0:0:
289,205,76607,5,2,3:2:0:0:
235,264,76690,1,2,3:2:0:0:
257,344,76774,1,8,1:0:0:0:
215,273,76857,1,2,3:2:0:0:
136,259,76940,2,0,B|90:272|90:272|113:334,1,95,2|0,1:3|0:0,0:0:0:0:
1,380,77107,6,0,L|14:153,1,190,10|4,1:0|0:1,0:0:0:0:
