osu file format v14

[General]
AudioFilename: audio.mp3
AudioLeadIn: 0
PreviewTime: 33274
Countdown: 0
SampleSet: Soft
StackLeniency: 0.5
Mode: 0
LetterboxInBreaks: 0
WidescreenStoryboard: 0

[Editor]
Bookmarks: 20774,33274,54607,66607,67774,77274
DistanceSpacing: 1
BeatDivisor: 4
GridSize: 8
TimelineZoom: 3.699999

[Metadata]
Title:-BWW SCREAM-
TitleUnicode:-BWW SCREAM-
Artist:Giga
ArtistUnicode:Giga
Creator:Arbane
Version:Extra
Source:
Tags:
BeatmapID:1756473
BeatmapSetID:839022

[Difficulty]
HPDrainRate:6
CircleSize:5
OverallDifficulty:8.7
ApproachRate:9.3
SliderMultiplier:1.9
SliderTickRate:1

[Events]
//Background and Video events
0,0,"Konachan.com - 233443 sample.jpg",0,0
//Break Periods
//Storyboard Layer 0 (Background)
//Storyboard Layer 1 (Fail)
//Storyboard Layer 2 (Pass)
//Storyboard Layer 3 (Foreground)
//Storyboard Sound Samples

[TimingPoints]
608,333.333333333333,4,2,0,60,1,0
608,-133.333333333333,4,2,0,60,0,0
5107,-100,4,2,0,60,0,0
11274,-400,4,2,0,60,0,0
11607,-66.6666666666667,4,2,0,60,0,0
11941,333.333333333333,4,2,0,70,1,0
11941,-74.0740740740741,4,2,0,70,0,0
12441,-100,4,2,0,70,0,0
13107,-133.333333333333,4,2,0,70,0,0
13607,-86.9565217391304,4,2,0,70,0,0
14607,-74.0740740740741,4,2,0,70,0,0
15107,-86.9565217391304,4,2,0,70,0,0
16440,-100,4,2,0,70,0,0
17440,-74.0740740740741,4,2,0,70,0,0
17774,-66.6666666666667,4,2,0,70,0,0
18774,-100,4,2,0,70,0,0
19607,-74.0740740740741,4,2,0,70,0,0
20774,-86.9565217391304,4,2,0,70,0,0
21274,-100,4,2,0,70,0,0
22607,-74.0740740740741,4,2,0,70,0,0
23607,-100,4,2,0,70,0,0
23940,-74.0740740740741,4,2,0,70,0,0
24607,-133.333333333333,4,2,0,70,0,0
24940,-74.0740740740741,4,2,0,70,0,0
25274,-200,4,2,0,70,0,0
25440,-80,4,2,0,70,0,0
26107,-133.333333333333,4,2,0,70,0,0
26274,-66.6666666666667,4,2,0,70,0,0
26774,-133.333333333333,4,2,0,70,0,0
26940,-66.6666666666667,4,2,0,70,0,0
27940,-74.0740740740741,4,2,0,70,0,0
28774,-100,4,2,0,70,0,0
31940,-57.1428571428571,4,2,0,70,0,0
32440,-133.333333333333,4,2,0,70,0,0
32940,-79.9999999999999,4,2,0,70,0,0
33274,-200,4,2,0,70,0,0
33440,-200,4,2,0,60,0,0
33940,-200,4,2,0,50,0,0
34607,-200,4,2,0,40,0,0
40607,-133.333333333333,4,2,0,50,0,0
40940,-100,4,2,0,50,0,0
41274,-100,4,2,0,60,0,0
41607,-100,4,2,0,70,0,0
41940,-80,4,2,0,70,0,0
42607,-133.333333333333,4,2,0,70,0,0
43940,-100,4,2,0,70,0,0
46607,-66.6666666666667,4,2,0,70,0,0
48107,-57.1428571428571,4,2,0,70,0,0
48440,-133.333333333333,4,2,0,70,0,0
49274,-74.0740740740741,4,2,0,70,0,0
50607,-74.0740740740741,4,2,0,70,0,0
51940,-66.6666666666667,4,2,0,70,0,0
54940,-80,4,2,0,70,0,0
55274,-66.6666666666667,4,2,0,70,0,0
55940,-133.333333333333,4,2,0,70,0,0
56607,-66.6666666666667,4,2,0,70,0,0
57607,-80,4,2,0,70,0,0
57940,-66.6666666666667,4,2,0,70,0,0
60274,-80,4,2,0,70,0,0
60607,-66.6666666666667,4,2,0,70,0,0
61274,-133.333333333333,4,2,0,70,0,0
61940,-66.6666666666667,4,2,0,70,0,0
62940,-80,4,2,0,70,0,0
64107,-66.6666666666667,4,2,0,70,0,0
65274,-133.333333333333,4,2,0,70,0,0
65940,-399.999999999997,4,2,0,60,0,0
66274,-66.6666666666667,4,2,0,60,0,0
66607,-54.054054054054,4,2,0,70,0,0
67274,-133.333333333333,4,2,0,70,0,0
67440,-50,4,2,0,70,0,0
67607,-66.6666666666667,4,2,0,70,0,0
69274,-80,4,2,0,70,0,0
69940,-50,4,2,0,70,0,0
70607,-100,4,2,0,70,0,0
71940,-80,4,2,0,70,0,0
73274,-133.333333333333,4,2,0,70,0,0
73607,-50,4,2,0,70,0,0
73940,-133.333333333333,4,2,0,70,0,0
74107,-50,4,2,0,70,0,0
74440,-133.333333333333,4,2,0,70,0,0
74607,-66.6666666666667,4,2,0,70,0,0
74857,-50,4,2,0,70,0,0
75107,-40,4,2,0,70,0,0
75274,-400,4,2,0,70,0,0
75607,-50,4,2,0,70,0,0
75940,-66.6666666666667,4,2,0,70,0,0
76274,-57.1428571428571,4,2,0,70,0,0

[HitObjects]
30,366,607,5,6,0:0:0:0:
104,352,774,1,0,0:0:0:0:
89,219,941,1,0,0:0:0:0:
133,281,1107,1,2,0:0:0:0:
133,281,1441,6,2,P|167:277|224:260,1,71.2500027179719,2|0,0:0|0:0,0:1:0:0:
85,188,1774,2,2,P|118:199|153:205,1,71.2500027179719,2|0,0:0|0:0,0:1:0:0:
256,192,2107,1,2,0:0:0:0:
216,338,2607,6,2,P|212:304|195:247,1,71.2500027179719,2|0,0:0|0:0,0:1:0:0:
296,337,2941,2,2,P|299:302|309:268,1,71.2500027179719,2|0,0:0|0:0,0:1:0:0:
482,366,3274,5,2,0:0:0:0:
408,352,3441,1,0,0:0:0:0:
423,219,3608,1,0,0:0:0:0:
379,281,3774,1,2,0:0:0:0:
379,281,4108,6,2,P|345:277|288:260,1,71.2500027179719,2|0,0:0|0:0,0:1:0:0:
427,188,4441,2,2,P|394:199|359:205,1,71.2500027179719,2|0,0:0|0:0,0:1:0:0:
256,192,4774,1,2,0:0:0:0:
256,192,5107,6,0,P|241:172|248:136,1,47.5,2|0,0:0|0:0,0:0:0:0:
299,82,5274,2,0,B|356:89|356:89|374:107|352:119,1,95,2|0,0:0|0:0,0:0:0:0:
159,119,5524,2,0,B|138:107|156:89|156:89|213:82,1,95,2|0,0:0|0:0,0:0:0:0:
271,150,5774,2,0,P|270:173|256:192,1,47.5,2|0,0:0|0:0,0:0:0:0:
100,156,5941,5,0,1:0:0:0:
88,81,6274,1,0,1:0:0:0:
412,156,6607,5,0,1:0:0:0:
424,81,6940,1,0,1:0:0:0:
256,0,7274,5,0,1:0:0:0:
374,145,7607,5,0,1:0:0:0:
256,192,7774,1,0,1:0:0:0:
138,145,7941,1,0,1:0:0:0:
256,384,8274,5,0,1:0:0:0:
256,308,8441,1,0,1:0:0:0:
128,276,8607,5,0,1:0:0:0:
158,344,8774,1,0,1:0:0:0:
354,344,8941,5,0,1:0:0:0:
384,276,9108,1,0,1:0:0:0:
199,160,9274,5,0,1:0:0:0:
158,344,9441,1,0,1:0:0:0:
354,344,9607,5,0,1:0:0:0:
313,160,9774,1,0,1:0:0:0:
221,313,9941,5,0,1:0:0:0:
202,280,10024,1,0,1:0:0:0:
208,242,10107,1,0,1:0:0:0:
237,218,10191,1,0,1:0:0:0:
275,218,10274,1,0,1:0:0:0:
304,242,10357,1,0,1:0:0:0:
311,280,10441,1,0,1:0:0:0:
292,313,10524,1,0,1:0:0:0:
256,325,10607,5,0,3:0:0:0:
255,277,10691,1,0,3:0:0:0:
283,238,10774,1,0,3:0:0:0:
328,226,10857,1,0,3:0:0:0:
372,242,10941,5,2,3:0:0:0:
391,305,11024,1,2,3:0:0:0:
453,282,11107,5,2,3:0:0:0:
418,339,11191,1,2,3:0:0:0:
425,356,11274,6,2,P|443:347|465:355,1,35.625,2|0,0:0|0:0,0:0:0:0:
330,329,11607,6,0,L|230:315,3,71.2500027179719,0|0|0|0,3:0|3:0|3:0|3:0,3:0:0:0:
194,354,11941,6,0,P|203:271|139:324,1,192.375000733852,4|0,1:0|0:0,0:0:0:0:
68,330,12274,1,10,1:2:0:0:
35,143,12441,6,0,P|59:234|67:329,1,190,2|2,1:2|0:0,0:0:0:0:
209,275,12940,1,8,1:2:0:0:
142,234,13107,1,2,0:0:0:0:
329,231,13274,6,0,P|283:226|251:213,1,71.2500027179719,0|0,1:0|0:0,0:0:0:0:
223,383,13607,2,0,L|205:253,1,109.250002083778,8|0,1:2|0:0,0:0:0:0:
194,265,13857,1,0,0:0:0:0:
180,256,13940,5,0,0:0:0:0:
166,158,14106,1,2,0:0:0:0:
345,158,14274,5,8,1:2:0:0:
332,256,14440,1,2,0:0:0:0:
199,89,14607,6,0,P|273:63|256:140,1,192.375000733852,2|0,1:2|0:0,0:0:0:0:
166,158,14940,1,10,1:2:0:0:
331,201,15107,6,0,B|351:190|374:202|374:202|380:216|380:216|402:228|427:218,1,109.250002083778,2|0,1:2|0:0,0:1:0:0:
276,323,15440,6,0,P|326:320|338:271,1,109.250002083778,2|8,1:2|1:2,0:0:0:0:
160,221,15774,6,0,P|210:223|222:272,2,109.250002083778,2|0|2,1:2|1:0|0:0,0:0:0:0:
110,353,16274,1,8,1:2:0:0:
107,160,16440,6,0,P|115:135|108:96,1,47.5,2|0,1:2|0:0,0:0:0:0:
76,44,16607,2,0,P|56:30|33:24,2,47.5,0|0|2,1:0|1:0|1:2,0:0:0:0:
184,150,16940,1,8,1:2:0:0:
327,98,17107,1,2,1:2:0:0:
313,133,17190,1,2,0:0:0:0:
333,197,17274,2,0,P|356:198|383:189,1,47.5,0|0,1:0|0:0,0:0:0:0:
495,272,17440,6,0,L|345:262,1,128.250000489235,2|8,0:0|1:2,0:0:0:0:
149,232,17774,6,0,B|113:248|113:248|195:245|195:245|209:250|209:250|287:255,1,213.750008153916,2|0,1:0|0:0,0:0:0:0:
295,248,18107,1,2,0:0:0:0:
208,100,18274,5,8,1:2:0:0:
293,150,18440,1,2,0:0:0:0:
441,44,18607,5,2,1:2:0:0:
390,128,18774,2,0,L|379:81,2,47.5,0|2|8,0:0|0:0|1:2,0:0:0:0:
473,212,19107,1,2,1:2:0:0:
467,235,19190,1,0,0:0:0:0:
462,258,19274,1,0,0:0:0:0:
489,143,19440,5,2,0:0:0:0:
445,326,19607,2,0,L|285:338,1,128.250000489235,10|0,1:2|0:0,0:0:0:0:
136,290,19940,6,0,P|110:364|187:347,1,192.375000733852,2|0,1:2|0:0,0:0:0:0:
250,308,20274,1,10,1:2:0:0:
191,122,20440,6,0,L|202:269,1,128.250000489235,2|0,1:2|0:0,0:0:0:0:
189,238,20774,2,0,L|316:228,2,109.250002083778,2|8|0,0:0|1:2|0:0,0:0:0:0:
88,211,21274,5,0,1:0:0:0:
158,147,21440,1,2,0:0:0:0:
127,56,21607,5,10,1:2:0:0:
189,238,21774,1,2,1:2:0:0:
244,100,21940,5,0,3:0:0:0:
256,144,22024,1,0,3:0:0:0:
268,100,22107,1,2,1:2:0:0:
323,238,22274,5,10,1:2:0:0:
385,56,22441,1,0,1:0:0:0:
453,298,22607,6,2,P|458:225|391:279,1,192.375000733852,4|0,1:0|2:0,0:1:0:0:
331,315,22940,2,2,B|305:304|280:319|280:319|272:336|272:336|248:351|218:340,1,128.250000489235,8|0,1:2|1:0,0:1:0:0:
116,294,23274,5,2,0:0:0:0:
121,263,23357,1,2,0:0:0:0:
101,291,23440,1,2,0:0:0:0:
106,260,23523,1,2,0:0:0:0:
42,241,23607,6,2,L|35:288,1,47.5,8|0,1:2|0:0,0:1:0:0:
179,314,23774,2,2,L|187:268,1,47.5,0|0,0:0|0:0,0:1:0:0:
161,78,23940,6,0,P|158:109|168:146,1,64.1250002446175,6|0,1:2|0:0,0:0:0:0:
99,339,24107,6,2,L|123:196,1,128.250000489235,0|8,0:0|1:2,0:1:0:0:
235,66,24440,5,2,1:2:0:0:
238,103,24524,1,0,0:0:0:0:
241,141,24607,2,0,P|295:138|348:115,1,106.875004076958
431,166,24940,2,0,L|239:140,1,192.375000733852,8|0,1:2|0:0,1:0:0:0:
244,212,25274,6,0,L|247:254,1,23.75,4|0,1:2|0:0,0:0:0:0:
174,287,25440,2,2,B|146:276|146:276|212:281,1,59.375,0|0,0:0|0:0,0:1:0:0:
325,271,25607,2,2,B|348:255|348:255|285:274,1,59.375,8|0,1:2|0:0,0:1:0:0:
260,378,25774,1,0,1:0:0:0:
254,306,25940,5,2,0:0:0:0:
237,158,26107,2,0,L|235:135,2,23.7500009059906,2|2|2,0:0|0:0|0:0,0:0:0:0:
162,92,26274,6,2,P|131:106|134:139,1,71.2500027179719,10|0,1:2|0:0,0:1:0:0:
329,120,26440,2,2,P|328:86|296:74,1,71.2500027179719,2|0,0:0|0:0,0:1:0:0:
246,231,26607,5,4,1:2:0:0:
227,60,26774,2,0,L|224:37,2,23.7500009059906,2|2|2,0:0|0:0|0:0,0:0:0:0:
118,99,26940,6,2,L|21:96,1,71.2500027179719,8|0,1:2|0:0,0:1:0:0:
341,75,27107,2,2,L|435:52,1,71.2500027179719,0|0,1:0|0:0,0:1:0:0:
198,164,27274,5,2,1:2:0:0:
235,135,27357,1,2,1:2:0:0:
277,155,27440,1,2,1:2:0:0:
118,99,27607,1,10,1:2:0:0:
341,75,27774,1,2,1:2:0:0:
250,280,27940,6,2,B|144:230|180:351|66:297,1,192.375000733852,4|0,1:2|0:0,0:1:0:0:
63,237,28274,2,2,L|78:326,1,64.1250002446175,8|0,1:2|0:0,0:1:0:0:
174,87,28440,2,2,L|163:150,1,64.1250002446175,0|0,1:2|0:0,0:1:0:0:
163,150,28774,6,2,L|281:141,2,95,0|8|0,0:0|1:2|0:1,0:1:0:0:
74,43,29274,5,4,1:2:0:0:
187,14,29440,1,2,0:0:0:0:
143,76,29607,5,10,1:2:0:0:
172,189,29773,1,2,1:2:0:0:
340,189,29940,5,6,1:2:0:0:
369,76,30106,1,2,0:2:0:0:
438,43,30273,5,10,1:2:0:0:
325,14,30439,1,2,0:0:0:0:
256,236,30607,5,4,1:2:0:0:
263,268,30690,1,2,0:0:0:0:
277,279,30774,1,2,0:0:0:0:
292,250,30857,1,2,0:0:0:0:
356,272,30940,5,10,0:2:0:0:
386,283,31023,1,2,0:0:0:0:
353,282,31107,1,2,1:2:0:0:
383,293,31190,1,2,0:0:0:0:
417,226,31274,5,0,0:0:0:0:
434,175,31358,1,2,0:0:0:0:
384,158,31441,1,0,0:0:0:0:
368,209,31524,1,2,0:0:0:0:
292,250,31607,6,2,P|277:278|278:310,1,47.5,14|2,1:2|0:0,0:1:0:0:
169,176,31774,2,2,P|154:148|155:116,1,47.5,2|2,0:0|0:0,0:1:0:0:
38,232,31940,6,0,P|5:203|12:246,2,110.833334390322,4|0|0,1:2|0:0|0:0,0:0:0:0:
38,232,32440,5,2,0:0:0:0:
68,262,32524,1,2,0:0:0:0:
110,257,32607,2,0,P|143:228|219:247,1,106.875004076958,2|0,0:0|0:0,0:0:0:0:
264,197,32940,2,0,L|253:17,1,178.125,2|0,0:0|0:0,0:0:0:0:
328,26,33274,6,0,L|381:32,1,47.5,4|0,0:1|0:0,0:0:0:0:
423,90,33607,1,0,0:0:0:0:
365,140,33774,1,0,3:0:0:0:
420,276,33940,6,0,L|426:329,1,47.5,2|0,3:0|0:0,0:0:0:0:
355,229,34274,2,0,L|359:189,1,23.75
283,260,34440,1,2,3:0:0:0:
121,243,34607,6,0,L|51:236,1,71.25,2|0,0:0|0:0,0:0:0:0:
37,235,34940,1,0,3:0:0:0:
191,250,35107,1,0,0:0:0:0:
126,109,35274,5,2,3:0:0:0:
190,165,35440,2,0,L|185:185,2,11.875,2|0|0,0:0|0:0|0:0,0:0:0:0:
273,147,35607,1,2,0:0:0:0:
306,68,35774,1,2,0:0:0:0:
390,61,35940,6,0,L|428:67,3,23.75,2|0|0|0,3:2|0:0|0:0|0:0,0:0:0:0:
344,7,36274,1,0,3:0:0:0:
354,123,36440,2,0,L|357:165,1,23.75,0|0,3:0|0:0,0:0:0:0:
321,204,36607,1,2,3:0:0:0:
321,204,36940,5,0,0:0:0:0:
306,201,37024,1,0,0:0:0:0:
242,221,37107,5,2,0:0:0:0:
245,236,37191,1,0,0:0:0:0:
189,275,37274,5,2,3:2:0:0:
108,247,37440,1,2,3:2:0:0:
173,191,37607,6,0,L|169:172,6,11.875,2|0|0|0|0|0|0,3:0|0:0|0:0|0:0|0:0|0:0|0:0,0:0:0:0:
234,159,37940,2,0,L|241:141,1,11.875,0|0,3:0|0:0,0:0:0:0:
302,167,38107,2,0,L|318:156,1,11.875,2|0,0:0|0:0,0:0:0:0:
353,212,38274,1,2,0:0:0:0:
372,129,38440,1,2,0:0:0:0:
334,295,38607,6,0,L|340:343,1,47.5,2|0,3:2|0:0,0:0:0:0:
238,260,38940,1,2,0:0:0:0:
238,260,39274,6,0,L|244:308,1,47.5,2|0,3:0|0:0,0:0:0:0:
182,207,39607,2,0,L|186:167,1,23.75
110,238,39773,1,2,3:0:0:0:
70,119,39940,6,0,L|65:99,2,11.875,2|0|0,0:0|0:0|0:0,0:0:0:0:
133,139,40107,2,0,L|138:119,2,11.875,0|0|0,0:0|0:0|0:0,0:0:0:0:
110,238,40274,5,0,3:0:0:0:
184,183,40440,2,0,L|182:207,1,23.75
238,260,40607,6,0,L|356:249,1,106.875004076958,2|0,3:0|0:0,0:0:0:0:
368,314,40940,2,0,L|226:327,1,142.5,2|0,3:0|0:0,0:0:0:0:
175,283,41274,5,0,3:0:0:0:
156,278,41357,1,0,0:0:0:0:
137,282,41440,1,0,0:0:0:0:
123,295,41524,1,0,0:0:0:0:
118,313,41607,1,0,3:0:0:0:
41,180,41774,2,0,L|46:127,1,47.5,0|0,3:0|0:0,0:0:0:0:
79,74,41940,6,2,B|67:19|121:-16|181:11|188:75|139:102|139:102|90:128|97:192|157:220|210:184|199:130,1,415.625,2|0,3:0|0:0,0:0:0:0:
261,95,42607,6,0,B|289:84|289:84|314:100|314:100|335:92|335:92|354:104|354:104|372:99|372:99|388:108|388:108|398:106|398:106|408:110|408:110|412:107|412:107|415:111|415:111|418:108|418:108|421:111|421:111|425:108|425:108|428:112|428:112|432:109|432:109|435:113|435:113|439:110|439:110|442:114|442:114|445:111|445:111|448:114|448:114|452:111|452:111|455:115|455:115|459:112|459:112|462:116|462:116|465:113|465:113|468:116,1,249.375009512902,0|0,0:0|0:0,0:1:0:0:
512,174,43274,5,0,3:0:0:0:
495,197,43357,1,0,3:0:0:0:
475,217,43440,1,0,3:0:0:0:
451,232,43524,1,0,3:0:0:0:
424,242,43607,1,0,3:0:0:0:
396,246,43690,1,0,3:0:0:0:
367,244,43774,1,0,3:0:0:0:
340,237,43857,1,0,3:0:0:0:
310,178,43940,6,0,B|325:78|325:78|347:42,2,142.5,6|2|2,1:0|0:1|1:0,0:0:0:0:
256,360,44607,1,8,1:2:0:0:
209,272,44774,6,0,L|304:272,2,95,2|2|2,0:0|0:0|0:0,0:0:0:0:
165,42,45274,6,0,B|187:78|187:78|202:178,2,142.5,2|2|2,1:0|0:1|1:0,0:1:0:0:
17,136,45940,1,8,1:2:0:0:
58,305,46107,5,2,0:0:0:0:
103,244,46273,1,2,0:0:0:0:
84,171,46440,1,2,0:0:0:0:
141,378,46607,6,0,B|225:389|225:389|253:370|233:339,1,142.500005435944,6|0,1:0|0:0,0:0:0:0:
187,278,46857,2,0,P|184:246|212:216,2,71.2500027179719,2|8|0,0:1|1:0|0:0,0:0:0:0:
232,338,47107,2,0,P|265:345|294:326,1,71.2500027179719,0|0,1:0|0:0,0:0:0:0:
234,156,47274,2,0,P|265:171|275:204,1,71.2500027179719,2|0,0:1|0:0,0:0:0:0:
358,302,47440,1,0,0:0:0:0:
358,302,47524,1,0,0:0:0:0:
418,274,47607,6,0,L|433:177,1,71.2500027179719,10|0,1:0|0:0,0:0:0:0:
362,141,47774,2,0,L|347:44,1,71.2500027179719
275,25,47940,6,0,P|240:55|201:35,1,71.2500027179719,2|0,1:0|0:0,0:0:0:0:
108,17,48107,6,2,L|275:25,1,166.250001585484,2|8,0:1|1:0,0:1:0:0:
487,34,48440,5,2,1:2:0:0:
355,151,48607,1,2,1:2:0:0:
348,113,48691,1,0,1:0:0:0:
378,86,48774,1,2,1:2:0:0:
404,264,48940,1,8,1:0:0:0:
283,92,49107,1,0,1:0:0:0:
103,204,49274,6,0,P|111:145|166:175,1,128.250000489235,2|0,1:0|0:0,0:0:0:0:
199,274,49524,1,2,0:1:0:0:
180,289,49607,2,0,P|166:260|168:225,1,64.1250002446175,8|0,1:0|0:0,0:0:0:0:
255,108,49774,6,2,B|226:142|226:142|257:184|257:184|306:171|306:171|308:126,1,192.375000733852,2|0,1:0|0:0,0:1:0:0:
277,39,50107,2,2,P|303:56|346:58,1,64.1250002446175,2|0,0:0|0:0,0:1:0:0:
506,83,50274,2,2,P|442:89|380:119,1,128.250000489235,8|2,1:0|0:0,0:1:0:0:
430,299,50607,6,0,P|422:240|367:270,1,128.250000489235,2|0,1:0|0:0,0:0:0:0:
334,369,50857,1,2,0:1:0:0:
353,384,50940,2,0,P|367:355|365:320,1,64.1250002446175,8|0,1:0|0:0,0:0:0:0:
278,203,51107,6,2,B|307:237|307:237|276:279|276:279|227:266|227:266|225:221,1,192.375000733852,2|0,1:0|0:0,0:1:0:0:
256,134,51440,2,2,P|230:151|187:153,1,64.1250002446175,2|0,0:0|0:0,0:1:0:0:
132,93,51607,2,2,P|130:61|150:23,1,64.1250002446175,8|0,1:0|0:0,0:1:0:0:
229,6,51774,2,2,P|257:20|275:46,1,64.1250002446175,0|0,0:0|0:0,0:1:0:0:
431,37,51940,6,0,B|400:16|380:44|380:44|390:128,1,142.500005435944,2|0,1:0|0:0,0:0:0:0:
443,188,52190,2,0,P|473:203|506:192,2,71.2500027179719,2|8|0,0:1|1:0|0:0,0:0:0:0:
318,151,52440,2,0,P|283:144|255:163,1,71.2500027179719,0|0,1:0|0:0,0:0:0:0:
351,270,52607,2,0,P|373:243|369:208,1,71.2500027179719,2|0,0:1|0:0,0:1:0:0:
193,142,52774,1,0,0:0:0:0:
193,142,52857,1,0,0:0:0:0:
153,195,52940,6,0,L|168:292,1,71.2500027179719,10|0,1:0|0:0,0:0:0:0:
58,95,53107,6,0,P|81:120|79:155,1,71.2500027179719,2|0,0:1|0:0,0:0:0:0:
60,298,53274,6,0,P|57:263|81:237,1,71.2500027179719,0|0,1:0|0:0,0:0:0:0:
238,289,53440,2,0,B|252:297|270:296|270:296|226:300,1,71.2500027179719,2|0,0:1|0:0,0:0:0:0:
153,195,53607,6,0,P|150:230|174:256,1,71.2500027179719,8|0,1:0|0:0,0:0:0:0:
335,272,53774,2,0,B|349:264|367:265|367:265|323:261,1,71.2500027179719,2|0,0:1|0:0,0:0:0:0:
209,153,53940,5,2,1:2:0:0:
184,91,54023,1,2,1:2:0:0:
225,145,54107,1,0,1:0:0:0:
339,3,54274,5,0,1:0:0:0:
298,18,54357,1,2,1:2:0:0:
275,53,54441,1,0,1:0:0:0:
272,95,54524,1,2,1:2:0:0:
335,125,54607,6,2,B|362:99|406:112|415:163|378:191|344:176|344:176|309:161|282:183,1,213.750008153916,4|0,1:0|0:0,0:1:0:0:
305,292,54940,6,0,P|322:262|317:235,1,59.375,10|0,1:0|0:0,0:0:0:0:
218,166,55107,2,0,P|184:175|169:197,1,59.375,0|0,1:0|0:0,0:0:0:0:
24,196,55274,6,0,P|104:183|65:120,1,142.500005435944,2|0,0:1|0:0,0:0:0:0:
33,128,55524,1,2,0:1:0:0:
170,193,55607,2,0,P|202:248|259:217,1,142.500005435944,8|2,1:0|0:1,0:0:0:0:
403,59,55940,6,2,L|392:2,1,35.625001358986,0|0,1:0|0:0,0:1:0:0:
326,184,56107,2,2,L|332:218,1,35.625001358986,0|0,0:0|0:0,0:1:0:0:
486,101,56274,2,2,L|475:44,1,35.625001358986,8|0,1:0|0:0,0:1:0:0:
409,227,56441,2,2,L|415:261,1,35.625001358986,0|0,1:0|0:0,0:1:0:0:
307,89,56607,6,0,P|250:57|217:112,1,142.500005435944,2|2,0:1|0:0,0:0:0:0:
175,170,56857,1,2,0:1:0:0:
66,58,56940,2,0,P|128:41|146:103,1,142.500005435944,8|2,1:0|0:1,0:0:0:0:
154,364,57274,6,2,B|148:330|148:330|167:299|167:299|163:295|163:295|170:272|170:272|157:234|157:234|161:231|161:231|176:204|176:204|169:183|169:183|179:160,1,213.750008153916,2|0,1:0|0:0,0:1:0:0:
85,138,57607,2,0,L|102:215,1,59.375,10|0,1:0|0:0,0:0:0:0:
242,214,57774,2,0,L|269:159,1,59.375,0|0,1:0|0:0,0:0:0:0:
450,188,57940,6,0,B|435:258|435:258|355:212,1,142.500005435944,2|0,0:1|0:0,0:0:0:0:
389,155,58190,1,2,0:1:0:0:
353,291,58274,2,0,L|267:299,1,71.2500027179719,8|0,1:0|0:0,0:0:0:0:
159,241,58440,6,0,L|202:315,1,71.2500027179719,2|0,0:1|0:0,0:0:0:0:
159,384,58607,1,0,1:0:0:0:
70,228,58774,6,0,P|63:300|45:371,2,142.500005435944,2|8|0,0:1|1:0|1:0,0:0:0:0:
4,64,59274,5,2,1:2:0:0:
49,84,59357,1,2,1:2:0:0:
86,52,59440,1,2,1:2:0:0:
68,216,59607,1,8,1:0:0:0:
38,2,59774,1,2,1:2:0:0:
263,117,59940,5,2,1:0:0:0:
214,74,60024,1,2,1:2:0:0:
154,101,60107,2,0,P|136:126|156:180,1,71.2500027179719,2|0,1:0|0:0,0:0:0:0:
347,56,60274,6,0,L|287:49,1,59.375,10|0,1:0|0:0,0:0:0:0:
87,28,60440,2,0,L|146:34,1,59.375,0|0,1:0|0:0,0:0:0:0:
318,126,60607,6,0,P|374:157|407:102,1,142.500005435944,2|0,0:1|0:1,0:0:0:0:
350,66,60857,1,2,0:1:0:0:
255,148,60940,2,0,L|272:303,1,142.500005435944,8|2,1:0|0:1,0:0:0:0:
387,329,61274,6,2,L|333:311,1,35.625001358986,0|0,1:0|0:0,0:1:0:0:
165,326,61440,2,2,L|219:344,1,35.625001358986,0|0,0:0|0:0,0:1:0:0:
377,234,61607,2,2,L|323:216,1,35.625001358986,8|0,1:0|0:0,0:1:0:0:
155,231,61773,2,2,L|209:249,1,35.625001358986,0|0,1:0|0:0,0:1:0:0:
254,147,61940,6,2,L|247:77,1,71.2500027179719,0|0,0:0|0:0,0:1:0:0:
362,20,62107,2,0,P|333:49|296:36,1,71.2500027179719,2|0,0:1|0:0,0:0:0:0:
181,59,62273,2,0,P|147:67|121:46,1,71.2500027179719,10|0,1:0|0:0,0:0:0:0:
24,35,62440,6,2,L|94:42,1,71.2500027179719,0|0,0:0|0:0,0:1:0:0:
111,176,62607,6,2,B|86:213|86:213|32:102|32:102|77:106,1,213.750008153916,2|0,1:0|0:0,0:1:0:0:
152,236,62940,6,0,B|183:300,1,59.375,10|0,1:0|0:0,0:0:0:0:
301,210,63107,2,0,B|332:145,1,59.375,0|0,1:0|0:0,0:0:0:0:
434,271,63274,2,2,B|467:278|467:278|442:253,2,59.375,2|0|0,0:1|0:0|0:0,0:1:0:0:
408,160,63524,5,2,0:1:0:0:
408,160,63607,2,0,B|383:214,1,59.375,10|0,1:0|0:0,0:0:0:0:
259,293,63774,2,2,B|234:240,1,59.375,2|0,1:0|0:0,0:1:0:0:
309,57,63940,1,0,1:0:0:0:
173,194,64107,6,2,P|112:190|29:172,1,142.500005435944,2|8,0:1|1:0,0:1:0:0:
233,239,64440,1,2,1:2:0:0:
131,361,64607,1,2,1:2:0:0:
96,325,64690,1,2,1:2:0:0:
110,276,64774,1,2,1:2:0:0:
294,277,64940,1,8,1:0:0:0:
177,304,65107,1,2,1:2:0:0:
245,326,65274,6,2,P|354:338|494:368,1,249.375009512902,2|0,0:0|0:0,0:0:0:0:
485,261,65940,6,0,P|479:277|479:295,1,35.625,2|0,0:0|0:0,0:0:0:0:
432,180,66274,6,0,L|425:83,3,71.2500027179719,0|0|0|0,3:0|3:0|3:0|3:0,3:0:0:0:
358,148,66607,6,0,B|331:155|331:155|307:148|307:148|311:156|311:156|287:140|287:140|252:154,3,117.166666219711,6|2|2|2,1:0|0:1|0:1|0:1,0:0:0:0:
163,140,67274,6,0,P|174:159|175:191,1,35.625001358986,8|0,1:0|0:0,0:0:0:0:
154,234,67440,2,2,L|165:108,1,95,0|0,0:0|0:0,0:1:0:0:
272,45,67607,2,0,P|294:71|344:64,1,71.2500027179719,2|0,0:3|0:0,0:0:0:0:
90,108,67774,5,2,0:3:0:0:
132,57,67857,1,2,0:3:0:0:
198,66,67940,5,0,1:0:0:0:
377,18,68107,1,2,0:0:0:0:
380,28,68274,5,2,0:0:0:0:
201,76,68441,1,0,1:0:0:0:
310,107,68607,5,8,1:0:0:0:
489,155,68774,1,2,0:0:0:0:
380,186,68940,5,2,0:0:0:0:
201,234,69107,1,2,0:0:0:0:
433,249,69274,6,2,B|483:250|501:297|469:343|419:341|400:294|400:294|395:282|395:282|383:277|383:277|376:268|376:268|364:266|364:266|355:256|355:256|343:259|343:259|333:252|333:252|323:256|323:256|313:252|313:252|304:258|304:258|293:258|293:258|287:267|287:267|278:270|278:270|273:279|273:279|264:284|264:284|263:295,1,356.25,2|0,1:3|1:0,0:0:0:0:
77,263,69940,6,2,B|60:250|38:246|38:246|72:242|107:260,1,95,8|0,1:0|0:0,0:1:0:0:
164,322,70107,5,2,0:0:0:0:
195,382,70190,1,2,0:0:0:0:
234,346,70274,1,2,0:0:0:0:
265,368,70357,1,2,0:0:0:0:
291,359,70440,1,2,1:2:0:0:
305,367,70524,1,2,1:2:0:0:
372,358,70607,5,0,1:0:0:0:
312,228,70774,1,0,0:0:0:0:
434,155,70940,1,0,0:0:0:0:
306,219,71107,5,0,1:0:0:0:
428,146,71274,2,0,P|436:117|434:84,1,47.5,8|0,1:0|1:0,0:0:0:0:
368,16,71440,1,0,1:0:0:0:
371,187,71607,5,8,1:0:0:0:
372,358,71774,1,0,1:0:0:0:
439,248,71940,6,2,P|372:97|304:249,1,415.625,2|0,0:1|0:0,0:1:0:0:
243,317,72607,5,4,3:1:0:0:
227,312,72690,1,0,3:0:0:0:
193,254,72774,5,0,3:0:0:0:
197,238,72857,1,0,3:0:0:0:
168,346,72940,5,0,3:0:0:0:
164,362,73023,1,0,3:0:0:0:
134,288,73107,5,0,1:0:0:0:
119,283,73190,1,0,1:0:0:0:
60,261,73274,6,0,P|14:239|14:188,1,106.875004076958,2|0,1:3|0:0,0:0:0:0:
86,170,73607,6,2,L|54:281,1,95,2|0,1:0|0:0,0:1:0:0:
122,383,73774,5,2,0:1:0:0:
189,375,73857,1,2,0:1:0:0:
148,320,73940,2,0,P|124:328|98:345,1,35.625001358986,8|0,1:0|0:0,0:0:0:0:
9,199,74107,6,2,P|18:244|60:261,1,95,2|0,0:0|0:0,0:1:0:0:
215,310,74274,6,2,P|248:278|292:289,1,95,0|0,1:0|0:0,0:1:0:0:
403,312,74440,6,0,P|397:329|390:345,1,35.625001358986,2|0,1:3|0:0,0:0:0:0:
347,151,74607,6,2,P|362:205|394:158,1,142.500005435944,4|0,1:3|0:0,0:1:0:0:
256,52,74857,6,2,P|268:126|203:87,1,190,8|0,1:3|0:0,0:1:0:0:
86,148,75107,6,2,P|126:123|118:169,1,118.75,2|0,1:0|0:0,0:1:0:0:
124,243,75274,6,0,L|84:238,1,35.625
99,313,75607,6,0,P|215:300|389:297,1,285,4|0,1:0|0:0,0:0:0:0:
502,241,75940,6,0,P|456:245|427:156,1,142.500005435944,8|0,1:0|1:0,0:0:0:0:
320,1,76274,2,0,P|330:29|333:91,1,83.1250007927418,8|0,1:0|0:0,0:0:0:0:
314,197,76440,5,2,3:0:0:0:
314,197,76524,1,2,3:0:0:0:
252,158,76607,5,0,1:0:0:0:
267,93,76690,1,2,3:2:0:0:
215,136,76774,1,8,1:0:0:0:
230,201,76857,1,2,3:2:0:0:
184,249,76940,6,0,B|185:263|173:285|173:285|169:260|177:240,1,83.1250007927418,2|0,1:3|0:0,0:0:0:0:
178,49,77107,6,2,P|184:115|118:69,1,166.250001585484,10|4,1:0|0:1,0:1:0:0:
