osu file format v14

[General]
AudioFilename: audio.mp3
AudioLeadIn: 0
PreviewTime: 38978
Countdown: 0
SampleSet: Normal
StackLeniency: 0.7
Mode: 0
LetterboxInBreaks: 0
WidescreenStoryboard: 1

[Editor]
Bookmarks: 6421
DistanceSpacing: 0.9
BeatDivisor: 4
GridSize: 4
TimelineZoom: 2.2

[Metadata]
Title:Undead Enemy
TitleUnicode:アンデッドエネミー
Artist:Giga & suzumu feat.Kagamine Rin
ArtistUnicode:ギガ&スズム feat.鏡音リン
Creator:[ Abhor ]
Version:Normal
Source:
Tags:vocaloid △○□× cut version miwasiba __Ag No_Gu _MiaoFUuU_ KittyAdventure gokugohan12468
BeatmapID:1050882
BeatmapSetID:493308

[Difficulty]
HPDrainRate:4
CircleSize:3
OverallDifficulty:4
ApproachRate:5
SliderMultiplier:1.2
SliderTickRate:1

[Events]
//Background and Video events
0,0,"BG.jpg",0,0
//Break Periods
//Storyboard Layer 0 (Background)
//Storyboard Layer 1 (Fail)
//Storyboard Layer 2 (Pass)
//Storyboard Layer 3 (Foreground)
//Storyboard Sound Samples

[TimingPoints]
1399,337.078651685393,4,1,0,100,1,0
6455,-100,4,1,1,70,0,0
6792,-100,4,1,1,60,0,0
12185,-100,4,1,1,70,0,0
12522,-100,4,1,1,60,0,0
17578,-100,4,1,1,70,0,0
17915,-100,4,1,1,60,0,0
33758,-100,4,1,2,50,0,0
39151,-100,4,1,1,70,0,1
58028,-100,4,1,1,70,0,0
59207,-100,4,1,1,70,0,1
60050,-100,4,1,1,60,0,0

[Colours]
Combo1 : 255,196,15
Combo2 : 219,0,219
Combo3 : 11,121,255
Combo4 : 242,38,69

[HitObjects]
256,192,1399,12,0,5443,2:0:0:0:
103,97,6455,5,8,0:0:0:0:
74,201,6792,6,0,P|97:262|152:298,1,120,4|8,0:0|0:0,0:0:0:0:
183,195,7466,2,0,L|285:215,2,90
151,151,8140,1,0,0:0:0:0:
155,43,8477,1,8,0:0:0:0:
259,70,8814,2,0,P|330:102|385:90,1,120,0|8,0:0|0:0,0:0:0:0:
462,41,9488,6,0,L|474:176,1,120,4|8,0:0|0:0,0:0:0:0:
442,264,10163,1,0,0:0:0:0:
342,307,10500,1,8,0:0:0:0:
246,257,10837,2,0,L|175:244,1,60
139,271,11174,2,0,P|84:296|21:289,2,120,8|0|8,0:0|0:0|0:0,0:0:0:0:
68,189,12185,6,0,B|68:115|68:115|107:73,1,120,4|8,0:0|0:0,0:0:0:0:
205,60,12859,1,0,0:0:0:0:
304,102,13196,1,8,0:0:0:0:
340,203,13533,2,0,B|340:277|340:277|321:330,1,120,0|8,0:0|0:0,0:0:0:0:
216,335,14207,1,0,0:0:0:0:
115,295,14545,1,8,0:0:0:0:
86,190,14882,6,0,L|73:61,1,120,4|8,0:0|0:0,0:0:0:0:
180,50,15556,2,0,P|228:77|298:66,1,120,0|8,0:0|0:0,0:0:0:0:
398,61,16230,1,0,0:0:0:0:
449,155,16567,1,8,0:0:0:0:
414,257,16904,2,0,P|365:242|292:267,1,120,0|8,0:0|0:0,0:0:0:0:
212,322,17578,6,0,L|195:182,1,120,4|8,0:0|0:0,0:0:0:0:
113,134,18252,1,0,0:0:0:0:
182,50,18590,1,8,0:0:0:0:
267,115,18927,2,0,P|321:142|383:133,1,120,0|8,0:0|0:0,0:0:0:0:
342,33,19601,1,0,0:0:0:0:
449,36,19938,1,8,0:0:0:0:
489,135,20275,6,0,L|468:275,1,120,4|8,0:0|0:0,0:0:0:0:
364,272,20949,1,0,0:0:0:0:
270,218,21286,1,8,0:0:0:0:
176,165,21623,2,0,B|159:211|159:211|170:281,2,120,0|8|0,0:0|0:0|0:0,0:0:0:0:
257,94,22634,1,8,0:0:0:0:
350,148,22972,5,4,0:0:0:0:
270,218,23309,2,0,P|286:267|350:306,1,120,8|0,0:0|0:0,0:0:0:0:
443,337,23983,1,8,0:0:0:0:
486,238,24320,2,0,B|461:197|461:197|464:108,1,120,0|8,0:0|0:0,0:0:0:0:
379,59,24994,1,0,0:0:0:0:
289,118,25331,1,8,0:0:0:0:
198,58,25668,6,0,B|153:49|153:49|67:69,1,120,4|8,0:0|0:0,0:0:0:0:
63,172,26342,1,0,0:0:0:0:
128,257,26679,1,8,0:0:0:0:
205,332,27016,2,0,B|235:294|235:294|232:201,1,120,0|8,0:0|0:0,0:0:0:0:
200,118,27691,2,0,L|270:117,2,60,0|0|8,0:0|0:0|0:0,0:0:0:0:
127,197,28365,5,4,0:0:0:0:
232,222,28702,2,0,L|307:224,1,60,8|0,0:0|0:0,0:0:0:0:
330,261,29039,2,0,P|395:268|454:235,1,120,0|8,0:0|0:0,0:0:0:0:
375,161,29713,2,0,B|401:118|401:118|397:33,1,120,0|8,0:0|0:0,0:0:0:0:
297,88,30387,2,0,L|291:25,2,60,0|0|8,0:0|0:0|0:0,0:0:0:0:
210,152,31061,6,0,P|193:204|220:286,1,120,4|8,0:0|0:0,0:0:0:0:
300,212,31736,2,0,L|364:203,2,60,0|0|8,0:0|0:0|0:0,0:0:0:0:
291,321,32410,2,0,L|426:301,1,120,0|8,0:0|0:0,0:0:0:0:
450,203,33084,2,0,L|471:129,1,60
427,108,33421,2,0,L|410:48,1,60,8|0,0:0|0:0,0:0:0:0:
358,36,33758,6,0,P|313:66|237:62,1,120,10|8,2:0|0:0,0:0:0:0:
144,39,34432,2,0,L|137:106,2,60,0|0|8,0:0|0:0|0:0,0:0:0:0:
55,101,35106,2,0,P|76:154|134:181,1,120,0|8,0:0|0:0,0:0:0:0:
184,178,35612,1,0,0:0:0:0:
288,206,35949,2,0,P|289:248|279:278,2,60,0|8|0,0:0|0:0|0:0,0:0:0:0:
281,152,36455,6,0,P|265:90|286:28,1,120,10|8,2:0|0:0,0:0:0:0:
372,93,37129,2,0,L|443:112,2,60,0|0|8,0:0|0:0|0:0,0:0:0:0:
210,81,37972,6,0,P|170:99|120:88,2,90,4|4|0,0:0|0:0|0:0,0:0:0:0:
423,43,39151,6,0,L|436:182,1,120,6|8,0:0|0:0,0:0:0:0:
425,270,39825,2,0,P|368:248|331:192,1,120,2|8,0:0|0:0,0:0:0:0:
276,110,40500,2,0,P|250:164|182:196,1,120,0|8,0:0|0:0,0:0:0:0:
171,89,41174,1,0,0:0:0:0:
88,160,41511,2,0,L|93:239,1,60,8|0,0:0|0:0,0:0:0:0:
118,266,41848,6,0,B|155:293|155:293|236:307,1,120,4|8,0:0|0:0,0:0:0:0:
335,300,42522,2,0,L|407:297,1,60
449,297,42859,1,8,0:0:0:0:
485,195,43196,6,0,P|502:144|482:68,1,120,4|8,0:0|0:0,0:0:0:0:
397,136,43870,1,0,0:0:0:0:
420,31,44207,2,0,L|343:40,1,60,8|0,0:0|0:0,0:0:0:0:
306,44,44545,6,0,P|241:76|182:72,1,120,6|8,0:0|0:0,0:0:0:0:
90,45,45219,2,0,L|92:181,1,120,2|8,0:0|0:0,0:0:0:0:
147,257,45893,2,0,L|210:294,1,60,4|0,0:0|0:0,0:0:0:0:
246,312,46230,2,0,L|312:296,2,60,8|0|0,0:0|0:0|0:0,0:0:0:0:
147,356,46904,2,0,L|80:315,1,60,8|0,0:0|0:0,0:0:0:0:
50,295,47241,5,6,0:0:0:0:
52,187,47578,2,0,L|48:117,1,60,8|0,0:0|0:0,0:0:0:0:
58,73,47915,2,0,P|127:123|173:119,1,120,2|8,0:0|0:0,0:0:0:0:
252,69,48590,2,0,P|309:57|371:71,1,120,4|8,0:0|0:0,0:0:0:0:
369,177,49264,2,0,P|312:197|240:184,1,120,0|8,0:0|0:0,0:0:0:0:
149,164,49938,5,6,0:0:0:0:
183,266,50275,1,10,0:0:0:0:
117,351,50612,2,0,P|78:294|80:239,1,120,2|10,0:0|0:0,0:0:0:0:
149,164,51286,1,6,0:0:0:0:
48,124,51623,1,10,0:0:0:0:
92,24,51960,2,0,L|165:44,1,60
201,54,52297,2,0,L|272:49,1,60,8|0,0:0|0:0,0:0:0:0:
314,49,52634,5,6,0:0:0:0:
327,156,52972,2,0,L|405:163,1,60,8|0,0:0|0:0,0:0:0:0:
438,175,53309,1,2,0:0:0:0:
456,281,53646,2,0,L|381:292,1,60,8|0,0:0|0:0,0:0:0:0:
342,295,53983,5,14,0:0:0:0:
234,289,54320,1,14,0:0:0:0:
152,218,54657,1,14,0:0:0:0:
123,113,54994,1,14,0:0:0:0:
230,99,55331,6,0,P|275:119|356:107,1,120,14|8,0:0|0:0,0:0:0:0:
442,68,56005,2,0,P|453:109|447:149,1,60
436,177,56342,2,0,P|421:216|423:252,1,60,8|0,0:0|0:0,0:0:0:0:
448,279,56679,2,0,L|323:289,1,120,6|8,0:0|0:0,0:0:0:0:
228,247,57354,2,0,B|165:261|165:261|96:246,1,120,2|8,0:0|0:0,0:0:0:0:
91,142,58028,6,0,B|165:155|165:155|218:141|218:141|281:156,1,180,6|0,0:0|0:0,0:0:0:0:
459,56,59207,2,0,L|440:186,1,120,6|0,0:0|0:0,0:0:0:0:
452,227,59713,2,0,P|463:275|427:345,1,120,12|0,0:0|0:0,0:0:0:0:
327,332,60387,1,8,0:0:0:0:
228,288,60724,5,0,0:0:0:0:
