osu file format v14

[General]
AudioFilename: audio.mp3
AudioLeadIn: 0
PreviewTime: 38978
Countdown: 0
SampleSet: Normal
StackLeniency: 0.7
Mode: 0
LetterboxInBreaks: 0
WidescreenStoryboard: 0

[Editor]
Bookmarks: 6455
DistanceSpacing: 0.7
BeatDivisor: 4
GridSize: 4
TimelineZoom: 2.2

[Metadata]
Title:Undead Enemy
TitleUnicode:アンデッドエネミー
Artist:Giga & suzumu feat.Kagamine Rin
ArtistUnicode:ギガ&スズム feat.鏡音リン
Creator:[ Abhor ]
Version:Insane
Source:
Tags:vocaloid △○□× cut version miwasiba __Ag No_Gu _MiaoFUuU_ KittyAdventure gokugohan12468
BeatmapID:1050634
BeatmapSetID:493308

[Difficulty]
HPDrainRate:6
CircleSize:4
OverallDifficulty:7.5
ApproachRate:9
SliderMultiplier:1.8
SliderTickRate:1

[Events]
//Background and Video events
0,0,"BG.jpg",0,0
//Break Periods
//Storyboard Layer 0 (Background)
//Storyboard Layer 1 (Fail)
//Storyboard Layer 2 (Pass)
//Storyboard Layer 3 (Foreground)
//Storyboard Sound Samples

[TimingPoints]
1399,337.078651685393,4,1,0,100,1,0
6455,-76.9230769230769,4,1,1,70,0,0
6792,-100,4,1,1,60,0,0
12185,-76.9230769230769,4,1,1,70,0,0
12522,-100,4,1,1,60,0,0
17578,-76.9230769230769,4,1,1,70,0,0
17915,-100,4,1,1,60,0,0
33758,-100,4,1,2,50,0,0
39151,-76.9230769230769,4,1,1,75,0,1
40331,-100,4,1,1,75,0,1
44376,-76.9230769230769,4,1,1,75,0,1
46904,-100,4,1,1,70,0,1
47241,-76.9230769230769,4,1,1,75,0,1
47915,-76.9230769230769,4,1,1,75,0,1
48252,-100,4,1,1,70,0,1
49938,-100,4,1,1,75,0,1
50612,-90.9090909090909,4,1,1,75,0,1
51286,-83.3333333333333,4,1,1,75,0,1
52634,-76.9230769230769,4,1,1,75,0,1
53983,-71.4285714285714,4,1,1,75,0,1
54320,-66.6666666666667,4,1,1,75,0,1
56679,-76.9230769230769,4,1,1,75,0,1
58028,-100,4,1,1,55,0,0
59207,-100,4,1,1,70,0,1
60050,-100,4,1,1,60,0,0

[Colours]
Combo1 : 255,196,15
Combo2 : 219,0,219
Combo3 : 11,121,255
Combo4 : 242,38,69

[HitObjects]
73,81,6455,6,2,P|119:118|188:121,1,116.999994644165,2|0,0:0|0:0,0:0:0:0:
176,125,6792,6,0,L|278:91,1,90,4|0,0:0|0:0,0:0:0:0:
330,175,7129,2,0,P|387:197|436:194,1,90,8|0,0:0|0:0,0:0:0:0:
440,329,7466,2,0,P|346:309|299:321,1,135,0|0,0:0|0:0,0:0:0:0:
266,331,7803,2,0,P|213:343|170:333,1,90,8|0,0:0|0:0,0:0:0:0:
76,249,8140,6,0,L|67:195,2,45,0|0|0,0:0|0:0|0:0,0:0:0:0:
223,249,8477,2,0,L|231:159,1,90,8|0,0:0|0:0,0:0:0:0:
231,13,8814,1,0,0:0:0:0:
231,159,8983,1,0,0:0:0:0:
145,41,9151,1,8,0:0:0:0:
283,86,9320,1,0,0:0:0:0:
145,131,9488,5,0,0:0:0:0:
119,291,9657,1,0,0:0:0:0:
142,269,9741,1,0,0:0:0:0:
167,287,9825,1,8,0:0:0:0:
190,266,9910,1,0,0:0:0:0:
211,289,9994,1,0,0:0:0:0:
232,266,10078,1,0,0:0:0:0:
252,289,10163,5,0,0:0:0:0:
325,237,10331,1,0,0:0:0:0:
392,296,10500,1,8,0:0:0:0:
463,241,10668,1,0,0:0:0:0:
398,177,10837,1,0,0:0:0:0:
348,77,11005,6,0,L|291:81,1,45
217,101,11174,2,0,L|164:99,1,45,8|0,0:0|0:0,0:0:0:0:
61,228,11427,1,0,0:0:0:0:
61,228,11511,2,0,L|67:278,1,45,0|0,0:0|0:0,0:0:0:0:
150,297,11679,1,0,0:0:0:0:
150,297,11764,1,0,0:0:0:0:
150,297,11848,2,0,P|192:325|238:322,1,90,8|0,0:0|0:0,0:0:0:0:
370,243,12185,6,0,P|296:230|250:253,1,116.999994644165,4|0,0:0|0:0,0:0:0:0:
415,314,12522,6,0,P|449:273|449:225,1,90,8|0,0:0|0:0,0:0:0:0:
401,169,12775,1,0,0:0:0:0:
401,169,12859,2,0,L|414:77,1,90,0|0,0:0|0:0,0:0:0:0:
261,38,13196,2,0,P|272:87|254:134,1,90,8|0,0:0|0:0,0:0:0:0:
176,139,13449,1,0,0:0:0:0:
176,139,13533,6,0,L|67:129,1,90,0|0,0:0|0:0,0:0:0:0:
38,203,13786,1,0,0:0:0:0:
38,203,13870,2,0,P|31:264|50:294,1,90,8|0,0:0|0:0,0:0:0:0:
176,228,14207,1,0,0:0:0:0:
43,287,14376,1,0,0:0:0:0:
176,228,14545,1,8,0:0:0:0:
278,334,14713,1,0,0:0:0:0:
401,243,14882,5,0,0:0:0:0:
464,128,15050,1,0,0:0:0:0:
464,128,15134,1,0,0:0:0:0:
464,128,15219,2,0,P|477:66|466:26,1,90,8|0,0:0|0:0,0:0:0:0:
316,130,15556,1,0,0:0:0:0:
316,130,15640,2,0,P|267:162|223:162,1,90
154,142,15893,2,0,P|94:124|55:138,1,90,8|0,0:0|0:0,0:0:0:0:
108,267,16230,5,0,0:0:0:0:
47,157,16398,1,0,0:0:0:0:
47,157,16483,1,0,0:0:0:0:
47,157,16567,2,0,L|28:60,1,90,8|0,0:0|0:0,0:0:0:0:
108,267,16904,2,0,P|105:320|129:363,1,90,0|0,0:0|0:0,0:0:0:0:
280,308,17241,2,0,L|191:297,1,90,8|0,0:0|0:0,0:0:0:0:
348,243,17578,6,0,P|353:180|314:125,1,116.999994644165,4|0,0:0|0:0,0:0:0:0:
196,152,17915,6,0,L|92:129,1,90,8|0,0:0|0:0,0:0:0:0:
50,66,18168,1,0,0:0:0:0:
50,66,18252,2,0,P|101:45|149:56,1,90,0|0,0:0|0:0,0:0:0:0:
196,152,18590,2,0,P|237:166|289:156,1,90,8|0,0:0|0:0,0:0:0:0:
444,63,18927,6,0,L|347:79,1,90,0|0,0:0|0:0,0:0:0:0:
361,164,19179,1,0,0:0:0:0:
361,164,19264,2,0,P|375:212|369:256,1,90,8|0,0:0|0:0,0:0:0:0:
291,292,19516,1,0,0:0:0:0:
291,292,19601,2,0,L|193:281,1,90,0|0,0:0|0:0,0:0:0:0:
109,149,19938,1,8,0:0:0:0:
260,198,20106,1,0,0:0:0:0:
365,46,20275,5,0,0:0:0:0:
338,62,20359,1,0,0:0:0:0:
308,52,20443,1,0,0:0:0:0:
282,70,20528,1,0,0:0:0:0:
253,57,20612,5,8,0:0:0:0:
174,100,20781,1,0,0:0:0:0:
63,192,20949,1,0,0:0:0:0:
26,111,21118,1,0,0:0:0:0:
149,183,21286,1,8,0:0:0:0:
96,54,21455,1,0,0:0:0:0:
220,237,21623,5,4,0:0:0:0:
238,262,21707,1,0,0:0:0:0:
263,281,21792,1,0,0:0:0:0:
291,294,21876,1,0,0:0:0:0:
323,297,21960,1,8,0:0:0:0:
354,293,22045,1,0,0:0:0:0:
382,280,22129,1,0,0:0:0:0:
406,260,22213,1,0,0:0:0:0:
422,233,22297,2,0,P|417:160|450:109,2,135
319,182,22972,6,0,P|308:131|273:91,1,90,4|0,0:0|0:0,0:0:0:0:
145,76,23309,2,0,P|102:99|80:137,1,90,8|0,0:0|0:0,0:0:0:0:
189,255,23646,1,0,0:0:0:0:
205,162,23814,1,0,0:0:0:0:
283,344,23983,1,8,0:0:0:0:
276,256,24151,1,0,0:0:0:0:
371,347,24320,6,0,P|387:290|380:256,1,90,0|0,0:0|0:0,0:0:0:0:
334,189,24573,1,0,0:0:0:0:
334,189,24657,2,0,P|384:176|422:187,1,90,8|0,0:0|0:0,0:0:0:0:
256,153,24994,2,0,P|209:168|126:132,1,135,0|0,0:0|0:0,0:0:0:0:
107,56,25331,1,8,0:0:0:0:
105,222,25500,1,0,0:0:0:0:
202,67,25668,6,0,L|298:47,1,90,4|0,0:0|0:0,0:0:0:0:
438,99,26005,1,8,0:0:0:0:
349,114,26174,1,0,0:0:0:0:
327,316,26342,1,8,0:0:0:0:
424,231,26511,1,0,0:0:0:0:
250,214,26679,1,0,0:0:0:0:
424,231,26848,1,0,0:0:0:0:
250,214,27016,6,0,P|189:234|144:227,1,90,0|0,0:0|0:0,0:0:0:0:
101,174,27269,1,0,0:0:0:0:
101,174,27354,2,0,L|87:79,1,90,8|0,0:0|0:0,0:0:0:0:
241,42,27691,1,0,0:0:0:0:
383,128,27859,1,0,0:0:0:0:
250,214,28028,2,0,P|189:234|144:227,1,90,8|0,0:0|0:0,0:0:0:0:
322,288,28365,6,0,P|366:312|421:308,1,90,4|0,0:0|0:0,0:0:0:0:
431,231,28618,1,0,0:0:0:0:
431,231,28702,2,0,L|446:137,1,90,8|0,0:0|0:0,0:0:0:0:
374,94,28955,1,0,0:0:0:0:
374,94,29039,2,0,P|315:120|279:109,1,90,0|0,0:0|0:0,0:0:0:0:
142,48,29376,1,8,0:0:0:0:
125,201,29545,1,0,0:0:0:0:
125,201,29629,1,0,0:0:0:0:
125,201,29713,5,0,0:0:0:0:
42,116,29882,1,0,0:0:0:0:
125,201,30050,1,8,0:0:0:0:
142,48,30219,1,0,0:0:0:0:
142,48,30303,1,0,0:0:0:0:
142,48,30387,1,0,0:0:0:0:
231,207,30556,2,0,P|288:196|335:203,1,90,0|8,0:0|0:0,0:0:0:0:
403,320,30893,1,0,0:0:0:0:
403,320,30977,1,0,0:0:0:0:
403,320,31061,5,4,0:0:0:0:
277,294,31230,1,0,0:0:0:0:
423,222,31398,1,8,0:0:0:0:
277,294,31567,1,0,0:0:0:0:
352,114,31736,2,0,P|295:96|258:101,1,90,0|0,0:0|0:0,0:0:0:0:
106,149,32073,2,0,L|81:43,1,90,8|0,0:0|0:0,0:0:0:0:
183,232,32410,6,0,B|178:280|178:280|144:323,1,90,0|0,0:0|0:0,0:0:0:0:
67,309,32663,1,0,0:0:0:0:
67,309,32747,2,0,B|41:276|41:276|36:228,1,90,8|0,0:0|0:0,0:0:0:0:
85,61,33084,5,0,0:0:0:0:
216,153,33252,1,0,0:0:0:0:
36,228,33421,1,8,0:0:0:0:
216,153,33590,1,0,0:0:0:0:
202,322,33758,6,0,P|269:338|343:318,1,135,10|0,0:2|0:0,0:0:0:0:
365,292,34095,1,8,0:0:0:0:
410,117,34432,2,0,L|363:127,2,45,0|0|0,0:0|0:0|0:0,0:0:0:0:
329,199,34769,2,0,P|291:163|282:110,1,90,8|0,0:0|0:0,0:0:0:0:
477,60,35106,6,0,P|497:121|464:193,1,135,10|0,0:2|0:0,0:0:0:0:
430,201,35443,1,8,0:0:0:0:
329,199,35612,1,0,0:0:0:0:
442,323,35949,5,0,0:0:0:0:
330,328,36118,1,8,0:0:0:0:
217,334,36286,1,0,0:0:0:0:
159,212,36455,6,0,P|105:230|31:192,1,135,10|0,0:2|0:0,0:0:0:0:
30,154,36792,1,8,0:0:0:0:
194,81,37129,2,0,L|255:76,2,45,0|0|0,0:0|0:0|0:0,0:0:0:0:
305,135,37466,2,0,P|326:81|315:37,2,90,8|0|0,0:0|0:0|0:0,0:0:0:0:
147,196,37972,5,4,0:0:0:0:
429,243,38224,1,4,0:0:0:0:
150,319,38477,1,4,0:0:0:0:
424,100,38983,5,0,0:0:0:0:
424,100,39067,1,0,0:0:0:0:
424,100,39151,2,0,L|304:86,2,116.999994644165,6|0|8,0:0|0:0|0:0,0:0:0:0:
209,176,39657,1,0,0:0:0:0:
209,176,39741,1,0,0:0:0:0:
209,176,39825,2,0,L|93:163,2,116.999994644165,6|0|8,0:0|0:0|0:0,0:0:0:0:
376,213,40331,5,0,0:0:0:0:
376,213,40415,1,0,0:0:0:0:
376,213,40500,2,0,B|385:269|385:269|364:355,1,135,4|0,0:0|0:0,0:0:0:0:
284,321,40837,1,8,0:0:0:0:
473,269,41005,1,0,0:0:0:0:
285,195,41174,2,0,B|275:147|275:147|292:59,1,135
377,80,41511,2,0,P|421:96|474:83,1,90,8|0,0:0|0:0,0:0:0:0:
202,91,41848,5,4,0:0:0:0:
112,150,42016,1,0,0:0:0:0:
112,150,42101,1,0,0:0:0:0:
112,150,42185,2,0,P|97:102|98:57,1,90,8|0,0:0|0:0,0:0:0:0:
189,225,42522,2,0,P|190:272|166:317,1,90
53,229,42859,1,8,0:0:0:0:
189,225,43028,1,0,0:0:0:0:
189,225,43112,1,0,0:0:0:0:
189,225,43196,5,4,0:0:0:0:
323,146,43365,1,0,0:0:0:0:
268,284,43533,1,8,0:0:0:0:
228,139,43702,1,0,0:0:0:0:
348,233,43870,2,0,P|401:215|442:222,1,90,0|0,0:3|0:0,0:0:0:0:
268,284,44207,2,0,P|207:308|171:303,1,90,8|0,0:0|0:0,0:0:0:0:
115,252,44460,5,0,0:0:0:0:
115,252,44545,2,0,L|90:114,2,116.999994644165,6|0|8,0:0|0:0|0:0,0:0:0:0:
327,178,45050,1,0,0:0:0:0:
327,178,45134,1,0,0:0:0:0:
327,178,45219,2,0,L|350:58,2,116.999994644165,6|0|8,0:0|0:0|0:0,0:0:0:0:
94,136,45724,1,0,0:0:0:0:
94,136,45809,1,0,0:0:0:0:
94,136,45893,6,0,P|63:79|56:20,1,116.999994644165,4|0,0:0|0:0,0:0:0:0:
238,34,46230,1,8,0:0:0:0:
0,136,46398,1,0,0:0:0:0:
179,175,46567,2,0,P|164:231|125:274,1,116.999994644165
259,304,46904,6,0,P|307:322|359:317,1,90,12|0,0:0|0:0,0:0:0:0:
315,117,47241,6,0,B|307:139|307:139|318:166|318:166|317:230,1,116.999994644165,2|0,0:0|0:0,0:0:0:0:
360,309,47494,2,0,P|297:311|245:283,1,116.999994644165,8|0,0:0|0:0,0:0:0:0:
189,235,47747,1,0,0:0:0:0:
186,40,47915,6,0,B|186:105|186:105|175:132|175:132|183:154,1,116.999994644165,2|0,0:0|0:0,0:0:0:0:
271,128,48168,5,0,0:0:0:0:
271,128,48252,2,0,L|375:113,1,90,8|0,0:0|0:0,0:0:0:0:
431,168,48505,1,0,0:0:0:0:
431,168,48590,6,0,P|442:229|435:262,1,90,4|0,0:0|0:0,0:0:0:0:
309,325,48927,1,8,0:0:0:0:
309,325,49095,1,0,0:0:0:0:
162,265,49264,2,0,P|95:207|99:111,1,180,0|8,0:0|0:0,0:0:0:0:
193,162,49769,1,0,0:0:0:0:
423,49,49938,6,0,P|432:96|419:147,1,90,2|0,0:0|0:0,0:0:0:0:
315,135,50275,2,0,P|306:91|315:47,1,90,10|0,0:0|0:0,0:0:0:0:
374,214,50612,6,0,P|386:274|372:316,1,99.0000030212403,2|0,0:0|0:0,0:0:0:0:
256,311,50949,2,0,P|245:263|257:215,1,99.0000030212403,10|0,0:0|0:0,0:0:0:0:
469,212,51286,6,0,P|481:268|465:336,1,107.999996704102,6|0,0:0|0:0,0:0:0:0:
152,317,51623,2,0,P|140:265|148:212,1,107.999996704102,10|0,0:0|0:0,0:0:0:0:
301,105,51960,5,4,0:3:0:0:
148,212,52129,1,4,0:3:0:0:
301,105,52297,1,12,0:3:0:0:
109,74,52466,1,4,0:3:0:0:
395,71,52634,6,0,B|416:112|388:156|388:156|404:205|404:205|409:248|356:262|378:201,1,233.999989288331,6|8,0:0|0:0,0:0:0:0:
443,312,53140,1,0,0:0:0:0:
443,312,53224,1,0,0:0:0:0:
443,312,53309,2,0,P|370:334|283:216,1,233.999989288331,2|8,0:0|0:0,0:0:0:0:
395,71,53814,1,0,0:0:0:0:
395,71,53898,1,0,0:0:0:0:
395,71,53983,6,0,B|351:108|301:87|301:87|259:118|208:94,1,188.999994232178,14|0,0:0|0:0,0:0:0:0:
241,13,54320,6,0,P|162:31|146:148,1,202.500007724762,14|0,0:0|0:0,0:0:0:0:
214,190,54657,1,10,0:0:0:0:
391,323,54825,5,0,0:0:0:0:
391,323,54910,1,0,0:0:0:0:
391,323,54994,2,0,P|397:234|302:184,1,202.500007724762,14|0,0:0|0:0,0:0:0:0:
316,274,55331,6,0,B|264:242|200:280|200:280|129:324|52:263,1,270.000010299683,14|8,0:0|0:0,0:0:0:0:
139,181,55837,1,0,0:0:0:0:
139,181,55921,1,0,0:0:0:0:
139,181,56005,5,0,0:0:0:0:
57,39,56174,1,0,0:0:0:0:
139,181,56342,1,8,0:0:0:0:
235,43,56511,1,0,0:0:0:0:
327,187,56679,6,0,P|343:250|255:316,1,175.499991966248,6|0,0:0|0:0,0:0:0:0:
256,231,57016,2,0,P|372:287|475:275,1,233.999989288331,10|0,0:0|0:0,0:0:0:0:
416,103,57522,1,0,0:0:0:0:
416,103,57606,1,0,0:0:0:0:
416,103,57691,2,0,P|366:79|341:82,1,58.4999973220826,8|0,0:0|0:0,0:0:0:0:
266,122,57859,1,0,0:0:0:0:
266,122,57943,1,0,0:0:0:0:
266,122,58028,6,0,B|230:169|168:154|168:154|128:170|128:170|62:136|8:197,2,270,6|0|0,0:0|0:0|0:0,0:0:0:0:
386,293,59207,6,0,B|391:255|449:227|413:147|298:237|409:253|457:252,1,180,6|0,0:3|0:0,0:0:0:0:
276,254,59713,2,0,L|179:263,1,90,8|0,0:0|0:0,0:0:0:0:
52,70,60050,1,2,0:0:0:0:
52,70,60387,1,8,0:0:0:0:
39,214,60724,5,0,0:0:0:0:
