osu file format v14

[General]
AudioFilename: audio.mp3
AudioLeadIn: 0
PreviewTime: 3737
Countdown: 0
SampleSet: Soft
StackLeniency: 0.2
Mode: 0
LetterboxInBreaks: 0
WidescreenStoryboard: 1

[Editor]
DistanceSpacing: 0.5
BeatDivisor: 8
GridSize: 32
TimelineZoom: 3.9

[Metadata]
Title:Free Beat
TitleUnicode:Free Beat
Artist:Ghostrage
ArtistUnicode:Ghostrage
Creator:i shot my son
Version:cyanine's I dont even map this mode
Source:
Tags:if people search anime bitches will i get plays on my map nightlys cmard
BeatmapID:1963870
BeatmapSetID:937225

[Difficulty]
HPDrainRate:2
CircleSize:4.2
OverallDifficulty:9.2
ApproachRate:9.7
SliderMultiplier:2.79999990463257
SliderTickRate:1

[Events]
//Background and Video events
0,0,"goofy.jpg",0,0
//Break Periods
//Storyboard Layer 0 (Background)
//Storyboard Layer 1 (Fail)
//Storyboard Layer 2 (Pass)
//Storyboard Layer 3 (Foreground)
//Storyboard Sound Samples

[TimingPoints]
309,428.571428571429,4,2,1,40,1,0
309,-100,4,2,1,70,0,0
1594,-400,4,2,1,70,0,0
2880,-303.030303030303,4,2,1,70,0,0
3737,-25,4,2,1,70,0,0
4737,-500,4,2,1,70,0,0
5666,-133.333333333333,4,2,6,70,0,0
6094,-434.782608695652,4,2,1,70,0,0
6309,-434.782608695652,4,2,5,70,0,0
6737,-175.438596491228,4,2,1,70,0,0
7166,-25,4,2,3,70,0,0
8023,-250,4,2,1,70,0,0
8666,-125,4,2,1,70,0,0
9094,-125,4,1,12,70,0,0
9309,-250,4,2,1,70,0,0
9951,-125,4,2,1,70,0,0
10594,-125,4,2,13,70,0,0
10880,107.142857142857,4,2,1,100,1,0
10880,-25,4,2,1,100,0,0
12058,428.471428571429,4,2,1,40,1,0
13129,-50,4,2,2,70,0,0
13772,-400,4,2,1,70,0,0
13986,-80,4,2,1,70,0,0
14307,-100,4,2,1,70,0,0
14789,-100,4,2,5,70,0,0
15700,-1000,4,3,41,70,0,0
16771,-100,4,2,1,40,0,0

[Colours]
Combo1 : 255,0,0
Combo2 : 128,128,128
Combo3 : 217,217,217
Combo4 : 255,0,0

[HitObjects]
169,181,309,6,0,B|167:241|167:241|207:227|242:252,1,139.999995231629,2|0,3:0|0:0,0:0:0:0:
89,203,737,2,0,B|101:161|75:127|75:127|133:109,1,139.999995231629,0|0,0:0|0:0,0:0:0:0:
190,55,1166,2,0,B|155:5|155:5|130:40|87:40,1,139.999995231629,0|0,0:0|0:0,0:0:0:0:
245,169,1594,6,0,B|301:188|301:188|301:146|335:119,1,139.999995231629,0|0,0:0|0:0,0:0:0:0:
251,104,2880,2,0,B|243:159|289:181,1,92.3999965708924,0|0,0:0|0:0,0:0:0:0:
290,181,3737,38,0,B|244:158|251:102|251:102|244:158|289:180,5,186.666660308838,8|2|2|2|2|2,1:3|1:0|1:0|1:0|1:0|1:0,0:0:0:0:
329,115,4166,6,0,B|335:64|390:53|390:53|335:64|329:115,5,186.666660308838,2|2|2|0|2|0,1:0|1:0|1:0|0:0|1:0|0:0,0:0:0:0:
405,131,4594,38,0,B|453:121|481:171|481:171|453:121|404:131,1,186.666660308838,2|0,1:0|0:0,0:0:0:0:
414,208,4737,6,0,B|440:253|398:293|398:293,1,93.333330154419,0|0,0:0|0:0,0:0:0:0:
314,339,5666,38,0,B|312:339|257:357|230:315,1,91.8750003755093,4|0,1:0|0:0,0:0:0:0:
231,316,5880,6,0,B|257:357|311:337|312:337,1,91.8750003755093,0|0,0:0|0:0,0:0:0:0:
314,339,6094,38,0,B|312:339|257:357|231:316,1,91.2333271633024,0|0,0:0|0:0,0:0:0:0:
165,181,6737,2,0,L|174:247,1,66.499996923256,0|0,0:0|0:0,0:0:0:0:
111,358,6951,2,0,L|48:333,1,66.499996923256,0|0,0:0|0:0,0:0:0:0:
272,205,7166,6,0,B|288:153|246:48|242:53|271:102|283:114|283:114|308:112|389:90|390:92|308:107|246:141|248:147|295:198|298:192|320:167|323:170|322:203|327:203|377:199,1,419.999985694885,6|0,0:0|0:0,0:0:0:0:
347,268,7380,2,0,B|344:288|367:295|361:314|363:317|374:324|378:325|361:359|361:359|385:327|393:329|400:291|395:293|409:271|409:271|412:291|417:294|415:333|407:333|425:375|425:375|425:336|435:334|444:304|466:298|476:274,1,419.999985694885,0|0,0:0|0:0,0:0:0:0:
447,194,7594,2,0,B|460:155|460:155|491:129|491:129|460:154|460:154|436:117|436:117|460:154,1,186.666660308838,0|0,0:0|0:0,0:0:0:0:
296,80,7737,2,0,B|296:49|296:49|291:57|294:57|294:57|297:142|297:142|301:148|301:148|307:142|307:142|383:91|383:91|389:92|387:86|387:86|407:29|407:29|363:1|363:1|357:-5|353:0|353:0|285:-5,1,373.333320617676,0|0,0:0|0:0,0:0:0:0:
187,32,8023,38,0,L|149:35,1,37.3333320617676,8|8,1:0|1:0,0:0:0:0:
271,151,8237,2,0,L|283:114,1,37.3333320617676,8|8,1:0|1:0,0:0:0:0:
126,165,8451,2,0,L|151:194,1,37.3333320617676,0|0,0:0|0:0,0:0:0:0:
187,32,8666,6,0,L|111:38,1,74.6666641235352,0|0,0:0|0:0,0:0:0:0:
271,151,8880,2,0,L|296:78,1,74.6666641235352,0|0,0:0|0:0,0:0:0:0:
126,165,9094,2,0,L|176:223,1,74.6666641235352,0|0,1:0|1:0,0:0:0:0:
75,41,9309,38,0,L|112:37,1,37.3333320617676,0|0,0:0|0:0,0:0:0:0:
307,45,9523,2,0,L|295:80,1,37.3333320617676,0|0,1:0|1:0,0:0:0:0:
198,250,9737,2,0,L|174:221,1,37.3333320617676,0|0,0:0|0:0,0:0:0:0:
38,44,9951,6,0,L|112:38,1,74.6666641235352,0|0,1:0|1:0,0:0:0:0:
320,11,10166,2,0,L|295:81,1,74.6666641235352,0|0,0:0|0:0,0:0:0:0:
222,278,10380,2,0,L|174:221,1,74.6666641235352,0|0,1:0|0:0,0:0:0:0:
103,118,10880,6,0,B|127:77|127:77|103:118|103:118|74:154|74:154|103:118|103:118|62:89|62:89|103:118|103:118|139:142|139:142|103:118,1,373.333320617676,8|0,3:0|0:0,0:0:0:0:
359,346,11094,6,0,B|330:305|330:305|359:346|359:346|383:382|383:382|359:346|359:346|395:317|395:317|359:346|359:346|318:370|318:370|359:346,1,373.333320617676,8|0,3:0|0:0,0:0:0:0:
268,24,11308,38,0,B|306:-4|306:-4|268:24|268:24|227:45|227:45|268:24|268:24|241:-18|241:-18|268:24|268:24|291:60|291:60|268:24,1,373.333320617676,8|0,3:0|0:0,0:0:0:0:
291,298,11523,6,0,B|279:250|279:250|291:298|291:298|298:341|298:341|291:298|291:298|334:286|334:286|291:298|291:298|243:305|243:305|291:298,1,373.333320617676,8|0,3:0|0:0,0:0:0:0:
464,171,11737,38,0,B|434:131|434:131|464:171|464:171|488:208|488:208|464:171|464:171|423:196|423:196|464:171|464:171|499:143|499:143|464:171,1,373.333320617676,8|0,3:0|0:0,0:0:0:0:
149,346,11951,6,0,B|176:381|176:381|149:346|149:346|123:304|123:304|149:346|149:346|188:317|188:317|149:346|149:346|111:369|111:369|149:346,1,373.333320617676,8|0,3:0|0:0,0:0:0:0:
323,75,12469,6,0,P|346:29|337:2,1,69.9999976158143,0|0,0:0|0:0,0:0:0:0:
245,97,12684,2,0,P|283:142|373:137,1,139.999995231629,0|0,0:0|0:0,0:0:0:0:
456,242,13129,6,8,P|410:219|383:228,1,69.9999976158143
359,143,13219,2,8,P|327:157|310:187,1,69.9999976158143,8|8,0:0|0:0,0:0:0:0:
225,179,13326,2,8,P|228:230|249:249,1,69.9999976158143,8|8,0:0|0:0,0:0:0:0:
306,328,13434,2,8,P|302:276|281:257,1,69.9999976158143,8|8,0:0|0:0,0:0:0:0:
343,196,13541,2,8,P|315:175|281:176,1,69.9999976158143,8|8,0:0|0:0,0:0:0:0:
245,97,13648,2,8,P|202:125|196:153,1,69.9999976158143,8|8,0:0|0:0,0:0:0:0:
118,28,13772,38,2,L|119:45,1,17.4999994039536
50,104,13986,6,10,B|27:194|94:180|47:273,1,174.999994039536,10|10,0:3|0:3,0:3:0:0:
193,345,14307,2,10,P|165:324|130:323,1,69.9999976158143,10|10,0:3|0:3,0:3:0:0:
225,179,14521,2,10,P|223:221|260:256,1,69.9999976158143,10|10,0:3|0:3,0:3:0:0:
437,249,14789,2,8,L|430:318,1,69.9999976158143,8|8,0:1|0:1,0:1:0:0:
328,221,15057,2,8,L|340:360,1,139.999995231629,8|2,0:1|0:1,0:1:0:0:
507,384,15700,22,0,L|500:453,1,69.9999976158143,8|0,3:0|0:0,0:0:0:0:
