osu file format v14

[General]
AudioFilename: audio.mp3
AudioLeadIn: 0
PreviewTime: 68606
Countdown: 0
SampleSet: Normal
StackLeniency: 0.7
Mode: 1
LetterboxInBreaks: 0
WidescreenStoryboard: 1

[Editor]
Bookmarks: 14728,27790,40851,96361,122483
DistanceSpacing: 1.7
BeatDivisor: 2
GridSize: 32
TimelineZoom: 1.7

[Metadata]
Title:Grenade
TitleUnicode:Grenade
Artist:GhostFinal
ArtistUnicode:GhostFinal
Creator:DarkVortex
Version:Futsuu
Source:
Tags:trance
BeatmapID:1777906
BeatmapSetID:695714

[Difficulty]
HPDrainRate:6
CircleSize:5
OverallDifficulty:3.5
ApproachRate:5
SliderMultiplier:1.4
SliderTickRate:1

[Events]
//Background and Video events
0,0,"thumb-1920-325892.jpg",0,0
//Break Periods
2,41051,54345
//Storyboard Layer 0 (Background)
//Storyboard Layer 1 (Fail)
//Storyboard Layer 2 (Pass)
//Storyboard Layer 3 (Foreground)
//Storyboard Sound Samples

[TimingPoints]
35,408.163265306122,4,1,0,60,1,0
109422,-100,4,1,0,60,0,1
135137,-100,4,1,0,60,0,0

[HitObjects]
256,192,1259,5,0,0:0:0:0:
256,192,1463,1,0,0:0:0:0:
256,192,1667,1,0,0:0:0:0:
256,192,2075,1,8,0:0:0:0:
256,192,2483,1,0,0:0:0:0:
256,192,2892,1,8,0:0:0:0:
256,192,3300,1,0,0:0:0:0:
256,192,3708,1,8,0:0:0:0:
256,192,4116,1,0,0:0:0:0:
256,192,4524,1,8,0:0:0:0:
256,192,4932,1,0,0:0:0:0:
256,192,5341,1,8,0:0:0:0:
256,192,5749,1,0,0:0:0:0:
256,192,6157,1,8,0:0:0:0:
256,192,6565,1,0,0:0:0:0:
256,192,6973,1,8,0:0:0:0:
256,192,7381,1,0,0:0:0:0:
256,192,7790,1,8,0:0:0:0:
256,192,8198,1,4,0:0:0:0:
256,192,8606,1,8,0:0:0:0:
256,192,9014,1,0,0:0:0:0:
256,192,9422,1,8,0:0:0:0:
256,192,9830,1,0,0:0:0:0:
256,192,10239,1,8,0:0:0:0:
256,192,10647,1,0,0:0:0:0:
256,192,11055,1,8,0:0:0:0:
256,192,11463,1,0,0:0:0:0:
256,192,11871,1,8,0:0:0:0:
256,192,12279,1,0,0:0:0:0:
256,192,12688,1,8,0:0:0:0:
256,192,13096,1,0,0:0:0:0:
256,192,13504,1,8,0:0:0:0:
256,192,13912,1,0,0:0:0:0:
256,192,14320,1,8,0:0:0:0:
256,192,14728,1,4,0:0:0:0:
256,192,15341,1,0,0:0:0:0:
256,192,15749,1,0,0:0:0:0:
256,192,16157,1,8,0:0:0:0:
256,192,16565,1,8,0:0:0:0:
256,192,16973,1,0,0:0:0:0:
256,192,17381,1,0,0:0:0:0:
256,192,17790,1,8,0:0:0:0:
256,192,18198,1,0,0:0:0:0:
256,192,18606,1,8,0:0:0:0:
256,192,19014,1,0,0:0:0:0:
256,192,19422,1,8,0:0:0:0:
256,192,19830,1,8,0:0:0:0:
256,192,20239,1,0,0:0:0:0:
256,192,20647,1,0,0:0:0:0:
256,192,21055,1,8,0:0:0:0:
256,192,21259,1,4,0:0:0:0:
256,192,21871,1,0,0:0:0:0:
256,192,22279,1,0,0:0:0:0:
256,192,22688,1,8,0:0:0:0:
256,192,23096,1,8,0:0:0:0:
256,192,23504,1,0,0:0:0:0:
256,192,23912,1,0,0:0:0:0:
256,192,24320,1,8,0:0:0:0:
256,192,24728,1,0,0:0:0:0:
256,192,25137,1,0,0:0:0:0:
256,192,25545,1,0,0:0:0:0:
256,192,25953,1,8,0:0:0:0:
256,192,26361,1,8,0:0:0:0:
256,192,26769,1,0,0:0:0:0:
256,192,27177,1,0,0:0:0:0:
256,192,27586,1,8,0:0:0:0:
256,192,27790,1,4,0:0:0:0:
256,192,28402,1,0,0:0:0:0:
256,192,28810,1,0,0:0:0:0:
256,192,29218,1,8,0:0:0:0:
256,192,29626,1,8,0:0:0:0:
256,192,30034,1,0,0:0:0:0:
256,192,30443,1,0,0:0:0:0:
256,192,30851,1,8,0:0:0:0:
256,192,31259,1,8,0:0:0:0:
256,192,31667,1,8,0:0:0:0:
256,192,32075,1,0,0:0:0:0:
256,192,32483,1,8,0:0:0:0:
256,192,32892,1,8,0:0:0:0:
256,192,33300,1,0,0:0:0:0:
256,192,33708,1,0,0:0:0:0:
256,192,34116,1,8,0:0:0:0:
256,192,34320,1,4,0:0:0:0:
256,192,34932,1,0,0:0:0:0:
256,192,35341,1,0,0:0:0:0:
256,192,35749,1,8,0:0:0:0:
256,192,36157,1,8,0:0:0:0:
256,192,36565,1,0,0:0:0:0:
256,192,36973,1,0,0:0:0:0:
256,192,37381,1,8,0:0:0:0:
256,192,37586,1,0,0:0:0:0:
256,192,37994,1,8,0:0:0:0:
256,192,38402,1,0,0:0:0:0:
256,192,38606,1,0,0:0:0:0:
256,192,38810,1,8,0:0:0:0:
256,192,39218,1,0,0:0:0:0:
256,192,39422,1,0,0:0:0:0:
256,192,39626,1,8,0:0:0:0:
256,192,39830,1,0,0:0:0:0:
256,192,40034,1,8,0:0:0:0:
256,192,40239,1,8,0:0:0:0:
256,192,40443,1,0,0:0:0:0:
256,192,40851,1,4,0:0:0:0:
256,192,55545,5,4,0:0:0:0:
256,192,55953,1,0,0:0:0:0:
256,192,56361,1,0,0:0:0:0:
256,192,56769,1,0,0:0:0:0:
256,192,57177,1,0,0:0:0:0:
256,192,57586,1,0,0:0:0:0:
256,192,57994,1,0,0:0:0:0:
256,192,58402,1,0,0:0:0:0:
256,192,58810,1,0,0:0:0:0:
256,192,59218,1,0,0:0:0:0:
256,192,59626,1,0,0:0:0:0:
256,192,60034,1,0,0:0:0:0:
256,192,60443,1,0,0:0:0:0:
256,192,60851,1,0,0:0:0:0:
256,192,61259,1,0,0:0:0:0:
256,192,61667,1,0,0:0:0:0:
256,192,61871,1,0,0:0:0:0:
256,192,62075,1,12,0:0:0:0:
256,192,62688,1,0,0:0:0:0:
256,192,63096,1,0,0:0:0:0:
256,192,63504,1,8,0:0:0:0:
256,192,63912,1,8,0:0:0:0:
256,192,64320,1,0,0:0:0:0:
256,192,64728,1,0,0:0:0:0:
256,192,65137,1,8,0:0:0:0:
256,192,65341,1,0,0:0:0:0:
256,192,65545,1,0,0:0:0:0:
256,192,65953,1,8,0:0:0:0:
256,192,66157,1,0,0:0:0:0:
256,192,66361,1,8,0:0:0:0:
256,192,66769,1,8,0:0:0:0:
256,192,66973,1,0,0:0:0:0:
256,192,67381,1,0,0:0:0:0:
256,192,67790,1,0,0:0:0:0:
256,192,67994,1,8,0:0:0:0:
256,192,68198,1,8,0:0:0:0:
256,192,68402,1,8,0:0:0:0:
256,192,68606,1,4,0:0:0:0:
256,192,69014,1,8,0:0:0:0:
256,192,69422,1,0,0:0:0:0:
256,192,69626,1,8,0:0:0:0:
256,192,69830,1,0,0:0:0:0:
256,192,70239,1,8,0:0:0:0:
256,192,70647,1,0,0:0:0:0:
256,192,71055,1,8,0:0:0:0:
256,192,71871,1,0,0:0:0:0:
256,192,72075,1,0,0:0:0:0:
256,192,72279,1,8,0:0:0:0:
256,192,72688,1,8,0:0:0:0:
256,192,72892,1,8,0:0:0:0:
256,192,73096,1,0,0:0:0:0:
256,192,73504,1,0,0:0:0:0:
256,192,73912,1,0,0:0:0:0:
256,192,74320,1,0,0:0:0:0:
256,192,74524,1,0,0:0:0:0:
256,192,74728,1,8,0:0:0:0:
256,192,75137,1,8,0:0:0:0:
256,192,75341,1,0,0:0:0:0:
256,192,75545,1,8,0:0:0:0:
256,192,75953,1,0,0:0:0:0:
256,192,76157,1,8,0:0:0:0:
256,192,76361,1,0,0:0:0:0:
256,192,76769,1,0,0:0:0:0:
256,192,77177,1,0,0:0:0:0:
256,192,77586,1,8,0:0:0:0:
256,192,78402,1,0,0:0:0:0:
256,192,78606,1,0,0:0:0:0:
256,192,78810,1,8,0:0:0:0:
256,192,79218,1,0,0:0:0:0:
256,192,79422,1,8,0:0:0:0:
256,192,79626,1,0,0:0:0:0:
256,192,80034,1,0,0:0:0:0:
256,192,80443,1,0,0:0:0:0:
256,192,80851,1,0,0:0:0:0:
256,192,81259,1,0,0:0:0:0:
256,192,81463,1,8,0:0:0:0:
256,192,81667,1,0,0:0:0:0:
256,192,81871,1,0,0:0:0:0:
256,192,82075,1,8,0:0:0:0:
256,192,82483,1,0,0:0:0:0:
256,192,82688,1,8,0:0:0:0:
256,192,82892,1,0,0:0:0:0:
256,192,83300,1,0,0:0:0:0:
256,192,83708,1,0,0:0:0:0:
256,192,84116,1,8,0:0:0:0:
256,192,84932,1,0,0:0:0:0:
256,192,85137,1,0,0:0:0:0:
256,192,85341,1,8,0:0:0:0:
256,192,85749,1,8,0:0:0:0:
256,192,85953,1,8,0:0:0:0:
256,192,86157,1,0,0:0:0:0:
256,192,86565,1,0,0:0:0:0:
256,192,86973,1,0,0:0:0:0:
256,192,87381,1,8,0:0:0:0:
256,192,87790,1,8,0:0:0:0:
256,192,87994,1,8,0:0:0:0:
256,192,88198,1,0,0:0:0:0:
256,192,88402,1,0,0:0:0:0:
256,192,88606,1,8,0:0:0:0:
256,192,89014,1,0,0:0:0:0:
256,192,89218,1,8,0:0:0:0:
256,192,89422,1,0,0:0:0:0:
256,192,89830,1,0,0:0:0:0:
256,192,90239,1,0,0:0:0:0:
256,192,90647,1,8,0:0:0:0:
256,192,91463,1,0,0:0:0:0:
256,192,91667,1,0,0:0:0:0:
256,192,91871,1,8,0:0:0:0:
256,192,92279,1,8,0:0:0:0:
256,192,92483,1,8,0:0:0:0:
256,192,92688,1,0,0:0:0:0:
256,192,93096,1,0,0:0:0:0:
256,192,93504,1,0,0:0:0:0:
256,192,93912,1,8,0:0:0:0:
256,192,94320,1,0,0:0:0:0:
256,192,94524,1,8,0:0:0:0:
256,192,94728,1,4,0:0:0:0:
256,192,95953,1,0,0:0:0:0:
256,192,96157,1,0,0:0:0:0:
256,192,96361,1,4,0:0:0:0:
256,192,96769,1,8,0:0:0:0:
256,192,96973,1,0,0:0:0:0:
256,192,97381,1,0,0:0:0:0:
256,192,97586,1,8,0:0:0:0:
256,192,97994,1,0,0:0:0:0:
256,192,98402,1,8,0:0:0:0:
256,192,98810,1,0,0:0:0:0:
256,192,99014,1,0,0:0:0:0:
256,192,99218,1,8,0:0:0:0:
256,192,99626,1,0,0:0:0:0:
256,192,100034,1,8,0:0:0:0:
256,192,100239,1,0,0:0:0:0:
256,192,100647,1,0,0:0:0:0:
256,192,100851,1,8,0:0:0:0:
256,192,101259,1,0,0:0:0:0:
256,192,101667,1,8,0:0:0:0:
256,192,102075,1,0,0:0:0:0:
256,192,102483,1,8,0:0:0:0:
256,192,102892,1,4,0:0:0:0:
256,192,103300,1,8,0:0:0:0:
256,192,103504,1,0,0:0:0:0:
256,192,103912,1,0,0:0:0:0:
256,192,104116,1,8,0:0:0:0:
256,192,104524,1,4,0:0:0:0:
256,192,104932,1,8,0:0:0:0:
256,192,105341,1,4,0:0:0:0:
256,192,105749,1,8,0:0:0:0:
256,192,106157,1,4,0:0:0:0:
256,192,106565,1,4,0:0:0:0:
256,192,106973,1,4,0:0:0:0:
256,192,107790,1,4,0:0:0:0:
256,192,109014,1,0,0:0:0:0:
256,192,109218,1,0,0:0:0:0:
256,192,109422,1,12,0:0:0:0:
256,192,109830,1,8,0:0:0:0:
256,192,110034,1,0,0:0:0:0:
256,192,110239,1,8,0:0:0:0:
256,192,110443,1,8,0:0:0:0:
256,192,110647,1,0,0:0:0:0:
256,192,111055,1,0,0:0:0:0:
256,192,111259,1,0,0:0:0:0:
256,192,111463,1,8,0:0:0:0:
256,192,111871,1,8,0:0:0:0:
256,192,112075,1,8,0:0:0:0:
256,192,112279,1,0,0:0:0:0:
256,192,112688,1,0,0:0:0:0:
256,192,113096,1,0,0:0:0:0:
256,192,113504,1,8,0:0:0:0:
256,192,113708,1,8,0:0:0:0:
256,192,113912,1,8,0:0:0:0:
256,192,114320,1,0,0:0:0:0:
256,192,114728,1,0,0:0:0:0:
256,192,115137,1,8,0:0:0:0:
256,192,115341,1,8,0:0:0:0:
256,192,115545,1,0,0:0:0:0:
256,192,115749,1,0,0:0:0:0:
256,192,115953,1,8,0:0:0:0:
256,192,116565,1,8,0:0:0:0:
256,192,117177,1,0,0:0:0:0:
256,192,117586,1,8,0:0:0:0:
256,192,118198,1,8,0:0:0:0:
256,192,118810,1,0,0:0:0:0:
256,192,119218,1,8,0:0:0:0:
256,192,119830,1,8,0:0:0:0:
256,192,120443,1,0,0:0:0:0:
256,192,120851,1,8,0:0:0:0:
256,192,121259,1,0,0:0:0:0:
256,192,121463,1,8,0:0:0:0:
256,192,121871,1,8,0:0:0:0:
256,192,122075,1,0,0:0:0:0:
256,192,122483,1,12,0:0:0:0:
256,192,123300,1,8,0:0:0:0:
256,192,123504,1,8,0:0:0:0:
256,192,123708,1,0,0:0:0:0:
256,192,124116,1,0,0:0:0:0:
256,192,124524,1,0,0:0:0:0:
256,192,124728,1,8,0:0:0:0:
256,192,124932,1,8,0:0:0:0:
256,192,125137,1,8,0:0:0:0:
256,192,125341,1,0,0:0:0:0:
256,192,125749,1,0,0:0:0:0:
256,192,126157,1,0,0:0:0:0:
256,192,126565,1,8,0:0:0:0:
256,192,126769,1,0,0:0:0:0:
256,192,126973,1,0,0:0:0:0:
256,192,127381,1,0,0:0:0:0:
256,192,127790,1,0,0:0:0:0:
256,192,128198,1,8,0:0:0:0:
256,192,128402,1,8,0:0:0:0:
256,192,128606,1,8,0:0:0:0:
256,192,129014,1,8,0:0:0:0:
256,192,129626,1,8,0:0:0:0:
256,192,130239,1,0,0:0:0:0:
256,192,130647,1,8,0:0:0:0:
256,192,131259,1,8,0:0:0:0:
256,192,131871,1,0,0:0:0:0:
256,192,132279,1,8,0:0:0:0:
256,192,132892,1,8,0:0:0:0:
256,192,133504,1,0,0:0:0:0:
256,192,133912,1,8,0:0:0:0:
256,192,134524,1,8,0:0:0:0:
256,192,134932,1,0,0:0:0:0:
256,192,135137,1,8,0:0:0:0:
256,192,135341,1,8,0:0:0:0:
256,192,135545,1,4,0:0:0:0:
256,192,135953,1,8,0:0:0:0:
256,192,136361,1,8,0:0:0:0:
256,192,136565,1,8,0:0:0:0:
256,192,136769,1,0,0:0:0:0:
256,192,137177,1,0,0:0:0:0:
256,192,137586,1,0,0:0:0:0:
256,192,137994,1,8,0:0:0:0:
256,192,138810,1,0,0:0:0:0:
256,192,139014,1,0,0:0:0:0:
256,192,139218,1,8,0:0:0:0:
256,192,139626,1,8,0:0:0:0:
256,192,139830,1,8,0:0:0:0:
256,192,140034,1,0,0:0:0:0:
256,192,140443,1,0,0:0:0:0:
256,192,140851,1,0,0:0:0:0:
256,192,141259,1,8,0:0:0:0:
256,192,141463,1,0,0:0:0:0:
256,192,141667,1,8,0:0:0:0:
256,192,142075,1,0,0:0:0:0:
256,192,142279,1,0,0:0:0:0:
256,192,142483,1,8,0:0:0:0:
256,192,142892,1,8,0:0:0:0:
256,192,143096,1,8,0:0:0:0:
256,192,143300,1,0,0:0:0:0:
256,192,143708,1,0,0:0:0:0:
256,192,144116,1,0,0:0:0:0:
256,192,144524,1,8,0:0:0:0:
256,192,145341,1,0,0:0:0:0:
256,192,145545,1,0,0:0:0:0:
256,192,145749,1,8,0:0:0:0:
256,192,146157,1,8,0:0:0:0:
256,192,146361,1,8,0:0:0:0:
250,187,146565,1,0,0:0:0:0:
256,192,146973,1,0,0:0:0:0:
256,192,147381,1,0,0:0:0:0:
250,187,147790,1,0,0:0:0:0:
256,192,148198,1,8,0:0:0:0:
250,187,148402,1,8,0:0:0:0:
256,192,148606,1,4,0:0:0:0:
250,187,149422,1,0,0:0:0:0:
250,187,149626,1,8,0:0:0:0:
250,187,149830,1,0,0:0:0:0:
250,187,150239,1,0,0:0:0:0:
250,187,150647,1,0,0:0:0:0:
250,187,151055,1,8,0:0:0:0:
250,187,151871,1,0,0:0:0:0:
250,187,152075,1,0,0:0:0:0:
256,192,152279,1,8,0:0:0:0:
256,192,152688,1,0,0:0:0:0:
256,192,152892,1,8,0:0:0:0:
256,192,153096,1,0,0:0:0:0:
256,192,153504,1,0,0:0:0:0:
256,192,153912,1,0,0:0:0:0:
256,192,154320,1,8,0:0:0:0:
256,192,154728,1,0,0:0:0:0:
256,192,154932,1,8,0:0:0:0:
256,192,155137,1,0,0:0:0:0:
256,192,155953,1,8,0:0:0:0:
256,192,156157,1,8,0:0:0:0:
256,192,156361,1,0,0:0:0:0:
256,192,156769,1,0,0:0:0:0:
256,192,157177,1,0,0:0:0:0:
256,192,157586,1,8,0:0:0:0:
256,192,158402,1,0,0:0:0:0:
256,192,158606,1,0,0:0:0:0:
256,192,158810,1,8,0:0:0:0:
256,192,159218,1,8,0:0:0:0:
256,192,159422,1,8,0:0:0:0:
256,192,159626,1,0,0:0:0:0:
256,192,160034,1,0,0:0:0:0:
256,192,160443,1,0,0:0:0:0:
256,192,160647,1,0,0:0:0:0:
256,192,160851,1,8,0:0:0:0:
256,192,161259,1,8,0:0:0:0:
256,192,161667,1,4,0:0:0:0:
256,192,162279,1,0,0:0:0:0:
256,192,162687,1,0,0:0:0:0:
256,192,163095,1,8,0:0:0:0:
256,192,163503,1,8,0:0:0:0:
256,192,163911,1,0,0:0:0:0:
256,192,164319,1,0,0:0:0:0:
256,192,164728,1,8,0:0:0:0:
256,192,165136,1,0,0:0:0:0:
256,192,165544,1,8,0:0:0:0:
256,192,165952,1,0,0:0:0:0:
256,192,166360,1,8,0:0:0:0:
256,192,166768,1,8,0:0:0:0:
256,192,167177,1,0,0:0:0:0:
256,192,167585,1,0,0:0:0:0:
256,192,167993,1,8,0:0:0:0:
256,192,168197,1,4,0:0:0:0:
256,192,168809,1,0,0:0:0:0:
256,192,169217,1,0,0:0:0:0:
256,192,169626,1,8,0:0:0:0:
256,192,170034,1,8,0:0:0:0:
256,192,170442,1,0,0:0:0:0:
256,192,170850,1,0,0:0:0:0:
256,192,171258,1,8,0:0:0:0:
256,192,171666,1,0,0:0:0:0:
256,192,172075,1,0,0:0:0:0:
256,192,172483,1,0,0:0:0:0:
256,192,172891,1,8,0:0:0:0:
256,192,173299,1,8,0:0:0:0:
256,192,173707,1,0,0:0:0:0:
256,192,174115,1,0,0:0:0:0:
256,192,174524,1,8,0:0:0:0:
256,192,174728,1,4,0:0:0:0:
256,192,175545,1,0,0:0:0:0:
256,192,175953,1,8,0:0:0:0:
256,192,176361,1,0,0:0:0:0:
256,192,176769,1,8,0:0:0:0:
256,192,177177,1,0,0:0:0:0:
256,192,177586,1,8,0:0:0:0:
256,192,177994,1,0,0:0:0:0:
256,192,178402,1,8,0:0:0:0:
256,192,178810,1,0,0:0:0:0:
256,192,179218,1,8,0:0:0:0:
256,192,179626,1,0,0:0:0:0:
256,192,180034,1,8,0:0:0:0:
256,192,180443,1,0,0:0:0:0:
256,192,180851,1,8,0:0:0:0:
256,192,181259,1,4,0:0:0:0:
256,192,181667,1,8,0:0:0:0:
256,192,182483,1,8,0:0:0:0:
256,192,183300,1,8,0:0:0:0:
256,192,184116,1,8,0:0:0:0:
256,192,184932,1,8,0:0:0:0:
256,192,185749,1,8,0:0:0:0:
256,192,186565,1,8,0:0:0:0:
256,192,187381,1,8,0:0:0:0:
256,192,187790,1,4,0:0:0:0:
