osu file format v14

[General]
AudioFilename: audio.mp3
AudioLeadIn: 0
PreviewTime: 67677
Countdown: 0
SampleSet: Soft
StackLeniency: 0.3
Mode: 0
LetterboxInBreaks: 0
WidescreenStoryboard: 1

[Editor]
Bookmarks: 9008,22042,35054,38370,51420,64506,67765,87354,142883,201686,227786,253869,280017,306142,319172,335536,394223,405435,405504,405913,406323,406732,407142,407552,407961,408371,408780,409190,409599,410009,410418,410828,411238,411647,412057,412466,412876,413285,413695,414104,414514,414924,415333,415640,416562,416971,417381,417790,418162,427596,448917
DistanceSpacing: 1.4
BeatDivisor: 4
GridSize: 32
TimelineZoom: 4.307745

[Metadata]
Title:Shrill Tones
TitleUnicode:Shrill Tones
Artist:Ghost-Note
ArtistUnicode:Ghost-Note
Creator:over_loadcode
Version:Enter The Funk Zone
Source:
Tags:swagism ghost note jazz instrumental
BeatmapID:2998515
BeatmapSetID:1459218

[Difficulty]
HPDrainRate:5
CircleSize:4.1
OverallDifficulty:8.8
ApproachRate:9.5
SliderMultiplier:3
SliderTickRate:0.5

[Events]
//Background and Video events
0,0,"wallhaven-r2v9rm.jpg",0,0
//Break Periods
2,405595,417318
//Storyboard Layer 0 (Background)
//Storyboard Layer 1 (Fail)
//Storyboard Layer 2 (Pass)
//Storyboard Layer 3 (Foreground)
//Storyboard Layer 4 (Overlay)
//Storyboard Sound Samples

[TimingPoints]
8499,419.580419580419,4,2,1,25,1,0
8604,419.580419580419,4,2,1,25,1,0
9027,402.684563758389,4,2,1,25,1,0
9429,-66.6666666666667,4,2,1,25,0,0
10235,-100,4,2,1,25,0,0
10637,410.958904109589,4,2,1,25,1,0
10637,-76.9230769230769,4,2,1,25,0,0
11458,-58.8235294117647,4,2,1,25,0,0
11561,-58.8235294117647,4,2,1,5,0,0
11664,-76.9230769230769,4,2,1,25,0,0
12280,406.091370558376,4,2,1,25,1,0
15536,405.405405405405,4,2,1,25,1,0
15941,-66.6666666666667,4,2,1,25,0,0
16752,-100,4,2,1,25,0,0
17157,405.405405405406,4,2,1,25,1,0
17157,-76.9230769230769,4,2,1,25,0,0
17984,387.096774193549,4,2,1,25,1,0
17984,-58.8235294117647,4,2,1,25,0,0
18260,-76.9230769230769,4,2,1,25,0,0
18812,405.405405405405,4,2,1,25,1,0
21649,408.163265306122,4,2,1,35,1,0
22465,-66.6666666666667,4,2,1,35,0,0
22975,-133.333333333333,4,2,1,35,0,0
23281,-100,4,2,1,35,0,0
23689,410.25641025641,4,2,1,35,1,0
23689,-76.9230769230769,4,2,1,35,0,0
24509,-58.8235294117647,4,2,1,35,0,0
24714,-76.9230769230769,4,2,1,35,0,0
25330,399.334442595674,4,2,1,35,1,0
25330,-83.3333333333333,4,2,1,35,0,0
26028,-66.6666666666667,4,2,1,35,0,0
26228,-76.9230769230769,4,2,1,35,0,0
26727,-83.3333333333333,4,2,1,35,0,0
26927,413.080895008606,4,2,1,35,1,0
26927,-83.3333333333333,4,2,1,35,0,0
27236,-66.6666666666667,4,2,1,35,0,0
27443,-66.6666666666667,4,2,1,30,0,0
27649,-66.6666666666667,4,2,1,35,0,0
27753,-58.8235294117647,4,2,1,35,0,0
27856,-58.8235294117647,4,2,1,5,0,0
27959,-76.9230769230769,4,2,1,35,0,0
28579,404.721753794266,4,2,1,35,1,0
28983,-66.6666666666667,4,2,1,35,0,0
29489,-83.3333333333333,4,2,1,35,0,0
29793,-100,4,2,1,35,0,0
30197,406.091370558376,4,2,1,35,1,0
30197,-76.9230769230769,4,2,1,35,0,0
30704,-100,4,2,1,35,0,0
31009,-58.8235294117647,4,2,1,35,0,0
31110,-58.8235294117647,4,2,1,5,0,0
31212,-76.9230769230769,4,2,1,35,0,0
31719,-100,4,2,1,35,0,0
31821,411.663807890223,4,2,1,35,1,0
31923,-66.6666666666667,4,2,1,35,0,0
32747,-76.9230769230769,4,2,1,35,0,0
33261,-100,4,2,1,35,0,0
33467,400.667779632721,4,2,1,35,1,0
33467,-76.9230769230769,4,2,1,35,0,0
35069,408.85860306644,4,2,1,35,1,0
35069,-76.9230769230769,4,2,1,40,0,1
35273,-76.9230769230769,4,2,1,40,0,1
35477,-111.111111111111,4,2,1,40,0,1
35886,-62.5,4,2,1,40,0,1
36091,-62.5,4,2,1,40,0,1
36295,-90.9090909090909,4,2,1,40,0,1
36704,420.31523642732,4,2,1,40,1,1
36704,-62.5,4,2,1,40,0,1
36914,-62.5,4,2,1,40,0,1
37113,-90.9090909090909,4,2,1,40,0,1
37544,-52.6315789473684,4,2,1,40,0,1
37754,-52.6315789473684,4,2,1,40,0,1
38385,406.091370558375,4,2,1,35,1,0
38385,-133.333333333333,4,2,1,35,0,0
38689,-181.818181818182,4,2,1,35,0,0
39197,-500,4,2,1,35,0,0
40009,408.163265306122,4,2,1,35,1,0
40213,-133.333333333333,4,2,1,35,0,0
40825,-66.6666666666667,4,2,1,35,0,0
41641,406.779661016949,4,2,1,35,1,0
41641,-181.818181818182,4,2,1,35,0,0
42454,-500,4,2,1,35,0,0
43268,410.25641025641,4,2,1,35,1,0
43370,-133.333333333333,4,2,1,35,0,0
44088,-66.6666666666667,4,2,1,35,0,0
44191,-66.6666666666667,4,2,1,5,0,0
44293,-66.6666666666667,4,2,1,35,0,0
44909,407.470288624787,4,2,1,35,1,0
44909,-181.818181818182,4,2,1,35,0,0
45723,-500,4,2,1,35,0,0
46538,408.858603066439,4,2,1,35,1,0
46640,-133.333333333333,4,2,1,35,0,0
47355,-66.6666666666667,4,2,1,35,0,0
47457,-66.6666666666667,4,2,1,5,0,0
47560,-66.6666666666667,4,2,1,35,0,0
48173,400.667779632721,4,2,1,35,1,0
48173,-181.818181818182,4,2,1,35,0,0
48974,-100,4,2,1,35,0,0
49775,415.224913494809,4,2,1,35,1,0
49982,-133.333333333333,4,2,1,35,0,0
50605,-66.6666666666667,4,2,1,35,0,0
50709,-66.6666666666667,4,2,1,5,0,0
50813,-66.6666666666667,4,2,1,35,0,0
51435,-71.4285714285714,4,2,1,35,0,0
53095,407.470288624788,4,2,1,35,1,0
54724,408.163265306122,4,2,1,35,1,0
57878,402.684563758389,4,2,1,35,1,0
57878,-72.2543352601156,4,2,1,35,0,0
58020,396.039603960395,4,2,1,35,1,0
58218,-71.4285714285714,4,2,1,35,0,0
59502,-62.8140703517588,4,2,1,35,0,0
59604,404.040404040403,4,2,1,35,1,0
59806,-71.4285714285714,4,2,1,35,0,0
60311,-62.5,4,2,1,35,0,0
61220,410.958904109588,4,2,1,35,1,0
61425,-71.4285714285714,4,2,1,35,0,0
61939,419.580419580418,4,2,1,40,1,0
61939,-71.4285714285714,4,2,1,40,0,0
62144,-76.9230769230769,4,2,1,40,0,0
62350,-83.3333333333333,4,2,1,40,0,0
62555,-90.9090909090909,4,2,1,40,0,0
62761,-100,4,2,1,40,0,0
62863,423.280423280423,4,2,1,40,1,0
62966,-111.111111111111,4,2,1,40,0,0
63173,-133.333333333333,4,2,1,40,0,0
63795,417.391304347826,4,2,1,35,1,0
64521,403.361344537814,4,2,1,35,1,0
64521,-55.5555555555556,4,2,1,45,0,1
64722,-55.5555555555556,4,2,1,45,0,1
64924,-66.6666666666667,4,2,1,45,0,1
65327,-55.5555555555556,4,2,1,45,0,1
65529,-55.5555555555556,4,2,1,45,0,1
66134,411.663807890222,4,2,1,45,1,1
66134,-50,4,2,1,45,0,1
66339,-50,4,2,1,45,0,1
66957,-50,4,2,1,45,0,1
67163,-50,4,2,1,45,0,1
67368,395.387149917627,4,2,1,40,1,1
67978,-100,4,2,1,40,0,1
68176,-83.3333333333333,4,2,1,40,0,1
68178,398.671096345514,4,2,1,40,1,1
68178,-83.3333333333333,4,2,1,40,0,1
68275,-83.3333333333333,4,2,1,5,0,1
68377,-83.3333333333333,4,2,1,40,0,1
68423,-66.6666666666667,4,2,1,40,0,1
68776,-76.9230769230769,4,2,1,40,0,1
68975,418.118466898954,4,2,1,40,1,1
69166,-100,4,2,1,40,0,1
69407,409.556313993173,4,2,1,40,1,1
70226,-58.8235294117647,4,2,1,35,0,0
70328,-58.8235294117647,4,2,1,5,0,0
70430,-76.9230769230769,4,2,1,35,0,0
71045,400.667779632721,4,2,1,35,1,0
71445,-66.6666666666667,4,2,1,35,0,0
71846,-66.6666666666667,4,2,1,5,0,0
71946,-66.6666666666667,4,2,1,35,0,0
72046,-76.9230769230769,4,2,1,35,0,0
72647,406.091370558376,4,2,1,35,1,0
72647,-66.6666666666667,4,2,1,35,0,0
73080,-66.6666666666667,4,2,1,5,0,0
73154,-76.9230769230769,4,2,1,35,0,0
73459,-58.8235294117647,4,2,1,35,0,0
73580,-58.8235294117647,4,2,1,5,0,0
73662,-76.9230769230769,4,2,1,35,0,0
74280,408.163265306122,4,2,1,35,1,0
74688,-66.6666666666667,4,2,1,35,0,0
75198,-76.9230769230769,4,2,1,35,0,0
75708,-100,4,2,1,35,0,0
75912,416.666666666666,4,2,1,35,1,0
75912,-66.6666666666667,4,2,1,35,0,0
76745,-58.8235294117647,4,2,1,35,0,0
76849,-58.8235294117647,4,2,1,5,0,0
76953,-76.9230769230769,4,2,1,35,0,0
77578,402.684563758388,4,2,1,35,1,0
77980,-66.6666666666667,4,2,1,35,0,0
78484,-76.9230769230769,4,2,1,35,0,0
79188,404.040404040403,4,2,1,35,1,0
79188,-66.6666666666667,4,2,1,35,0,0
79693,-76.9230769230769,4,2,1,35,0,0
79895,407.470288624787,4,2,1,35,1,0
80809,409.556313993173,4,2,1,35,1,0
80809,-55.5555555555556,4,2,1,45,0,1
81013,-55.5555555555556,4,2,1,45,0,1
81628,-55.5555555555556,4,2,1,45,0,1
81832,-55.5555555555556,4,2,1,45,0,1
81935,396.039603960395,4,2,1,45,1,1
82447,411.663807890222,4,2,1,45,1,1
82447,-50,4,2,1,45,0,1
82652,-50,4,2,1,45,0,1
83270,-50,4,2,1,45,0,1
83476,-50,4,2,1,45,0,1
83990,-50,4,2,1,45,0,0
84093,582.524271844658,4,2,1,45,1,1
84384,-100,4,2,1,45,0,0
84675,-100,4,2,1,45,0,1
84966,-100,4,2,1,45,0,0
85258,-100,4,2,1,45,0,1
85549,-100,4,2,1,45,0,0
85839,546.697038724372,4,2,1,45,1,1
86112,-100,4,2,1,45,0,0
86943,426.287744227352,4,2,1,35,1,0
87369,406.091370558374,4,2,1,35,1,0
87369,-90.9090909090909,4,2,1,35,0,0
87470,-90.9090909090909,4,2,1,30,0,0
88181,-111.111111111111,4,2,1,30,0,0
88993,402.010050251255,4,2,1,30,1,0
88993,-90.9090909090909,4,2,1,30,0,0
89093,-90.9090909090909,4,2,1,5,0,0
89194,-90.9090909090909,4,2,1,30,0,0
89495,-90.9090909090909,4,2,1,5,0,0
89596,-90.9090909090909,4,2,1,30,0,0
89797,-111.111111111111,4,2,1,30,0,0
90579,-90.9090909090909,4,2,1,30,0,0
91373,-111.111111111111,4,2,1,30,0,0
92222,411.663807890222,4,2,1,30,1,0
92222,-90.9090909090909,4,2,1,30,0,0
93045,-111.111111111111,4,2,1,30,0,0
93868,409.556313993173,4,2,1,30,1,0
93868,-90.9090909090909,4,2,1,30,0,0
95096,-111.111111111111,4,2,1,30,0,0
95506,407.470288624787,4,2,1,30,1,0
95506,-90.9090909090909,4,2,1,30,0,0
95910,-111.111111111111,4,2,1,30,0,0
97136,408.858603066437,4,2,1,30,1,0
97531,-90.9090909090909,4,2,1,30,0,0
97963,-111.111111111111,4,2,1,30,0,0
98771,407.470288624786,4,2,1,30,1,0
98771,-90.9090909090909,4,2,1,30,0,0
99585,-111.111111111111,4,2,1,30,0,0
99993,-90.9090909090909,4,2,1,35,0,0
100095,-90.9090909090909,4,2,1,5,0,0
100197,-90.9090909090909,4,2,1,35,0,0
100400,409.556313993173,4,2,1,35,1,0
101219,-111.111111111111,4,2,1,35,0,0
101628,-90.9090909090909,4,2,1,35,0,0
101935,-90.9090909090909,4,2,1,5,0,0
102038,410.958904109588,4,2,1,35,1,0
102038,-90.9090909090909,4,2,1,35,0,0
103681,402.684563758388,4,2,1,35,1,0
103681,-90.9090909090909,4,2,1,35,0,0
104486,-111.111111111111,4,2,1,35,0,0
105291,410.958904109588,4,2,1,35,1,0
105701,-90.9090909090909,4,2,1,35,0,0
106318,-111.111111111111,4,2,1,35,0,0
106934,406.091370558375,4,2,1,35,1,0
107847,-111.111111111111,4,2,1,35,0,0
108558,407.470288624787,4,2,1,35,1,0
109372,-111.111111111111,4,2,1,35,0,0
110187,408.858603066438,4,2,1,35,1,0
110187,-90.9090909090909,4,2,1,35,0,0
110595,-90.9090909090909,4,2,1,5,0,0
110698,-90.9090909090909,4,2,1,35,0,0
111209,-111.111111111111,4,2,1,35,0,0
111822,413.080895008605,4,2,1,36,1,0
112235,-90.9090909090909,4,2,1,37,0,0
112544,-111.111111111111,4,2,1,37,0,0
112648,-111.111111111111,4,2,1,38,0,0
113061,-111.111111111111,4,2,1,39,0,0
113474,404.721753794265,4,2,1,35,1,0
113474,-90.9090909090909,4,2,1,40,0,0
114989,-91.5750915750916,4,2,1,40,0,0
115092,408.163265306121,4,2,1,40,1,0
115398,-111.111111111111,4,2,1,40,0,0
115602,-90.9090909090909,4,2,1,40,0,0
116010,-100,4,2,1,40,0,0
116621,-90.9090909090909,4,2,1,40,0,0
116724,408.858603066438,4,2,1,40,1,0
117132,-83.3333333333333,4,2,1,40,0,0
118359,410.256410256409,4,2,1,40,1,0
118359,-90.9090909090909,4,2,1,40,0,0
119179,-111.111111111111,4,2,1,40,0,0
120000,406.779661016948,4,2,1,40,1,0
120000,-90.9090909090909,4,2,1,40,0,0
121067,-111.111111111111,4,2,1,40,0,0
121627,408.163265306121,4,2,1,40,1,0
122341,-90.9090909090909,4,2,1,40,0,0
122443,-111.111111111111,4,2,1,40,0,0
123259,406.779661016948,4,2,1,40,1,0
124784,-111.111111111111,4,2,1,40,0,0
124886,406.091370558375,4,2,1,40,1,0
125292,-100,4,2,1,40,0,0
125495,-111.111111111111,4,2,1,40,0,0
125698,-111.111111111111,4,2,1,40,0,0
125901,-90.9090909090908,4,2,1,40,0,0
126104,-90.9090909090908,4,2,1,40,0,0
126510,414.507772020724,4,2,1,40,1,0
126510,-90.9090909090909,4,2,1,40,0,0
127753,-90.9090909090909,4,2,1,40,0,0
128168,410.958904109588,4,2,1,40,1,0
128578,-90.9090909090909,4,2,1,40,0,0
129092,-90.9090909090909,4,2,1,40,0,0
129195,-111.111111111111,4,2,1,40,0,0
129709,-90.0900900900901,4,2,1,40,0,0
129811,405.405405405404,4,2,1,40,1,0
130013,-111.111111111111,4,2,1,40,0,0
130317,-90.9090909090909,4,2,1,40,0,0
130621,-111.111111111111,4,2,1,40,0,0
131432,410.256410256409,4,2,1,40,1,0
131432,-111.111111111111,4,2,1,40,0,0
131842,-90.9090909090909,4,2,1,40,0,0
132867,-111.111111111111,4,2,1,40,0,0
133073,406.091370558375,4,2,1,40,1,0
133073,-111.111111111111,4,2,1,40,0,0
134291,-90.9090909090909,4,2,1,40,0,0
134697,400.66777963272,4,2,1,40,1,0
136021,407.470288624787,4,2,1,28,1,0
136021,-100,4,2,1,28,0,0
136123,-100,4,2,1,30,0,0
136224,-100,4,2,1,32,0,0
136326,404.721753794265,4,2,1,34,1,0
136427,-100,4,2,1,36,0,0
136528,-100,4,2,1,38,0,0
136629,-111.111111111111,4,2,1,40,0,0
137236,-90.9090909090909,4,2,1,40,0,0
137843,-77.3993808049536,4,2,1,40,0,0
137944,410.958904109588,4,2,1,40,1,0
138046,-76.9230769230769,4,2,1,40,0,0
138352,-90.9090909090909,4,2,1,40,0,0
138761,-76.9230769230769,4,2,1,40,0,0
139589,415.944540727902,4,2,1,40,1,1
139589,-83.3333333333333,4,2,1,40,0,1
140206,-71.4285714285714,4,2,1,40,0,1
141251,408.163265306121,4,2,1,40,1,1
141251,-62.5,4,2,1,40,0,1
142067,-52.6315789473684,4,2,1,40,0,1
142883,406.779661016948,4,2,1,35,1,0
142883,-90.9090909090909,4,2,1,35,0,0
143289,-76.9230769230769,4,2,1,35,0,0
143391,-76.9230769230769,4,2,2,25,0,0
143442,-76.9230769230769,4,2,1,15,0,0
143493,-76.9230769230769,4,2,1,5,0,0
143594,-76.9230769230769,4,2,1,35,0,0
143696,-133.333333333333,4,2,1,35,0,0
143899,-90.9090909090909,4,2,1,35,0,0
144510,404.721753794265,4,2,1,35,1,0
144510,-133.333333333333,4,2,1,35,0,0
144912,-90.9090909090909,4,2,1,35,0,0
145314,-90.9090909090909,4,2,1,35,0,0
145917,-133.333333333333,4,2,1,35,0,0
146132,400.66777963272,4,2,1,35,1,0
146132,-133.333333333333,4,2,1,35,0,0
146924,-90.9090909090909,4,2,1,35,0,0
147428,-133.333333333333,4,2,1,35,0,0
147630,-76.9230769230769,4,2,1,35,0,0
147737,407.470288624786,4,2,1,35,1,0
147833,-76.9230769230769,4,2,1,35,0,0
147986,-76.9230769230769,4,2,2,25,0,0
148037,-76.9230769230769,4,2,1,15,0,0
148088,-76.9230769230769,4,2,1,5,0,0
148139,-76.9230769230769,4,2,1,35,0,0
148344,-133.333333333333,4,2,1,35,0,0
149059,-90.9090909090909,4,2,1,35,0,0
149366,410.256410256409,4,2,1,35,1,0
149366,-111.111111111111,4,2,1,35,0,0
150083,-133.333333333333,4,2,1,35,0,0
150391,-90.9090909090909,4,2,1,35,0,0
150596,-83.3333333333333,4,2,1,35,0,0
150801,-133.333333333333,4,2,1,35,0,0
151007,408.163265306121,4,2,1,35,1,0
151108,-90.9090909090909,4,2,1,35,0,0
151821,-133.333333333333,4,2,1,35,0,0
152433,-90.9090909090909,4,2,1,35,0,0
152642,408.163265306121,4,2,1,35,1,0
152642,-133.333333333333,4,2,1,35,0,0
153967,-90.9090909090909,4,2,1,35,0,0
154274,410.256410256409,4,2,1,35,1,0
154684,-133.333333333333,4,2,1,35,0,0
154991,-111.111111111111,4,2,1,35,0,0
155197,-133.333333333333,4,2,1,35,0,0
155915,408.858603066438,4,2,1,35,1,0
155915,-90.9090909090909,4,2,1,40,0,0
156528,-133.333333333333,4,2,1,40,0,0
157550,410.256410256409,4,2,1,40,1,0
157550,-90.9090909090909,4,2,1,40,0,0
158097,-100,4,2,1,40,0,0
159191,402.010050251255,4,2,1,40,1,0
159191,-133.333333333333,4,2,1,40,0,0
159593,-133.333333333333,4,2,1,40,0,0
160799,406.091370558374,4,2,1,40,1,0
162220,-83.3333333333333,4,2,1,40,0,0
162423,408.858603066438,4,2,1,40,1,0
163441,-125,4,2,1,40,0,0
163849,-125,4,2,1,40,0,0
164865,-83.3333333333333,4,2,1,40,0,0
165068,-100,4,2,1,40,0,0
165272,-125,4,2,1,40,0,0
165894,403.361344537813,4,2,1,40,1,0
166083,-125,4,2,1,40,0,0
166386,-100,4,2,1,40,0,0
167193,-83.3333333333333,4,2,1,40,0,0
168208,-133.333333333333,4,2,1,40,0,0
168928,406.779661016948,4,2,1,40,1,1
168928,-83.3333333333333,4,2,1,40,0,1
169131,-83.3333333333333,4,2,2,35,0,1
169156,-83.3333333333333,4,2,1,30,0,1
169182,-83.3333333333333,4,2,2,25,0,1
169207,-83.3333333333333,4,2,1,20,0,1
169233,-83.3333333333333,4,2,1,40,0,1
169739,418.118466898953,4,2,1,40,1,1
169739,-71.4285714285714,4,2,1,40,0,1
170575,418.118466898953,4,2,1,40,1,1
170575,-62.5,4,2,1,40,0,1
171411,-52.6315789473684,4,2,1,40,0,1
171829,421.052631578946,4,2,1,40,1,1
172243,413.793103448275,4,2,1,40,1,0
172243,-83.3333333333333,4,2,1,40,0,0
173898,412.371134020617,4,2,1,40,1,0
174928,-83.3333333333333,4,2,1,40,0,0
175547,405.405405405404,4,2,1,40,1,0
175547,-83.3333333333333,4,2,1,40,0,0
176560,-133.333333333333,4,2,1,40,0,0
176965,-111.111111111111,4,2,1,40,0,0
177168,406.779661016948,4,2,1,40,1,0
177168,-133.333333333333,4,2,1,40,0,0
178388,-100,4,2,1,40,0,0
178490,-100,4,2,1,5,0,0
178591,-100,4,2,1,40,0,0
178795,403.361344537814,4,2,1,40,1,0
178795,-133.333333333333,4,2,1,40,0,0
180408,407.470288624786,4,2,1,40,1,0
180408,-133.333333333333,4,2,1,40,0,0
180815,-100,4,2,1,40,0,0
182037,406.091370558374,4,2,1,40,1,0
182037,-133.333333333333,4,2,1,40,0,0
183661,408.163265306121,4,2,1,40,1,0
184273,-83.3333333333333,4,2,1,40,0,0
184477,-74.0740740740741,4,2,1,40,0,0
184681,-74.0740740740741,4,2,1,5,0,0
184783,-74.0740740740741,4,2,1,40,0,0
185293,409.556313993173,4,2,1,40,1,0
185293,-83.3333333333333,4,2,1,40,0,0
186931,410.256410256409,4,2,1,40,1,0
187341,-83.3333333333333,4,2,1,40,0,0
187751,-111.111111111111,4,2,1,40,0,0
188161,-90.9090909090909,4,2,1,40,0,0
188572,406.091370558374,4,2,1,40,1,0
188572,-74.0740740740741,4,2,1,40,0,0
188978,-133.333333333333,4,2,1,30,0,0
189384,-74.0740740740741,4,2,1,40,0,0
189891,-133.333333333333,4,2,1,40,0,0
190196,406.779661016948,4,2,1,40,1,0
190331,442.804428044279,4,2,1,40,1,0
191387,433.21299638989,4,2,1,40,1,0
191387,-133.333333333333,4,2,1,40,0,0
191603,-90.9090909090909,4,2,1,40,0,0
191823,408.163265306121,4,2,1,40,1,0
193455,408.858603066438,4,2,1,40,1,0
193557,-111.111111111111,4,2,1,40,0,0
193761,-133.333333333333,4,2,1,40,0,0
194681,-100,4,2,1,40,0,0
194988,-83.3333333333333,4,2,1,40,0,0
195090,407.470288624786,4,2,1,40,1,0
198371,415.944540727902,4,2,1,40,1,1
198371,-83.3333333333333,4,2,1,40,0,1
199202,-71.4285714285714,4,2,1,40,0,1
200034,413.080895008605,4,2,1,40,1,1
200034,-62.5,4,2,1,40,0,1
200653,-71.4285714285714,4,2,1,40,0,1
201066,-83.3333333333333,4,2,1,40,0,1
201273,-100,4,2,1,40,0,1
201686,804.020100502513,4,2,1,35,1,0
201686,-55.5555555555556,4,2,1,35,0,0
201693,-55.5555555555556,4,2,3,5,0,0
201736,-55.5555555555556,4,2,2,5,0,0
201786,-55.5555555555556,4,2,2,6,0,0
201836,-55.5555555555556,4,2,2,7,0,0
201887,-55.5555555555556,4,2,2,8,0,0
201937,-55.5555555555556,4,2,2,9,0,0
201987,-55.5555555555556,4,2,2,11,0,0
202037,-55.5555555555556,4,2,2,13,0,0
202088,-55.5555555555556,4,2,1,15,0,0
202138,-55.5555555555556,4,2,2,18,0,0
202188,-55.5555555555556,4,2,1,21,0,0
202238,-55.5555555555556,4,2,2,24,0,0
202557,-55.5555555555556,4,2,1,10,0,0
203294,403.361344537815,4,2,1,10,1,0
203697,-250,4,2,1,10,0,0
203999,-133.333333333333,4,2,1,10,0,0
204302,-250,4,2,1,10,0,0
204907,408.163265306122,4,2,1,13,1,0
205315,-250,4,2,1,13,0,0
206539,412.371134020618,4,2,1,15,1,0
206745,-250,4,2,1,15,0,0
207157,-133.333333333333,4,2,1,15,0,0
208188,409.556313993174,4,2,1,15,1,0
208392,-166.666666666667,4,2,1,15,0,0
209826,408.163265306122,4,2,1,18,1,0
210030,-153.846153846154,4,2,1,18,0,0
210537,-111.111111111111,4,2,1,18,0,0
210642,416.666666666666,4,2,1,18,1,0
211458,393.442622950819,4,2,1,18,1,0
211458,-153.846153846154,4,2,1,20,0,0
212264,406.779661016949,4,2,1,20,1,0
213081,407.470288624788,4,2,1,20,1,0
213081,-111.111111111111,4,2,1,20,0,0
213895,-83.3333333333333,4,2,1,20,0,0
214099,-153.846153846154,4,2,1,20,0,0
214507,-153.846153846154,4,2,1,30,0,0
216376,405.405405405406,4,2,1,25,1,0
217186,-153.846153846154,4,2,1,25,0,0
217490,-111.111111111111,4,2,1,25,0,0
217997,402.684563758389,4,2,1,25,1,0
217997,-222.222222222222,4,2,1,25,0,0
218802,-66.6666666666667,4,2,1,25,0,0
219003,-133.333333333333,4,2,1,25,0,0
219607,412.371134020619,4,2,1,25,1,0
220019,-83.3333333333333,4,2,1,35,0,0
220277,-100,4,2,1,35,0,0
220637,-125,4,2,1,35,0,0
221256,406.779661016949,4,2,1,35,1,0
221866,-83.3333333333333,4,2,1,35,0,0
222069,-133.333333333333,4,2,1,35,0,0
222883,409.556313993174,4,2,1,35,1,0
223906,-100,4,2,2,25,0,0
223958,-100,4,2,1,15,0,0
224009,-100,4,2,1,35,0,0
224316,-83.3333333333333,4,2,1,35,0,0
224521,408.163265306123,4,2,1,35,1,0
225949,-83.3333333333333,4,2,1,35,0,0
226153,-83.3333333333333,4,2,1,20,0,0
227786,404.721753794267,4,2,90,35,1,0
227988,-100,4,2,1,35,0,0
228190,-83.3333333333333,4,2,1,35,0,0
229404,406.091370558376,4,2,1,35,1,0
231028,405.405405405406,4,2,1,35,1,0
231433,-83.3333333333333,4,2,1,35,0,0
232244,-100,4,2,1,35,0,0
232649,408.85860306644,4,2,1,35,1,0
233364,-83.3333333333333,4,2,1,35,0,0
234284,410.95890410959,4,2,1,35,1,0
234694,-83.3333333333333,4,2,1,35,0,0
235516,-100,4,2,1,35,0,0
235927,413.793103448276,4,2,1,35,1,0
236961,-83.3333333333333,4,2,1,35,0,0
237478,-70.4225352112676,4,2,1,35,0,0
237582,400.667779632722,4,2,1,35,1,0
237682,-100,4,2,2,25,0,0
237732,-100,4,2,1,15,0,0
237782,-100,4,2,1,35,0,0
237982,-83.3333333333333,4,2,1,35,0,0
238784,-71.4285714285714,4,2,1,35,0,0
239184,406.77966101695,4,2,1,35,1,0
240811,408.163265306123,4,2,1,35,1,0
241219,-83.3333333333333,4,2,1,35,0,0
242035,-100,4,2,1,35,0,0
242443,409.556313993175,4,2,1,35,1,0
242852,-83.3333333333333,4,2,1,35,0,0
243262,-100,4,2,1,35,0,0
244081,408.163265306123,4,2,1,35,1,0
244489,-83.3333333333333,4,2,1,35,0,0
245305,-100,4,2,1,35,0,0
245713,406.77966101695,4,2,1,35,1,0
247136,-83.3333333333333,4,2,1,35,0,0
247340,410.95890410959,4,2,1,35,1,0
247750,-83.3333333333333,4,2,1,35,0,0
248983,400.000000000001,4,2,1,35,1,0
249683,-71.4285714285714,4,2,1,35,0,0
249983,-100,4,2,1,35,0,0
250604,406.091370558376,4,2,1,35,1,0
250908,-83.3333333333333,4,2,1,35,0,0
251619,-71.4285714285714,4,2,1,35,0,0
251822,-71.4285714285714,4,2,1,26,0,0
251923,-71.4285714285714,4,2,1,29,0,0
252025,-71.4285714285714,4,2,1,32,0,0
252228,410.256410256411,4,2,1,35,1,0
252228,-83.3333333333333,4,2,1,20,0,0
253253,-83.3333333333333,4,2,99,30,0,0
253458,-83.3333333333333,4,2,98,30,0,0
253663,-83.3333333333333,4,2,99,30,0,0
253869,411.663807890224,4,2,1,35,1,1
253869,-71.4285714285714,4,2,1,40,0,1
254280,-71.4285714285714,4,2,1,40,0,0
254692,-76.9230769230769,4,2,1,40,0,0
255001,-83.3333333333333,4,2,1,40,0,0
255515,406.091370558376,4,2,1,40,1,0
255921,-133.333333333333,4,2,1,40,0,0
257545,-71.4285714285714,4,2,1,40,0,0
257951,-76.9230769230769,4,2,1,40,0,0
258255,-83.3333333333333,4,2,1,40,0,0
258765,404.721753794267,4,2,1,40,1,0
258765,-100,4,2,1,40,0,0
259170,-83.3333333333333,4,2,1,40,0,0
260081,-133.333333333333,4,2,1,40,0,0
260384,406.77966101695,4,2,1,40,1,0
260384,-71.4285714285714,4,2,1,40,0,0
260790,-71.4285714285714,4,2,1,40,0,0
261095,-76.9230769230769,4,2,1,40,0,0
261502,-83.3333333333333,4,2,1,40,0,0
261909,-71.4285714285714,4,2,1,40,0,0
262011,408.85860306644,4,2,1,40,1,0
262113,-100,4,2,2,25,0,0
262164,-100,4,2,1,15,0,0
262215,-100,4,2,1,40,0,0
262419,-133.333333333333,4,2,1,40,0,0
263033,-100,4,2,1,40,0,0
263544,-71.9424460431655,4,2,1,40,0,0
263646,414.507772020726,4,2,1,40,1,0
263697,-100,4,2,2,25,0,0
263749,-100,4,2,1,15,0,0
263853,-100,4,2,1,40,0,0
264267,-83.3333333333333,4,2,1,40,0,0
265304,410.256410256411,4,2,1,20,1,0
265509,-83.3333333333333,4,2,1,20,0,0
266534,-83.3333333333333,4,2,1,30,0,0
266637,-83.3333333333333,4,2,2,25,0,0
266688,-83.3333333333333,4,2,1,15,0,0
266739,-83.3333333333333,4,2,2,5,0,0
266842,-83.3333333333333,4,2,1,30,0,0
266945,407.470288624789,4,2,1,40,1,0
266945,-71.4285714285714,4,2,1,40,0,0
267759,-76.9230769230769,4,2,1,40,0,0
268065,-83.3333333333333,4,2,1,40,0,0
268574,408.85860306644,4,2,1,40,1,0
268574,-71.4285714285714,4,2,1,40,0,0
268676,-71.4285714285714,4,2,1,5,0,0
268778,-83.3333333333333,4,2,1,40,0,0
268982,-71.4285714285714,4,2,1,40,0,0
270209,406.091370558376,4,2,1,40,1,0
270209,-71.4285714285714,4,2,1,40,0,0
271021,-76.9230769230769,4,2,1,40,0,0
271833,408.85860306644,4,2,1,40,1,0
271833,-71.4285714285714,4,2,1,40,0,0
271935,-71.4285714285714,4,2,1,5,0,0
272037,-83.3333333333333,4,2,1,40,0,0
272344,-71.4285714285714,4,2,1,40,0,0
273468,410.256410256411,4,2,1,40,1,0
273468,-71.4285714285714,4,2,1,40,0,0
274288,-76.9230769230769,4,2,1,40,0,0
274596,-83.3333333333333,4,2,1,40,0,0
275109,408.163265306123,4,2,1,40,1,0
275109,-71.4285714285714,4,2,1,40,0,0
275238,-71.4285714285714,4,2,1,5,0,0
275313,-83.3333333333333,4,2,1,40,0,0
275415,-71.4285714285714,4,2,1,40,0,0
275823,-83.3333333333333,4,2,1,40,0,0
276333,-71.4285714285714,4,2,1,40,0,0
276741,405.405405405406,4,2,1,40,1,0
276943,-83.3333333333333,4,2,1,40,0,0
277146,-71.4285714285714,4,2,1,40,0,0
277754,-83.3333333333333,4,2,1,40,0,0
277957,-71.4285714285714,4,2,1,40,0,0
278362,413.793103448277,4,2,1,20,1,0
278568,-83.3333333333333,4,2,1,20,0,0
279396,-83.3333333333333,4,2,97,50,0,0
280017,408.163265306124,4,2,1,40,1,1
280527,-83.3333333333333,4,2,1,40,0,1
281649,409.556313993175,4,2,1,40,1,0
281649,-100,4,2,1,40,0,0
282058,-71.4285714285714,4,2,1,40,0,0
282212,-71.4285714285714,4,2,1,5,0,0
282365,-71.4285714285714,4,2,1,40,0,0
282468,-83.3333333333333,4,2,1,40,0,0
283082,-100,4,2,1,40,0,0
283287,405.405405405407,4,2,1,40,1,0
283287,-71.4285714285714,4,2,1,40,0,0
284097,-76.9230769230769,4,2,1,40,0,0
284401,-83.3333333333333,4,2,1,40,0,0
284908,404.721753794268,4,2,1,40,1,0
284908,-71.4285714285714,4,2,1,40,0,0
286425,-100,4,2,1,40,0,0
286526,410.256410256411,4,2,1,40,1,0
286936,-71.4285714285714,4,2,1,40,0,0
287243,-71.4285714285714,4,2,1,5,0,0
287346,-76.9230769230769,4,2,1,40,0,0
287654,-83.3333333333333,4,2,1,40,0,0
288167,408.163265306124,4,2,1,40,1,0
288167,-83.3333333333333,4,2,1,40,0,0
288779,-83.3333333333333,4,2,1,40,0,0
289391,-71.4285714285714,4,2,1,40,0,0
289595,-71.4285714285714,4,2,1,5,0,0
289697,-71.4285714285714,4,2,1,40,0,0
289799,406.77966101695,4,2,1,40,1,0
289799,-83.3333333333333,4,2,1,40,0,0
290205,-71.4285714285714,4,2,1,40,0,0
290612,-71.4285714285714,4,2,1,30,0,0
291019,-71.4285714285714,4,2,1,31,0,0
291121,-71.4285714285714,4,2,1,34,0,0
291222,-71.4285714285714,4,2,1,37,0,0
291324,-71.4285714285714,4,2,1,40,0,0
291425,409.556313993175,4,2,1,40,1,0
292653,-100,4,2,1,40,0,0
292756,-100,4,2,1,30,0,0
293063,406.77966101695,4,2,1,40,1,0
293063,-71.4285714285714,4,2,1,40,0,0
293266,-71.4285714285714,4,2,1,5,0,0
293368,-71.4285714285714,4,2,1,40,0,0
293622,-71.4285714285714,4,2,2,25,0,0
293673,-71.4285714285714,4,2,1,15,0,0
293774,-71.4285714285714,4,2,1,40,0,0
293876,-83.3333333333333,4,2,1,40,0,0
294690,408.163265306123,4,2,1,40,1,0
294894,-83.3333333333333,4,2,1,40,0,0
295098,-100,4,2,1,40,0,0
295506,-83.3333333333333,4,2,1,40,0,0
295710,-90.9090909090909,4,2,1,40,0,0
295914,-111.111111111111,4,2,1,40,0,0
296322,409.556313993175,4,2,1,40,1,0
297141,-166.666666666667,4,2,1,40,0,0
297960,410.95890410959,4,2,1,40,1,0
298165,-83.3333333333333,4,2,1,40,0,0
298370,-83.3333333333333,4,2,1,40,0,0
298781,-66.6666666666667,4,2,1,40,0,0
298884,-71.4285714285714,4,2,1,5,0,0
298987,-66.6666666666667,4,2,1,40,0,0
299603,410.256410256411,4,2,1,40,1,0
300423,-166.666666666667,4,2,1,40,0,0
301449,-83.3333333333333,4,2,1,40,0,0
302064,-66.6666666666667,4,2,1,40,0,0
302167,-71.4285714285714,4,2,1,5,0,0
302269,-66.6666666666667,4,2,1,40,0,0
302885,407.470288624789,4,2,1,40,1,0
303699,-166.666666666667,4,2,1,40,0,0
304514,408.85860306644,4,2,1,20,1,0
304718,-83.3333333333333,4,2,1,20,0,0
305536,-83.3333333333333,4,2,1,30,0,0
305740,-83.3333333333333,4,2,95,30,0,0
305842,-133.333333333333,4,2,1,30,0,0
306149,404.721753794268,4,2,95,40,1,1
306250,-100,4,2,1,40,0,1
307768,404.721753794267,4,2,1,40,1,1
309389,404.040404040405,4,2,1,40,1,1
311004,406.091370558377,4,2,1,40,1,1
312630,404.040404040405,4,2,1,40,1,1
314246,408.163265306123,4,2,1,40,1,1
315881,410.256410256411,4,2,1,40,1,1
317419,1641.02564102564,4,2,1,40,1,1
317419,-192.307692307692,4,2,2,40,0,1
317521,-192.307692307692,4,2,1,15,0,1
317931,-192.307692307692,4,2,2,20,0,1
318342,-192.307692307692,4,2,1,25,0,1
318752,-192.307692307692,4,2,2,30,0,1
318957,-192.307692307692,4,2,1,35,0,1
319190,418.118466898956,4,2,1,35,1,0
320862,408.163265306123,4,2,1,35,1,0
320862,-133.333333333333,4,2,1,35,0,0
321270,-100,4,2,1,35,0,0
321678,-133.333333333333,4,2,1,35,0,0
322086,400.000000000001,4,2,1,35,1,0
322086,-100,4,2,1,35,0,0
322487,414.507772020726,4,2,1,35,1,0
323316,403.361344537816,4,2,1,35,1,0
324122,405.405405405406,4,2,1,35,1,0
325034,-133.333333333333,4,2,1,35,0,0
325338,-83.3333333333333,4,2,1,35,0,0
325641,-71.4285714285714,4,2,1,35,0,0
325743,406.091370558376,4,2,1,35,1,0
325946,-83.3333333333333,4,2,1,35,0,0
326453,-71.4285714285714,4,2,1,35,0,0
327265,-62.5,4,2,1,35,0,0
327367,402.68456375839,4,2,1,35,1,0
327568,-71.4285714285714,4,2,1,35,0,0
328071,-62.5,4,2,1,35,0,0
328873,-62.8140703517588,4,2,1,35,0,0
328977,415.22491349481,4,2,1,35,1,0
329184,-71.4285714285714,4,2,1,35,0,0
329911,-76.9230769230769,4,2,1,35,0,0
330118,-83.3333333333333,4,2,1,35,0,0
330326,-90.9090909090909,4,2,1,35,0,0
330534,-100,4,2,1,35,0,0
330637,407.470288624788,4,2,1,35,1,0
330738,-111.111111111111,4,2,1,35,0,0
330942,-133.333333333333,4,2,1,35,0,0
331535,419.58041958042,4,2,1,35,1,0
332266,406.091370558376,4,2,1,35,1,0
332266,-55.5555555555556,4,2,1,40,0,0
333890,410.256410256411,4,2,1,40,1,0
333890,-50,4,2,1,40,0,0
335536,404.721753794267,4,2,1,40,1,1
335940,-66.6666666666667,4,2,1,40,0,1
336547,-133.333333333333,4,2,1,40,0,1
336750,-100,4,2,1,40,0,1
337154,409.556313993175,4,2,1,40,1,1
337154,-76.9230769230769,4,2,1,40,0,1
337973,-58.8235294117647,4,2,1,40,0,1
338075,-58.8235294117647,4,2,1,5,0,1
338177,-76.9230769230769,4,2,1,40,0,1
338382,-76.9230769230769,4,2,1,40,0,0
338689,-100,4,2,1,40,0,0
338792,406.091370558376,4,2,1,40,1,0
339198,-166.666666666667,4,2,1,40,0,0
340314,-100,4,2,1,40,0,0
340416,412.371134020619,4,2,1,40,1,0
340828,-133.333333333333,4,2,1,40,0,0
341240,-166.666666666667,4,2,1,40,0,0
341756,-100,4,2,1,40,0,0
342065,408.163265306123,4,2,1,40,1,1
342473,-66.6666666666667,4,2,1,40,0,1
342983,-76.9230769230769,4,2,1,40,0,1
343493,-117.647058823529,4,2,1,40,0,1
343697,406.091370558376,4,2,1,40,1,1
343697,-66.6666666666667,4,2,1,40,0,1
344204,-76.9230769230769,4,2,1,40,0,1
344509,-58.8235294117647,4,2,1,40,0,1
344610,-58.8235294117647,4,2,1,5,0,1
344712,-76.9230769230769,4,2,1,40,0,1
344915,-76.9230769230769,4,2,1,40,0,0
345118,-90.9090909090909,4,2,1,40,0,0
345321,397.350993377484,4,2,1,40,1,0
345420,-111.111111111111,4,2,1,40,0,0
345718,-90.9090909090909,4,2,1,40,0,0
345917,-111.111111111111,4,2,1,40,0,0
346513,425.531914893618,4,2,1,40,1,0
346513,-90.9090909090909,4,2,1,40,0,0
346939,410.256410256411,4,2,1,40,1,0
346939,-133.333333333333,4,2,1,40,0,0
347759,-90.9090909090909,4,2,1,40,0,0
348169,-133.333333333333,4,2,1,40,0,0
348580,408.85860306644,4,2,1,40,1,1
348682,-100,4,2,1,40,0,1
348988,-66.6666666666667,4,2,1,40,0,1
349499,-76.9230769230769,4,2,1,40,0,1
350011,-100,4,2,1,40,0,1
350215,407.470288624789,4,2,1,40,1,1
350215,-76.9230769230769,4,2,1,40,0,1
350316,-58.8235294117647,4,2,1,5,0,1
350418,-76.9230769230769,4,2,1,40,0,1
351029,-58.8235294117647,4,2,1,40,0,1
351131,-58.8235294117647,4,2,1,5,0,1
351233,-76.9230769230769,4,2,1,40,0,1
351437,-76.9230769230769,4,2,1,40,0,0
351743,-83.3333333333333,4,2,1,40,0,0
351844,406.091370558376,4,2,1,40,1,0
352148,-90.9090909090909,4,2,1,40,0,0
352859,-133.333333333333,4,2,1,40,0,0
353366,-90.9090909090909,4,2,1,40,0,0
353468,413.793103448277,4,2,1,40,1,0
353778,-90.9090909090909,4,2,1,40,0,0
354399,-133.333333333333,4,2,1,40,0,0
354812,-90.9090909090909,4,2,1,40,0,0
355123,412.371134020619,4,2,1,40,1,1
355535,-66.6666666666667,4,2,1,40,0,1
356153,-76.9230769230769,4,2,1,40,0,1
356463,-100,4,2,1,40,0,1
356772,410.95890410959,4,2,1,40,1,1
356772,-76.9230769230769,4,2,1,40,0,1
357593,-58.8235294117647,4,2,1,40,0,1
357696,-58.8235294117647,4,2,1,5,0,1
357799,-76.9230769230769,4,2,1,40,0,1
358004,-83.3333333333333,4,2,1,40,0,0
358210,-111.111111111111,4,2,1,40,0,0
358415,400.667779632722,4,2,1,40,1,0
358815,-111.111111111111,4,2,1,40,0,0
359116,-90.9090909090909,4,2,1,40,0,0
359617,-111.111111111111,4,2,1,40,0,0
360017,398.671096345516,4,2,1,40,1,0
360017,-90.9090909090909,4,2,1,40,0,0
360216,-133.333333333333,4,2,1,40,0,0
360365,-111.111111111111,4,2,1,40,0,0
360615,-133.333333333333,4,2,1,40,0,0
361611,410.256410256411,4,2,1,50,1,1
362021,-60.6060606060606,4,2,1,40,0,1
362534,-76.9230769230769,4,2,1,40,0,1
362946,-100,4,2,1,40,0,1
363252,-71.4285714285714,4,2,1,40,0,1
363862,-76.9230769230769,4,2,1,40,0,1
364072,-58.8235294117647,4,2,1,40,0,1
364175,-58.8235294117647,4,2,1,5,0,1
364277,-76.9230769230769,4,2,1,40,0,1
364482,-100,4,2,1,40,0,0
364534,-100,4,2,1,30,0,0
364893,413.080895008607,4,2,1,30,1,0
364996,-166.666666666667,4,2,1,30,0,0
365409,443.622920517561,4,2,1,30,1,0
365519,-166.666666666667,4,2,1,30,0,0
365759,404.721753794268,4,2,1,30,1,0
366163,384.000000000001,4,2,1,30,1,0
366163,-166.666666666667,4,2,1,30,0,0
366545,414.507772020726,4,2,1,30,1,0
366545,-166.666666666667,4,2,1,30,0,0
367374,426.287744227354,4,2,1,30,1,0
367374,-166.666666666667,4,2,1,30,0,0
367800,398.009950248757,4,2,1,30,1,0
367800,-166.666666666667,4,2,1,30,0,0
367999,-100,4,2,1,30,0,0
368203,403.361344537816,4,2,1,40,1,1
368606,-60.6060606060606,4,2,1,40,0,1
369110,-76.9230769230769,4,2,1,40,0,1
369614,-100,4,2,1,40,0,1
369816,402.010050251257,4,2,1,40,1,1
369816,-71.4285714285714,4,2,1,40,0,1
370419,-76.9230769230769,4,2,1,40,0,1
370620,-58.8235294117647,4,2,1,40,0,1
370720,-58.8235294117647,4,2,1,5,0,1
370821,-76.9230769230769,4,2,1,40,0,1
371022,-83.3333333333333,4,2,1,40,0,0
371424,407.470288624789,4,2,1,40,1,0
371424,-90.9090909090909,4,2,1,40,0,0
371627,-111.111111111111,4,2,1,40,0,0
371831,-90.9090909090909,4,2,1,40,0,0
372034,-111.111111111111,4,2,1,40,0,0
372340,-90.9090909090909,4,2,1,40,0,0
373053,409.556313993175,4,2,1,40,1,0
373053,-90.9090909090909,4,2,1,40,0,0
373462,-111.111111111111,4,2,1,40,0,0
374691,408.163265306123,4,2,1,40,1,1
375099,-60.6060606060606,4,2,1,40,0,1
375507,-76.9230769230769,4,2,1,40,0,1
376119,-100,4,2,1,40,0,1
376323,410.95890410959,4,2,1,40,1,1
376323,-71.4285714285714,4,2,1,40,0,1
376939,-76.9230769230769,4,2,1,40,0,1
377144,-58.8235294117647,4,2,1,40,0,1
377247,-58.8235294117647,4,2,1,5,0,1
377350,-76.9230769230769,4,2,1,40,0,1
377555,-83.3333333333333,4,2,1,40,0,0
377966,413.793103448277,4,2,1,40,1,0
378586,-111.111111111111,4,2,1,40,0,0
378793,422.535211267607,4,2,1,40,1,0
378793,-111.111111111111,4,2,1,40,0,0
379621,410.256410256411,4,2,1,40,1,0
379621,-133.333333333333,4,2,1,40,0,0
379826,-83.3333333333333,4,2,1,40,0,0
379928,-58.8235294117647,4,2,1,5,0,1
380031,-83.3333333333333,4,2,1,40,0,0
380236,-58.8235294117647,4,2,1,5,0,1
380338,-83.3333333333333,4,2,1,40,0,0
380954,-111.111111111111,4,2,1,40,0,0
381262,398.009950248757,4,2,1,40,1,1
381660,-60.6060606060606,4,2,1,40,0,1
382257,-76.9230769230769,4,2,1,40,0,1
382655,-100,4,2,1,40,0,1
382856,402.010050251257,4,2,1,40,1,1
382856,-71.4285714285714,4,2,1,40,0,1
383459,-76.9230769230769,4,2,1,40,0,1
383660,-58.8235294117647,4,2,1,40,0,1
383760,-58.8235294117647,4,2,1,5,0,1
383861,-76.9230769230769,4,2,1,40,0,1
384062,-100,4,2,1,40,0,0
384467,423.280423280424,4,2,1,30,1,0
386164,405.405405405406,4,2,1,30,1,0
387785,402.68456375839,4,2,1,40,1,1
388187,-60.6060606060606,4,2,1,40,0,1
388691,-76.9230769230769,4,2,1,40,0,1
389174,-100,4,2,1,40,0,1
389395,407.470288624788,4,2,1,40,1,1
389395,-60.6060606060606,4,2,1,40,0,1
390006,-71.4285714285714,4,2,1,40,0,1
390209,-58.8235294117647,4,2,1,40,0,1
390311,-58.8235294117647,4,2,1,5,0,1
390413,-76.9230769230769,4,2,1,40,0,1
390617,-100,4,2,1,40,0,0
391024,401.337792642141,4,2,1,40,1,0
391726,-83.3333333333333,4,2,1,40,0,0
392127,-58.8235294117647,4,2,1,5,0,1
392228,-83.3333333333333,4,2,1,40,0,0
392328,-100,4,2,1,40,0,0
392529,-83.3333333333333,4,2,1,40,0,0
392629,418.118466898955,4,2,1,40,1,0
392733,-83.3333333333333,4,2,1,40,0,0
394092,-111.111111111111,4,2,1,40,0,0
394301,408.85860306644,4,2,1,40,1,0
394301,-71.4285714285714,4,2,1,40,0,1
394914,-90.9090909090909,4,2,1,40,0,1
395118,-66.6666666666667,4,2,1,40,0,1
395732,-83.3333333333333,4,2,1,40,0,1
395936,411.663807890223,4,2,1,40,1,1
395936,-62.5,4,2,1,40,0,1
396553,-76.9230769230769,4,2,1,40,0,1
396759,-58.8235294117647,4,2,1,40,0,1
397376,-71.4285714285714,4,2,1,40,0,1
397582,410.256410256411,4,2,1,40,1,1
397582,-66.6666666666667,4,2,1,40,0,1
398402,-62.5,4,2,1,32,0,1
399223,404.721753794267,4,2,1,45,1,1
399223,-55.5555555555556,4,2,1,45,0,1
400841,407.470288624788,4,2,1,45,1,1
400841,-50,4,2,1,45,0,1
402470,418.848167539267,4,2,1,40,1,0
404145,416.666666666667,4,2,1,40,1,0
404978,-100,4,2,1,45,0,1
405395,500,4,2,1,45,1,1
405895,-100,4,2,1,35,0,0
418218,670.391061452514,4,2,1,35,1,0
418218,-666.666666666667,4,2,1,10,0,0
419558,-666.666666666667,4,2,1,15,0,0
420899,676.056338028169,4,2,1,35,1,0
420899,-666.666666666667,4,2,1,20,0,0
422251,699.708454810496,4,2,1,35,1,0
422251,-666.666666666667,4,2,1,25,0,0
423603,662.983425414365,4,2,1,35,1,0
423603,-666.666666666667,4,2,1,25,0,0
424928,666.666666666667,4,2,2,35,1,0
424928,-666.666666666667,4,2,1,25,0,0
427594,-666.666666666667,4,2,1,40,0,0
427678,-666.666666666667,4,2,1,25,0,0
430261,701.754385964912,4,2,1,35,1,0
430261,-666.666666666667,4,2,1,25,0,0
431664,652.173913043478,4,2,11,35,1,0
431664,-666.666666666667,4,2,1,25,0,0
432962,699.708454810496,4,2,3,35,1,0
432962,-666.666666666667,4,2,1,40,0,0
433027,-666.666666666667,4,2,1,25,0,0
434711,626.631853785901,4,2,10,35,1,0
434711,-666.666666666667,4,2,1,25,0,0
435653,681.818181818182,4,2,3,35,1,0
435653,-666.666666666667,4,2,1,25,0,0
438334,681.818181818182,4,2,1,35,1,0
438334,-666.666666666667,4,2,1,40,0,0
438419,-666.666666666667,4,2,1,25,0,0
441000,677.966101694916,4,2,1,20,1,0
441000,-666.666666666667,4,2,1,20,0,0
443651,676.056338028169,4,2,1,35,1,0
443651,-666.666666666667,4,2,1,30,0,0
443735,-666.666666666667,4,2,1,15,0,0
446325,677.966101694915,4,2,1,10,1,0
446325,-666.666666666667,4,2,1,10,0,0
447765,-666.666666666667,4,2,1,7,0,0
448867,-666.666666666667,4,2,1,5,0,0

[Colours]
Combo1 : 119,197,242
Combo2 : 185,206,193
Combo3 : 174,198,200
Combo4 : 112,239,143
Combo5 : 109,241,238
Combo6 : 244,105,81
Combo7 : 237,180,92
Combo8 : 74,128,227

[HitObjects]
45,75,8498,6,0,L|26:27,1,37.5,0|0,1:0|0:0,0:0:0:0:
106,39,8603,1,8,0:0:0:0:
106,39,9023,69,6,1:2:0:0:
175,104,9127,1,2,0:0:0:0:
237,69,9228,2,0,P|300:89|334:105,1,75,0|0,1:2|0:0,0:0:0:0:
471,167,9429,102,0,P|344:202|312:313,1,225.000008583069,10|0,0:1|0:0,0:0:0:0:
510,214,9731,2,0,P|412:179|376:198,1,112.500004291535,10|0,0:1|0:0,0:0:0:0:
411,181,10235,5,2,1:2:0:0:
315,295,10335,1,0,0:0:0:0:
402,324,10436,2,0,P|388:289|378:252,1,75,0|0,0:0|1:2,0:0:0:0:
103,48,10637,102,0,P|189:136|163:241,1,194.999991073609,10|0,0:1|0:0,0:0:0:0:
30,66,10945,2,0,P|125:83|145:116,1,97.4999955368044,10|0,0:1|0:0,0:0:0:0:
184,35,11356,1,8,0:0:0:0:
157,356,11458,6,2,P|110:209|85:157,1,191.250003647804,2|0,0:3|0:0,0:0:0:0:
183,192,11664,2,2,P|213:276|223:322,1,97.4999955368044,2|0,0:3|0:0,0:0:0:0:
5,372,11869,2,2,P|55:348|13:376,1,194.999991073609,12|0,0:0|0:0,0:1:0:0:
298,0,15427,101,8,0:0:0:0:
298,0,15528,1,2,1:2:0:0:
233,69,15637,1,2,0:0:0:0:
268,131,15738,2,0,P|248:194|232:228,1,75,0|0,1:2|0:0,0:0:0:0:
396,272,15941,6,0,P|269:307|237:418,1,225,10|0,0:1|0:0,0:0:0:0:
435,319,16245,2,0,P|337:284|301:303,1,112.500004291535,10|0,0:1|0:0,0:0:0:0:
335,284,16752,101,2,1:2:0:0:
226,378,16853,1,0,0:0:0:0:
187,293,16954,2,0,P|227:304|268:314,1,75,0|0,0:0|1:2,0:0:0:0:
89,170,17157,6,0,P|154:267|110:366,1,194.999991073609,10|0,0:1|0:0,0:0:0:0:
18,170,17461,2,0,P|108:203|122:239,1,97.4999955368044,10|0,0:1|0:0,0:0:0:0:
73,270,17866,1,8,0:0:0:0:
195,60,17984,102,2,P|329:115|488:157,1,255.000004863739,2|0,0:3|0:0,0:0:0:0:
377,207,18274,2,2,P|289:181|175:134,1,194.999991073609,2|0,0:3|0:0,0:0:0:0:
118,44,18564,2,2,P|159:37|117:50,1,146.249993305207,8|0,0:0|0:0,0:1:0:0:
245,272,21649,53,8,0:0:0:0:
245,272,22057,53,2,1:2:0:0:
176,207,22159,1,2,0:0:0:0:
114,242,22261,2,0,P|62:219|17:206,1,75,0|0,1:2|0:0,0:0:0:0:
198,341,22465,6,0,P|252:246|359:228,1,225,10|0,0:1|0:0,0:1:0:0:
407,280,22771,2,0,P|368:241|313:232,1,112.500004291535,10|0,0:1|0:0,0:0:0:0:
315,308,22975,1,8,0:3:0:0:
315,308,23077,2,0,P|331:330|343:356,1,56.2500021457673,2|0,0:0|0:0,0:0:0:0:
475,104,23281,101,2,1:2:0:0:
418,163,23383,1,0,0:0:0:0:
445,208,23485,2,0,P|428:242|416:276,1,75,0|0,0:0|1:2,0:0:0:0:
292,129,23689,6,0,P|245:46|151:30,1,194.999991073609,10|0,0:1|0:0,0:0:0:0:
102,77,23996,2,0,P|137:43|185:35,1,97.4999955368044,10|0,0:1|0:0,0:0:0:0:
200,107,24201,2,0,B|218:124|220:152|220:152|209:121|184:107,1,97.4999955368044,8|0,0:3|0:0,0:0:0:0:
58,9,24406,1,8,0:0:0:0:
111,191,24509,102,2,P|91:90|40:-21,1,191.250003647804,2|0,1:3|0:0,0:0:0:0:
7,71,24714,2,0,P|27:129|40:191,1,97.4999955368044,2|0,1:3|0:0,0:0:0:0:
195,238,24919,1,8,0:0:0:0:
187,233,25022,1,0,1:2:0:0:
187,243,25124,1,8,0:0:0:0:
460,99,25330,6,0,P|436:144|417:195,1,89.9999972534181,2|0,1:2|0:0,0:0:0:0:
355,153,25529,2,0,P|372:111|393:72,1,89.9999972534181,0|0,1:2|0:0,0:0:0:0:
444,254,25729,102,0,B|485:264|512:303|512:303|469:267|420:268,1,179.999994506836,8|0,1:3|0:0,0:0:0:0:
368,311,26028,2,0,P|421:296|457:254,1,112.500004291535,8|0,0:0|0:0,0:0:0:0:
289,110,26228,2,0,B|271:93|269:65|269:65|280:96|305:110,1,97.4999955368044,8|0,0:3|0:0,0:0:0:0:
355,153,26428,1,8,0:3:0:0:
167,290,26528,5,2,1:2:0:0:
227,233,26627,1,0,0:0:0:0:
272,261,26727,2,0,P|306:246|374:229,1,89.9999972534181,0|0,0:0|1:2,0:0:0:0:
126,62,26927,102,0,B|167:52|194:13|194:13|151:49|102:48,1,179.999994506836,8|0,0:0|0:0,0:0:0:0:
50,5,27236,2,0,P|103:20|139:62,1,112.500004291535,8|0,0:0|0:0,0:0:0:0:
57,135,27443,2,0,P|49:104|31:66,2,56.2500021457673,8|0|0,0:0|0:0|0:0,0:0:0:0:
105,198,27649,1,8,0:0:0:0:
182,328,27753,6,2,P|93:292|0:275,1,191.250003647804,2|0,1:3|0:0,0:0:0:0:
26,351,27959,2,0,P|74:362|120:379,1,97.4999955368044,2|0,1:3|0:0,0:0:0:0:
184,177,28166,101,2,0:0:0:0:
215,181,28269,1,2,0:3:0:0:
270,224,28372,1,2,0:0:0:0:
265,299,28476,1,2,0:3:0:0:
439,374,28579,5,12,0:0:0:0:
457,368,28680,1,2,0:0:0:0:
474,355,28781,1,2,0:3:0:0:
482,336,28882,1,2,0:0:0:0:
512,115,28983,102,0,P|409:151|372:253,1,225.000008583069,10|0,0:1|0:0,0:0:0:0:
388,204,29287,2,0,P|383:261|415:306,1,112.500004291535,10|0,0:1|0:0,0:0:0:0:
464,252,29489,2,0,B|481:234|509:232|509:232|478:243|464:268,1,89.9999972534181,8|0,0:3|1:0,0:0:0:0:
345,97,29691,1,8,0:3:0:0:
370,8,29793,5,2,1:2:0:0:
436,57,29894,1,0,0:0:0:0:
417,106,29995,2,0,P|439:137|457:169,1,75,0|0,0:0|1:0,0:0:0:0:
111,63,30197,102,0,P|207:78|255:162,1,194.999991073609,10|0,0:1|0:0,0:0:0:0:
231,120,30501,2,0,P|244:169|223:214,1,97.4999955368044,10|0,0:1|0:0,0:0:0:0:
3,203,30704,2,0,P|49:173|99:191,1,75,8|0,0:3|0:0,0:0:0:0:
299,261,30907,1,4,0:3:0:0:
231,218,31009,6,2,P|130:238|19:289,1,191.250003647804,2|0,1:3|0:0,0:0:0:0:
111,322,31212,2,0,P|169:302|231:289,1,97.4999955368044,2|0,1:3|0:0,0:0:0:0:
338,39,31415,101,8,0:0:0:0:
326,119,31516,1,8,0:3:0:0:
401,97,31618,1,4,0:3:0:0:
407,79,31719,2,0,P|365:42|313:51,1,75,4|0,0:3|0:0,0:0:0:0:
468,215,31923,1,4,0:3:0:0:
471,182,32026,1,8,0:3:0:0:
454,155,32129,1,8,0:0:0:0:
512,103,32232,6,0,P|409:139|372:241,1,225.000008583069,10|0,0:1|0:0,0:0:0:0:
459,296,32541,2,0,B|477:303|483:331|483:331|463:303|430:292,1,112.500004291535,10|0,0:1|0:0,0:0:0:0:
372,241,32747,2,0,B|362:218|336:206|336:206|361:227|366:256,1,97.4999955368044,8|0,0:3|0:0,0:0:0:0:
485,358,32953,1,8,0:3:0:0:
485,358,33055,101,2,1:2:0:0:
426,301,33158,1,0,0:0:0:0:
381,328,33261,2,0,P|346:311|312:299,1,75,0|0,0:0|1:2,0:0:0:0:
102,68,33467,6,0,P|201:67|265:143,1,194.999991073609,10|0,0:1|0:0,0:0:0:0:
179,207,33767,2,0,B|166:210|160:238|160:238|180:210|213:199,1,97.4999955368044,10|0,0:1|0:0,0:0:0:0:
344,160,33967,101,0,1:2:0:0:
344,150,34068,1,8,0:0:0:0:
352,155,34168,1,8,0:0:0:0:
244,275,34268,69,8,0:3:0:0:
219,202,34368,1,8,0:3:0:0:
157,160,34468,1,8,0:3:0:0:
81,165,34568,1,8,0:3:0:0:
0,267,34669,101,4,0:3:0:0:
19,265,34769,1,4,0:3:0:0:
36,255,34869,1,4,0:3:0:0:
46,237,34969,1,4,0:3:0:0:
0,120,35069,102,0,P|84:218|125:414,1,292.499986610413,4|0,1:2|0:0,0:0:0:0:
45,43,35477,2,0,P|152:71|242:145,1,202.499993820191,8|0,0:0|0:0,0:0:0:0:
504,280,35886,102,0,P|422:202|433:363,1,360,4|0,1:2|0:0,0:0:0:0:
483,359,36295,1,8,0:0:0:0:
0,252,36704,6,0,P|145:149|323:138,1,360,4|0,1:2|0:0,0:0:0:0:
434,98,37124,2,0,P|335:26|215:0,1,247.500007553101,8|0,0:0|0:0,0:0:0:0:
88,204,37544,102,0,P|183:301|177:106,1,427.499988584519,4|0,1:2|0:0,0:0:0:0:
123,116,37964,1,8,0:0:0:0:
354,342,38175,2,2,P|271:261|258:283,1,142.49999619484,2|0,0:3|0:0,0:0:0:0:
0,37,38385,69,4,1:2:0:0:
43,61,38486,1,2,0:3:0:0:
67,33,38588,1,2,0:3:0:0:
88,43,38689,2,0,P|111:36|146:30,1,41.2500012588501,2|8,0:0|0:0,0:0:0:0:
364,146,38892,1,2,0:0:0:0:
364,146,38994,2,0,P|341:139|306:133,1,41.2500012588501
263,77,39197,102,0,L|253:43,1,30,2|0,0:1|1:2,0:0:0:0:
194,272,39603,2,0,L|205:235,1,30,2|8,0:1|0:0,0:0:0:0:
273,360,39907,2,0,L|268:335,1,15,2|0,0:1|0:0,0:0:0:0:
49,308,40111,5,8,0:0:0:0:
100,250,40213,2,0,P|84:199|29:162,1,112.500004291535,0|8,1:2|0:0,0:0:0:0:
65,90,40519,1,8,0:3:0:0:
65,90,40621,2,0,P|116:112|151:132,1,56.2500021457673,0|4,0:3|0:3,0:0:0:0:
505,141,40825,102,2,P|404:161|331:192,1,168.750006437302,2|0,0:3|0:0,0:0:0:0:
388,246,41029,2,0,P|442:225|501:215,1,112.500004291535,2|0,1:3|0:0,0:0:0:0:
442,28,41233,2,0,P|414:121|382:279,1,225.000008583069,2|8,0:3|0:0,0:0:0:0:
201,336,41641,5,2,1:2:0:0:
158,312,41742,1,2,0:3:0:0:
134,340,41844,1,2,0:3:0:0:
113,330,41946,2,0,P|90:337|55:343,1,41.2500012588501,2|8,0:0|0:0,0:0:0:0:
381,366,42149,1,2,0:0:0:0:
381,366,42251,2,0,P|374:343|368:308,1,41.2500012588501
278,356,42454,102,0,L|268:390,1,30,2|0,0:1|1:2,0:0:0:0:
192,134,42861,2,0,L|203:171,1,30,2|8,0:1|0:0,0:0:0:0:
294,42,43166,2,0,L|286:64,1,15,2|0,0:1|0:0,0:0:0:0:
76,261,43370,5,8,0:0:0:0:
13,214,43473,2,0,P|41:176|66:169,1,56.2500021457673,0|0,1:2|0:0,0:0:0:0:
140,318,43678,1,8,0:0:0:0:
140,318,43780,1,8,0:3:0:0:
95,379,43883,2,0,P|45:355|39:334,1,56.2500021457673,4|0,0:3|0:0,0:0:0:0:
253,182,44088,102,2,P|354:202|427:233,1,168.750006437302,2|0,0:3|0:0,0:0:0:0:
370,287,44293,2,0,P|316:266|257:256,1,112.500004291535,2|0,1:3|0:0,0:0:0:0:
467,148,44498,2,0,P|491:119|473:154,1,112.500004291535,10|0,0:3|0:0,0:0:0:0:
288,359,44703,1,8,0:0:0:0:
222,49,44909,6,0,P|245:42|280:36,1,41.2500012588501,4|0,1:2|0:0,0:0:0:0:
149,93,45112,1,0,1:2:0:0:
125,17,45214,2,0,P|67:27|56:78,1,82.5000025177003
254,126,45520,2,0,P|274:129|293:136,1,41.2500012588501,0|8,1:2|0:0,0:0:0:0:
436,168,45723,102,0,L|426:134,1,30,2|0,0:1|1:2,0:0:0:0:
185,230,46131,2,0,L|174:267,1,30,2|8,0:1|0:0,0:0:0:0:
65,185,46437,2,0,L|59:170,1,15,2|0,0:1|0:0,0:0:0:0:
220,384,46640,5,0,0:0:0:0:
158,334,46742,2,0,P|127:368|124:392,1,56.2500021457673,0|0,1:2|0:0,0:0:0:0:
384,331,46946,2,0,P|382:358|368:383,1,56.2500021457673,8|0,0:0|0:0,0:0:0:0:
293,353,47151,2,0,P|286:325|276:299,1,56.2500021457673,0|8,1:2|0:0,0:0:0:0:
446,0,47355,102,2,P|396:90|373:166,1,168.750006437302,2|0,1:3|0:0,0:0:0:0:
451,157,47560,2,0,P|469:102|499:50,1,112.500004291535,2|0,1:3|0:0,0:0:0:0:
248,61,47764,2,0,P|342:97|478:176,1,225.000008583069,2|8,1:3|0:0,0:0:0:0:
180,384,48173,5,2,1:2:0:0:
204,341,48273,1,2,0:3:0:0:
176,317,48373,1,2,1:3:0:0:
186,296,48473,2,0,P|179:273|173:238,1,41.2500012588501,2|8,0:0|0:0,0:0:0:0:
289,337,48673,1,2,0:0:0:0:
289,337,48774,2,0,P|282:360|276:395,1,41.2500012588501
38,202,48974,102,0,L|207:165,1,150,2|0,0:1|1:2,0:0:0:0:
184,169,49375,2,0,L|329:254,1,150,2|8,0:1|0:0,0:0:0:0:
383,287,49675,2,0,L|454:264,1,75,2|0,0:1|0:0,0:0:0:0:
334,139,49878,5,8,0:0:0:0:
364,62,49982,2,0,P|385:23|400:-2,1,56.2500021457673,0|0,1:2|0:0,0:0:0:0:
465,90,50190,2,0,P|440:104|417:120,1,56.2500021457673,8|0,0:0|0:0,0:0:0:0:
258,27,50397,2,0,P|272:51|285:76,1,56.2500021457673,8|4,0:3|0:3,0:0:0:0:
373,280,50605,102,2,P|271:299|198:331,1,168.750006437302,2|0,1:3|0:0,0:0:0:0:
255,384,50813,2,0,P|309:362|368:353,1,112.500004291535,2|0,1:3|0:0,0:0:0:0:
201,230,51020,2,0,P|174:206|197:237,1,112.500004291535,2|0,1:3|0:0,0:0:0:0:
438,373,51228,1,8,0:0:0:0:
137,312,51435,86,0,P|104:193|34:89,1,209.999993591309,4|0,1:0|0:0,0:0:0:0:
471,19,51851,2,0,P|420:138|398:252,1,209.999993591309,10|0,0:0|0:0,0:0:0:0:
78,204,52266,2,0,P|166:154|126:67,1,209.999993591309,2|0,0:0|1:2,0:0:0:0:
434,150,52681,2,0,P|345:100|385:13,1,209.999993591309,10|0,0:0|0:0,0:0:0:0:
449,60,52992,1,10,0:0:0:0:
449,60,53095,2,0,P|495:84|523:108,1,75,10|0,0:0|0:0,0:0:0:0:
390,235,53298,1,0,1:2:0:0:
131,18,53502,2,0,P|60:42|0:85,1,150,2|0,0:0|0:0,0:0:0:0:
66,140,53808,1,10,0:0:0:0:
66,140,53909,2,0,P|111:111|163:96,1,75,8|8,0:0|0:0,0:0:0:0:
214,27,54113,1,0,1:2:0:0:
454,271,54317,2,0,P|409:242|357:227,1,75,2|0,1:2|0:0,0:0:0:0:
339,166,54521,1,2,1:2:0:0:
339,166,54623,1,8,0:0:0:0:
265,196,54724,1,2,1:2:0:0:
496,365,54928,1,0,1:2:0:0:
19,289,55132,1,2,0:3:0:0:
67,227,55336,1,2,0:3:0:0:
229,15,55540,53,8,0:0:0:0:
279,65,55642,1,8,0:0:0:0:
247,126,55744,1,8,0:0:0:0:
235,122,55948,5,8,0:0:0:0:
165,191,56050,1,8,0:0:0:0:
210,275,56152,1,8,0:0:0:0:
224,269,56356,101,8,0:3:0:0:
283,227,56458,1,8,0:3:0:0:
351,250,56560,1,8,0:3:0:0:
372,320,56662,1,4,0:3:0:0:
329,378,56764,1,4,0:3:0:0:
259,372,56866,1,4,0:3:0:0:
129,269,56968,2,0,L|95:285,1,37.5,2|0,1:3|0:0,0:0:0:0:
21,359,57878,102,0,B|77:370|115:308|107:284|88:273|122:198|194:212,1,247.500002360344,6|0,0:1|0:0,0:0:0:0:
208,315,58218,2,0,P|158:229|170:225,1,104.999996795654,2|0,0:0|1:2,0:0:0:0:
247,60,58416,1,10,0:0:0:0:
246,94,58515,1,2,0:3:0:0:
218,116,58614,1,2,0:0:0:0:
164,53,58713,102,0,B|212:42|245:96|238:117|221:126|251:191|313:179,1,209.999993591309,2|0,0:1|0:0,0:0:0:0:
411,60,59010,2,0,P|361:145|373:149,1,104.999996795654,2|0,1:2|0:0,0:0:0:0:
445,329,59208,1,8,0:0:0:0:
370,300,59307,2,0,P|322:321|278:349,1,104.999996795654,2|8,0:3|0:0,0:0:0:0:
512,298,59505,6,0,P|393:315|278:351,1,240,2|0,0:1|0:0,0:0:0:0:
303,180,59806,2,0,P|345:270|332:272,1,104.999996795654,2|0,1:2|0:0,0:0:0:0:
170,213,60008,1,10,0:0:0:0:
96,198,60109,1,8,0:3:0:0:
66,267,60210,1,2,0:0:0:0:
0,230,60311,102,0,P|118:247|233:283,1,240,2|0,0:1|0:0,0:0:0:0:
278,350,60614,2,0,P|329:263|317:259,1,120,2|0,1:2|0:0,0:0:0:0:
492,17,60816,5,8,0:0:0:0:
479,95,60917,1,8,0:3:0:0:
407,134,61018,1,4,0:3:0:0:
335,95,61119,2,0,B|319:35|445:3|466:138|400:203,1,240,12|0,0:0|0:0,0:0:0:0:
368,271,61425,2,0,P|322:231|339:193,1,104.999996795654,8|4,0:3|0:3,0:0:0:0:
497,191,61630,2,0,P|368:228|270:280,1,209.999993591309,2|0,0:3|0:0,0:0:0:0:
23,87,61939,6,0,P|5:49|-5:34,1,52.4999983978272,8|0,0:0|0:0,0:0:0:0:
143,34,62148,6,0,P|135:57|125:78,1,48.7499977684022,8|0,0:0|0:0,0:0:0:0:
200,150,62358,102,0,P|217:134|231:117,1,44.999998626709,8|0,0:3|0:0,0:0:0:0:
280,222,62568,6,0,P|260:228|241:233,1,41.2500012588501,8|0,0:0|0:0,0:0:0:0:
294,322,62778,102,0,P|309:311|324:299,1,37.5,8|0,0:3|0:0,0:0:0:0:
396,341,62968,6,0,P|391:356|384:372,1,33.7499989700318,8|0,0:3|0:0,0:0:0:0:
481,320,63180,102,0,P|471:310|460:301,1,28.1250010728836,4|0,0:3|0:0,0:0:0:0:
460,290,63392,6,0,P|473:286|486:281,1,28.1250010728836,4|0,0:3|0:0,0:0:0:0:
496,286,63603,102,0,P|492:299|490:313,1,28.1250010728836,0|0,1:2|0:0,0:0:0:0:
270,55,63795,53,8,0:0:0:0:
294,67,63899,1,8,0:0:0:0:
297,94,64003,1,8,0:0:0:0:
223,116,64108,1,8,0:3:0:0:
193,181,64212,1,4,0:3:0:0:
236,238,64316,1,8,0:3:0:0:
306,228,64421,1,8,0:0:0:0:
197,314,64521,86,0,P|241:144|288:1,1,269.999991760254,4|0,1:2|0:0,0:0:0:0:
416,164,64823,1,0,1:2:0:0:
416,164,64924,1,8,0:0:0:0:
443,238,65025,1,0,1:2:0:0:
399,291,65126,1,8,1:3:0:0:
360,295,65226,1,8,0:0:0:0:
288,350,65327,6,0,P|249:171|206:35,1,269.999991760254,4|0,1:2|0:0,0:0:0:0:
41,57,65630,1,0,1:2:0:0:
12,130,65731,1,8,0:0:0:0:
37,189,65831,1,8,0:3:0:0:
67,211,65932,1,4,0:3:0:0:
93,216,66033,1,8,0:0:0:0:
143,284,66134,102,0,B|205:286|250:212|241:183|218:170|259:80|332:84,1,300,4|0,1:2|0:0,0:0:0:0:
500,275,66442,1,8,0:0:0:0:
500,275,66545,1,8,0:0:0:0:
470,195,66648,1,8,0:3:0:0:
395,182,66751,1,4,1:3:0:0:
364,203,66854,1,4,1:3:0:0:
336,314,66957,6,0,B|274:316|229:242|238:213|261:200|220:110|148:115,1,300,4|0,1:2|0:0,0:0:0:0:
17,361,67266,1,8,0:0:0:0:
36,293,67368,1,8,0:0:0:0:
83,264,67466,1,2,0:3:0:0:
127,266,67565,1,8,0:3:0:0:
150,279,67664,1,2,0:3:0:0:
178,383,67763,69,6,1:2:0:0:
247,319,67862,1,2,0:0:0:0:
309,354,67961,2,0,P|361:331|406:318,1,75,0|0,1:2|0:0,0:0:0:0:
457,183,68178,6,0,B|421:202|412:235|412:235|417:201|385:160,1,134.999995880127,10|0,0:1|0:0,0:0:0:0:
390,167,68378,1,8,1:3:0:0:
486,253,68477,2,0,B|427:213|427:161|427:161|404:209|339:224,1,225.000008583069,10|4,0:1|1:3,0:0:0:0:
447,67,68776,2,0,P|434:114|426:162,1,97.4999955368044,0|8,1:2|0:0,0:0:0:0:
310,11,68976,101,2,1:2:0:0:
251,68,69079,1,0,0:0:0:0:
206,41,69184,2,0,P|156:30|125:22,1,75,0|8,0:0|0:0,0:0:0:0:
9,160,69407,5,6,0:0:0:0:
88,145,69509,1,2,0:0:0:0:
138,183,69611,1,2,0:0:0:0:
146,225,69714,1,2,0:3:0:0:
10,306,69816,101,2,0:3:0:0:
50,239,69918,1,8,0:3:0:0:
58,230,70021,1,8,0:3:0:0:
61,241,70123,1,8,0:3:0:0:
113,333,70226,6,2,P|202:297|296:280,1,191.250003647804,2|0,1:3|0:0,0:0:0:0:
269,355,70430,2,0,P|221:367|176:384,1,97.4999955368044,2|0,0:3|0:0,0:0:0:0:
462,346,70635,1,4,0:3:0:0:
462,346,70840,2,0,P|413:329|362:321,1,97.4999955368044,8|0,0:0|0:0,0:0:0:0:
88,12,71045,101,2,0:0:0:0:
153,81,71145,1,2,1:2:0:0:
118,143,71245,2,0,P|141:195|154:240,1,75,0|8,1:2|0:0,0:0:0:0:
39,118,71445,6,0,P|93:23|200:5,1,225,10|0,0:1|0:0,0:0:0:0:
371,124,71746,2,0,B|338:130|314:155|314:155|301:89|247:56,1,168.750006437302,10|0,0:1|0:0,0:0:0:0:
265,56,71946,1,8,0:0:0:0:
238,175,72046,2,0,B|236:150|216:130|216:130|229:156|228:175,1,97.4999955368044,4|0,0:3|0:0,0:0:0:0:
32,307,72247,101,8,0:3:0:0:
58,300,72347,1,8,0:3:0:0:
76,278,72447,1,8,0:3:0:0:
78,251,72547,1,8,0:0:0:0:
33,178,72647,6,0,P|52:285|147:339,1,225,10|8,0:1|0:0,0:0:0:0:
322,324,72951,2,0,B|298:261|233:246|233:246|194:291|145:271,1,168.750006437302,10|0,0:1|0:0,0:0:0:0:
190,267,73154,1,8,0:0:0:0:
232,383,73256,2,0,P|251:310|280:253,1,97.4999955368044,8|8,0:3|0:0,0:0:0:0:
326,124,73459,102,2,P|415:88|509:71,1,191.250003647804,2|0,1:3|0:0,0:0:0:0:
482,146,73662,2,0,P|434:158|389:175,1,97.4999955368044,2|0,1:3|0:0,0:0:0:0:
225,7,73865,5,10,0:0:0:0:
256,0,73966,1,2,0:3:0:0:
322,22,74068,1,2,0:0:0:0:
343,94,74169,1,2,0:3:0:0:
133,123,74280,101,4,1:2:0:0:
156,116,74382,1,2,0:0:0:0:
176,100,74484,1,2,0:0:0:0:
186,77,74586,1,0,1:2:0:0:
62,33,74688,6,0,P|165:68|202:171,1,225.000008583069,10|0,0:1|0:0,0:0:0:0:
10,79,74994,2,0,P|56:46|111:51,1,112.500004291535,10|0,0:1|0:0,0:0:0:0:
209,178,75198,2,0,B|188:191|181:218|181:218|197:195|213:185,1,97.4999955368044,8|0,0:3|0:0,0:0:0:0:
286,146,75402,1,8,0:3:0:0:
161,357,75504,101,2,1:2:0:0:
112,291,75606,1,8,0:3:0:0:
63,310,75708,2,0,P|32:288|0:270,1,75,0|8,1:2|0:3,0:0:0:0:
408,242,75912,6,0,P|305:277|268:380,1,225.000008583069,10|0,0:1|0:0,0:0:0:0:
463,288,76224,2,0,P|416:255|361:260,1,112.500004291535,10|0,0:1|0:0,0:0:0:0:
362,333,76432,2,0,B|344:340|343:369|343:369|369:337|401:328,1,112.500004291535,8|0,0:3|0:0,0:0:0:0:
432,134,76641,1,8,0:3:0:0:
241,69,76745,102,0,P|335:87|424:123,1,191.250003647804,2|0,1:3|0:0,0:0:0:0:
360,175,76953,2,0,P|315:159|267:147,1,97.4999955368044,2|0,1:3|0:0,0:0:0:0:
307,0,77162,1,2,1:2:0:0:
307,0,77266,2,0,P|362:32|356:71,1,97.4999955368044,8|0,0:0|0:0,0:0:0:0:
20,299,77474,5,8,0:3:0:0:
20,299,77578,1,2,1:2:0:0:
89,234,77678,1,2,0:0:0:0:
151,269,77779,2,0,P|206:255|252:250,1,75,0|0,0:0|1:2,0:0:0:0:
102,0,77980,102,0,P|17:69|17:177,1,225.000008583069,10|8,0:1|0:0,0:0:0:0:
165,24,78282,2,0,P|109:9|59:32,1,112.500004291535,10|0,0:1|0:0,0:0:0:0:
173,183,78484,2,0,P|71:118|-3:103,1,194.999991073609,8|4,0:3|0:3,0:0:0:0:
287,65,78786,5,10,0:3:0:0:
238,65,78886,1,8,0:3:0:0:
205,101,78987,1,4,0:3:0:0:
272,143,79088,1,2,0:3:0:0:
151,269,79188,102,0,P|259:286|313:379,1,225.000008583069,10|8,0:1|0:3,0:0:0:0:
108,321,79491,2,0,P|148:280|203:274,1,112.500004291535,10|8,0:1|0:3,0:0:0:0:
406,314,79693,2,0,B|388:321|387:350|387:350|413:318|445:309,1,97.4999955368044,8|0,0:3|0:0,0:0:0:0:
492,152,79895,69,8,0:3:0:0:
492,152,79996,1,2,0:3:0:0:
416,126,80098,1,2,0:0:0:0:
351,173,80200,1,2,0:3:0:0:
353,253,80302,1,2,0:0:0:0:
496,275,80404,101,2,0:3:0:0:
489,244,80506,1,2,0:0:0:0:
462,227,80608,1,2,0:0:0:0:
432,235,80709,1,2,0:0:0:0:
418,358,80809,102,0,P|385:185|341:46,1,269.999991760254,4|0,1:2|0:0,0:0:0:0:
255,113,81116,1,0,1:2:0:0:
255,113,81218,1,8,0:0:0:0:
186,153,81320,1,8,0:3:0:0:
186,221,81423,1,4,0:3:0:0:
213,250,81525,1,8,0:0:0:0:
58,355,81628,102,0,P|97:176|140:40,1,269.999991760254,4|0,1:2|0:0,0:0:0:0:
243,0,81935,1,0,1:2:0:0:
317,26,82034,1,8,0:0:0:0:
346,83,82133,1,8,0:3:0:0:
344,120,82232,1,8,0:0:0:0:
332,143,82331,1,8,0:3:0:0:
144,156,82447,6,0,B|215:152|256:242|233:255|224:284|269:358|331:356,1,300,4|0,1:2|0:0,0:0:0:0:
477,280,82755,1,0,1:2:0:0:
477,280,82858,1,8,1:2:0:0:
397,308,82961,1,8,1:3:0:0:
339,260,83064,1,10,1:3:0:0:
335,222,83167,1,0,1:2:0:0:
437,24,83270,102,0,B|365:19|324:109|347:122|356:151|311:225|245:223,1,300,4|0,1:2|1:2,0:0:0:0:
19,158,83579,1,8,0:3:0:0:
92,131,83681,1,0,1:2:0:0:
144,156,83784,1,8,0:3:0:0:
164,198,83887,1,0,1:2:0:0:
160,227,83990,1,4,0:3:0:0:
77,347,84093,85,12,0:0:0:0:
245,26,84384,101,4,1:3:0:0:
486,303,84675,5,12,0:0:0:0:
59,363,85258,101,4,1:2:0:0:
263,13,85549,5,4,1:3:0:0:
501,326,85839,102,2,P|481:279|493:329,1,150,12|0,0:0|0:0,0:1:0:0:
501,326,86943,69,8,0:0:0:0:
242,127,87369,54,0,P|166:131|150:206,1,165.000005035401,6|0,0:0|0:0,0:0:0:0:
195,277,87673,2,0,P|225:250|232:210,1,82.5000025177003,2|8,0:0|1:2,0:0:0:0:
12,118,87876,2,0,P|85:158|151:207,1,165.000005035401
250,359,88181,5,2,1:2:0:0:
250,359,88282,1,2,0:0:0:0:
382,228,88485,2,0,P|450:206|483:190,1,67.4999979400635,2|8,0:0|1:2,0:0:0:0:
331,327,88688,1,0,0:0:0:0:
331,327,88790,2,0,P|309:290|312:253,1,67.4999979400635,2|0,0:0|0:0,0:0:0:0:
423,21,88993,102,0,L|384:153,1,123.75000377655,2|0,1:2|0:0,0:0:0:0:
394,147,89194,1,0,0:0:0:0:
275,62,89395,2,0,L|314:194,1,123.75000377655,10|0,1:2|0:0,0:0:0:0:
304,188,89596,2,0,P|276:154|234:145,1,82.5000025177003
182,11,89797,6,0,L|140:151,1,134.999995880127,2|0,1:2|0:0,0:0:0:0:
31,44,90098,1,2,0:0:0:0:
31,44,90199,2,0,P|73:37|103:4,1,67.4999979400635,4|0,1:3|0:0,0:0:0:0:
244,139,90400,2,0,P|222:175|227:219,1,67.4999979400635,10|0,0:0|0:0,0:0:0:0:
41,267,90601,101,2,1:2:0:0:
79,352,90701,2,0,L|56:273,1,82.5000025177003,2|0,0:0|0:0,0:0:0:0:
15,178,90902,2,0,P|60:188|94:201,1,82.5000025177003,2|8,0:0|1:2,0:0:0:0:
153,320,91103,2,0,P|74:346|0:383,1,165.000005035401,2|0,0:0|0:0,0:0:0:0:
231,363,91405,5,2,1:2:0:0:
231,363,91505,2,0,P|299:385|332:401,1,67.4999979400635
436,244,91706,2,0,P|356:295|359:332,1,134.999995880127,2|0,0:0|0:0,0:0:0:0:
489,367,92008,2,0,P|451:346|435:304,1,67.4999979400635,2|0,0:0|0:0,0:0:0:0:
422,106,92209,101,8,1:3:0:0:
422,106,92324,2,0,P|408:144|374:164,1,82.5000025177003,8|0,0:3|0:0,0:0:0:0:
305,110,92530,2,0,P|319:72|354:53,1,82.5000025177003,2|4,0:0|1:3,0:0:0:0:
508,0,92736,1,0,0:0:0:0:
508,0,92839,2,0,P|440:22|402:37,1,82.5000025177003,2|0,0:0|0:0,0:0:0:0:
297,193,93045,5,2,1:2:0:0:
246,214,93148,1,2,0:0:0:0:
195,195,93251,1,0,0:0:0:0:
172,145,93354,1,2,0:0:0:0:
14,0,93559,1,2,0:0:0:0:
34,10,93662,1,8,0:0:0:0:
46,28,93765,1,2,0:0:0:0:
47,50,93868,1,2,1:2:0:0:
4,109,93970,1,0,0:0:0:0:
4,109,94072,1,2,0:3:0:0:
148,274,94277,102,0,P|173:304|173:345,1,82.5000025177003,10|0,1:2|0:0,0:0:0:0:
91,370,94482,2,0,P|66:340|66:299,1,82.5000025177003,2|0,0:0|0:0,0:0:0:0:
327,274,94687,1,2,1:2:0:0:
327,274,94789,1,8,0:3:0:0:
342,360,94891,2,0,P|304:345|264:333,1,82.5000025177003,2|0,0:0|0:0,0:0:0:0:
13,235,95096,1,2,1:2:0:0:
13,235,95199,1,8,0:3:0:0:
13,235,95301,2,0,P|44:223|77:214,1,67.4999979400635,2|0,0:0|0:0,0:0:0:0:
290,28,95506,5,2,1:2:0:0:
290,28,95607,1,8,0:3:0:0:
213,7,95709,2,0,P|201:46|172:111,1,82.5000025177003,2|0,0:0|0:0,0:0:0:0:
281,194,95913,1,2,1:2:0:0:
281,194,96015,1,8,0:3:0:0:
280,193,96117,2,0,P|265:163|253:132,1,67.4999979400635,2|0,0:0|0:0,0:0:0:0:
179,166,96320,101,0,1:2:0:0:
159,215,96422,1,2,0:0:0:0:
184,259,96524,1,2,0:3:0:0:
233,269,96626,1,2,0:0:0:0:
315,286,96728,1,0,1:2:0:0:
312,307,96830,1,0,0:0:0:0:
299,325,96932,1,8,0:0:0:0:
280,336,97034,1,0,0:0:0:0:
214,384,97136,2,0,P|160:359|143:353,1,75,2|0,1:2|0:0,0:0:0:0:
86,290,97340,1,0,0:0:0:0:
316,193,97544,6,0,P|406:228|402:287,1,165.000005035401,10|0,1:2|0:0,0:0:0:0:
280,336,97851,2,0,P|313:308|321:249,1,82.5000025177003,2|0,0:0|1:2,0:0:0:0:
448,138,98055,101,8,0:3:0:0:
448,138,98158,2,0,P|480:166|540:163,1,67.4999979400635,2|0,1:2|0:0,0:0:0:0:
507,1,98362,2,0,L|490:66,1,67.4999979400635,10|0,1:2|0:0,0:0:0:0:
367,113,98567,2,2,L|337:-5,1,101.249996910095,2|0,0:0|0:0,0:1:0:0:
347,6,98771,6,0,P|252:24|245:83,1,165.000005035401,2|0,1:1|0:0,0:0:0:0:
189,143,99076,1,4,1:3:0:0:
182,34,99178,2,0,P|223:48|247:95,1,82.5000025177003,8|0,1:2|0:0,0:0:0:0:
98,162,99382,1,8,1:3:0:0:
98,162,99484,2,2,P|113:96|117:53,1,82.5000025177003,2|0,0:0|1:2,0:1:0:0:
16,0,99687,1,8,0:3:0:0:
16,0,99789,2,0,P|29:55|32:91,1,67.4999979400635
129,304,99993,38,2,P|93:250|24:266,1,123.75000377655,2|0,1:3|0:0,0:1:0:0:
34,261,100197,2,2,P|32:303|59:338,1,82.5000025177003,2|0,1:3|0:0,0:1:0:0:
253,379,100400,53,2,1:1:0:0:
253,379,100502,1,8,0:3:0:0:
283,303,100604,1,4,0:3:0:0:
214,44,100809,5,10,1:3:0:0:
222,67,100911,1,8,0:3:0:0:
230,91,101014,1,6,0:3:0:0:
239,115,101116,1,8,0:0:0:0:
303,164,101219,102,0,P|350:100|317:51,1,134.999995880127,2|0,1:2|0:0,0:0:0:0:
408,26,101628,2,2,P|278:49|120:111,1,288.750008811951,6|0,1:2|0:0,0:0:0:0:
123,100,102038,6,0,P|114:178|196:200,1,165.000005035401,4|0,1:3|0:0,0:0:0:0:
258,233,102346,1,0,1:3:0:0:
297,301,102448,2,0,P|273:357|257:410,1,82.5000025177003,8|0,1:2|0:0,0:0:0:0:
49,284,102654,101,2,0:0:0:0:
49,246,102757,1,0,0:0:0:0:
81,265,102859,1,6,1:2:0:0:
156,133,103065,1,2,0:0:0:0:
183,204,103168,1,0,0:0:0:0:
109,188,103270,1,6,1:2:0:0:
265,164,103476,1,2,0:0:0:0:
235,140,103579,1,0,0:0:0:0:
270,128,103681,2,0,P|309:115|360:104,1,82.5000025177003,6|0,1:2|0:0,0:0:0:0:
512,95,103882,6,0,P|452:97|443:181,1,123.75000377655,8|0,0:0|0:0,0:0:0:0:
439,156,104083,2,0,P|451:198|475:260,1,82.5000025177003,10|0,1:3|0:0,0:0:0:0:
337,280,104285,1,2,0:0:0:0:
368,261,104385,1,0,0:0:0:0:
371,302,104486,2,0,L|341:217,2,67.4999979400635,2|2|0,1:2|0:3|0:0,0:0:0:0:
440,376,104788,2,0,L|461:312,1,67.4999979400635,2|8,0:0|1:2,0:0:0:0:
278,360,104989,2,0,L|248:272,1,67.4999979400635,2|0,0:0|0:0,0:0:0:0:
97,267,105191,1,2,0:0:0:0:
143,199,105291,101,2,1:3:0:0:
163,209,105393,1,2,0:3:0:0:
175,227,105496,1,2,0:3:0:0:
176,249,105599,1,2,0:3:0:0:
47,331,105701,2,0,P|13:265|23:246,1,82.5000025177003,12|0,1:2|0:0,0:0:0:0:
65,191,105907,1,4,0:3:0:0:
14,264,106010,2,0,P|96:319|93:386,1,165.000005035401,4|0,0:0|0:0,0:0:0:0:
97,377,106318,2,0,P|138:337|207:352,1,67.4999979400635,8|8,0:3|0:3,0:0:0:0:
259,161,106523,6,0,L|223:28,1,134.999995880127,8|0,1:2|0:0,0:0:0:0:
380,0,106832,1,6,0:0:0:0:
350,30,106934,1,0,1:2:0:0:
364,68,107035,1,2,0:0:0:0:
335,99,107137,1,0,0:0:0:0:
474,141,107238,1,6,0:0:0:0:
446,134,107340,1,8,1:2:0:0:
428,152,107441,1,2,0:0:0:0:
403,147,107543,1,0,0:0:0:0:
407,238,107644,1,6,0:0:0:0:
394,226,107746,1,0,1:2:0:0:
376,233,107847,2,0,P|341:239|289:258,1,67.4999979400635,2|0,0:0|0:0,0:0:0:0:
89,236,108050,1,6,0:0:0:0:
106,235,108152,1,8,1:2:0:0:
114,248,108253,1,2,0:0:0:0:
131,247,108355,1,0,0:0:0:0:
203,192,108456,1,6,0:0:0:0:
200,204,108558,1,0,1:2:0:0:
209,212,108659,1,2,0:0:0:0:
205,224,108761,1,0,0:0:0:0:
302,238,108863,1,6,0:0:0:0:
297,246,108965,1,8,1:2:0:0:
289,245,109067,1,2,0:0:0:0:
284,251,109169,1,0,0:0:0:0:
288,335,109271,1,14,0:0:0:0:
288,335,109372,2,0,L|371:368,1,67.4999979400635,2|0,1:2|0:0,0:0:0:0:
133,352,109576,2,0,L|70:377,1,67.4999979400635,2|0,0:0|0:0,0:0:0:0:
204,318,109780,1,10,1:2:0:0:
204,309,109882,1,2,0:0:0:0:
209,313,109984,1,2,0:0:0:0:
21,97,110187,101,2,1:2:0:0:
21,97,110289,2,0,P|103:72|131:68,1,82.5000025177003,2|0,0:0|0:3,0:0:0:0:
235,180,110493,2,0,P|199:134|131:167,1,123.75000377655,2|0,0:0|0:0,0:0:0:0:
137,156,110698,2,0,P|199:115|200:94,1,82.5000025177003,2|0,0:0|0:0,0:0:0:0:
176,39,110902,1,8,0:0:0:0:
415,3,111004,5,2,1:2:0:0:
415,3,111106,1,2,0:3:0:0:
319,73,111209,2,0,L|233:47,1,67.4999979400635,2|0,0:0|0:0,0:0:0:0:
421,117,111413,2,0,L|506:91,1,67.4999979400635,10|2,1:2|0:3,0:0:0:0:
366,173,111618,2,0,L|391:258,1,67.4999979400635,2|2,0:0|0:3,0:0:0:0:
290,342,111822,101,0,1:2:0:0:
294,321,111925,1,2,0:0:0:0:
309,305,112028,1,2,0:0:0:0:
371,358,112131,1,8,0:0:0:0:
371,358,112235,2,0,P|412:351|450:306,1,82.5000025177003,8|8,1:2|0:3,0:0:0:0:
245,250,112441,1,8,0:0:0:0:
183,353,112544,2,0,P|141:346|110:314,1,67.4999979400635,8|0,0:0|1:2,0:0:0:0:
15,247,112751,53,2,0:0:0:0:
19,257,112854,1,10,0:3:0:0:
24,267,112957,1,2,0:0:0:0:
29,277,113061,1,10,1:3:0:0:
33,288,113164,1,2,0:0:0:0:
37,298,113267,1,6,0:3:0:0:
40,309,113371,1,2,0:0:0:0:
12,380,113474,54,0,P|44:261|175:278,1,247.500007553101,4|0,1:2|0:0,0:0:0:0:
217,215,113878,1,10,1:2:0:0:
204,186,113979,1,0,0:0:0:0:
179,173,114081,1,2,0:0:0:0:
150,175,114182,1,8,0:0:0:0:
25,155,114283,1,2,1:2:0:0:
2,201,114384,1,8,0:3:0:0:
14,252,114485,1,2,0:3:0:0:
55,286,114586,1,2,0:3:0:0:
109,288,114688,1,8,1:2:0:0:
151,257,114789,1,2,0:0:0:0:
150,176,114890,1,2,0:0:0:0:
95,107,114991,2,0,P|126:243|143:386,1,247.500007553101,6|0,0:0|0:0,0:0:0:0:
185,93,115398,5,2,0:0:0:0:
186,45,115500,1,8,1:3:0:0:
217,6,115602,2,0,P|206:50|201:86,1,82.5000025177003,4|0,0:0|0:0,0:0:0:0:
445,208,115806,1,2,0:3:0:0:
445,208,115908,1,2,1:2:0:0:
444,149,116010,1,8,0:3:0:0:
405,100,116112,2,0,P|418:155|422:185,1,75,6|0,0:0|0:0,0:0:0:0:
230,253,116316,1,2,1:3:0:0:
230,253,116418,1,2,0:0:0:0:
231,171,116520,1,8,0:3:0:0:
282,102,116622,2,0,P|256:239|252:324,1,165.000005035401,4|0,0:0|0:0,0:0:0:0:
284,333,116928,1,2,0:0:0:0:
497,318,117132,102,0,P|445:295|410:284,1,89.9999972534181,4|0,1:2|0:0,0:0:0:0:
139,175,117337,1,2,0:3:0:0:
139,175,117439,1,10,0:0:0:0:
79,188,117541,1,8,1:3:0:0:
39,233,117643,2,0,P|90:210|125:199,1,89.9999972534181,4|0,0:0|0:0,0:0:0:0:
347,47,117848,1,2,0:3:0:0:
347,47,117950,1,2,1:2:0:0:
438,45,118052,1,8,0:3:0:0:
496,118,118155,2,0,P|431:90|389:76,1,89.9999972534181,4|0,0:0|0:0,0:0:0:0:
159,89,118359,6,0,P|215:100|234:-13,1,165.000005035401,2|0,1:2|0:0,0:0:0:0:
46,42,118666,1,8,0:3:0:0:
46,42,118769,2,0,P|53:85|85:114,1,82.5000025177003,10|0,1:2|0:0,0:0:0:0:
177,8,118974,1,4,1:3:0:0:
287,161,119076,2,0,L|266:213,1,41.2500012588501,8|0,0:0|0:0,0:0:0:0:
272,200,119282,102,0,L|317:361,1,134.999995880127,2|0,0:0|0:0,0:0:0:0:
244,374,119589,1,2,1:3:0:0:
226,360,119692,1,2,0:3:0:0:
219,339,119794,1,2,0:3:0:0:
224,317,119897,1,2,0:3:0:0:
424,252,120000,6,0,B|455:258|456:291|456:291|432:257|381:254,1,123.75000377655,2|0,1:2|0:0,0:0:0:0:
390,250,120203,2,2,P|302:274|141:348,1,247.500007553101,2|0,0:3|0:0,0:0:0:0:
93,374,120610,101,8,0:0:0:0:
53,384,120711,1,8,0:3:0:0:
17,365,120813,1,2,1:3:0:0:
3,328,120915,1,2,0:0:0:0:
76,295,121016,1,8,0:3:0:0:
76,295,121118,1,2,0:0:0:0:
22,227,121220,2,0,P|14:185|-16:154,1,67.4999979400635,4|0,1:2|0:0,0:0:0:0:
161,11,121423,2,0,P|127:61|118:93,1,67.4999979400635,2|0,0:1|0:0,0:0:0:0:
121,145,121627,5,2,1:2:0:0:
101,148,121729,1,8,0:3:0:0:
82,140,121831,1,2,0:0:0:0:
69,124,121933,1,8,0:3:0:0:
6,75,122035,1,2,1:2:0:0:
7,61,122137,1,8,0:3:0:0:
15,49,122239,1,2,0:0:0:0:
78,2,122341,2,0,P|125:67|126:96,1,82.5000025177003,10|0,0:0|1:2,0:0:0:0:
192,197,122545,1,8,0:3:0:0:
192,197,122647,2,0,P|227:186|265:181,1,67.4999979400635,2|0,0:3|0:0,0:0:0:0:
337,149,122851,101,2,1:2:0:0:
388,87,122953,1,2,0:0:0:0:
339,161,123055,1,2,0:0:0:0:
473,260,123259,5,2,1:2:0:0:
467,235,123360,1,2,0:0:0:0:
449,213,123462,1,2,0:1:0:0:
317,290,123665,1,8,1:2:0:0:
317,291,123767,2,0,P|352:275|418:270,1,75,2|0,0:3|0:0,0:0:0:0:
484,384,123970,1,8,0:0:0:0:
484,384,124072,1,2,1:2:0:0:
452,366,124174,1,0,0:0:0:0:
436,333,124275,1,2,0:0:0:0:
126,294,124479,101,10,1:2:0:0:
144,211,124581,1,2,0:3:0:0:
211,194,124682,1,2,0:3:0:0:
247,217,124784,2,0,P|225:293|221:334,1,67.4999979400635,2|0,0:0|1:2,0:0:0:0:
248,357,124987,1,0,0:0:0:0:
248,357,125089,1,2,0:0:0:0:
35,263,125292,1,10,1:2:0:0:
54,245,125393,1,0,0:0:0:0:
63,220,125495,2,0,P|47:167|40:118,1,67.4999979400635,2|0,0:0|0:0,0:0:0:0:
0,52,125698,53,2,1:2:0:0:
54,0,125799,1,2,0:3:0:0:
77,71,125901,1,2,0:0:0:0:
77,71,126002,1,2,0:3:0:0:
189,49,126104,1,0,1:2:0:0:
177,44,126205,1,8,0:3:0:0:
163,40,126307,1,8,0:0:0:0:
150,37,126408,1,8,0:0:0:0:
227,115,126510,54,0,L|408:67,1,165.000005035401,6|0,1:1|0:0,0:0:0:0:
441,0,126820,2,2,P|469:34|511:43,1,82.5000025177003,0|0,1:1|1:2,0:1:0:0:
365,147,127028,2,0,P|364:102|390:69,1,82.5000025177003,12|0,0:0|0:0,0:0:0:0:
445,132,127235,1,0,0:0:0:0:
488,290,127339,2,0,P|453:217|423:223,1,123.75000377655,12|0,1:2|0:0,0:0:0:0:
416,219,127546,2,0,P|391:251|342:271,1,82.5000025177003,2|0,1:2|0:0,0:0:0:0:
243,212,127753,6,0,L|516:286,1,247.500007553101,12|0,1:2|0:0,0:0:0:0:
383,337,128168,1,2,1:3:0:0:
337,322,128270,1,2,0:0:0:0:
290,308,128373,1,2,0:3:0:0:
495,360,128578,2,0,P|472:293|464:263,1,82.5000025177003,10|0,1:2|0:0,0:0:0:0:
243,212,128784,2,0,P|206:230|188:266,1,82.5000025177003,2|8,0:0|0:0,0:0:0:0:
127,328,128989,2,2,P|53:306|52:236,1,123.75000377655,2|0,1:2|0:0,0:1:0:0:
52,260,129195,2,0,P|67:209|74:163,1,67.4999979400635
2,145,129400,1,2,1:2:0:0:
2,145,129503,2,0,P|31:117|72:113,1,67.4999979400635
272,40,129709,102,0,L|232:216,1,165.000005035401,4|0,0:0|0:0,0:0:0:0:
128,18,130013,2,0,L|153:150,1,134.999995880127,0|0,0:0|1:2,0:0:0:0:
397,119,130317,6,0,L|288:263,1,165.000005035401,4|0,0:0|0:0,0:0:0:0:
272,40,130621,2,0,L|241:171,1,134.999995880127,0|0,1:2|0:0,0:0:0:0:
171,228,130925,2,0,L|192:310,1,67.4999979400635,2|0,0:0|1:2,0:0:0:0:
298,251,131128,101,2,0:0:0:0:
341,243,131229,1,8,0:0:0:0:
376,270,131331,1,8,0:0:0:0:
381,313,131432,2,0,L|500:277,1,67.4999979400635,0|0,1:2|0:0,0:0:0:0:
209,372,131637,2,0,L|295:345,1,67.4999979400635
383,71,131842,1,6,1:2:0:0:
451,65,131944,1,0,0:0:0:0:
469,131,132047,2,0,P|447:199|437:249,1,82.5000025177003,2|0,0:0|0:0,0:0:0:0:
212,251,132252,5,2,1:2:0:0:
214,203,132355,1,8,0:3:0:0:
246,171,132457,1,8,0:3:0:0:
294,167,132560,1,8,0:3:0:0:
342,232,132662,1,2,1:2:0:0:
352,251,132764,1,2,0:3:0:0:
354,272,132867,2,0,P|306:250|271:241,1,67.4999979400635
107,176,133073,102,0,P|70:194|52:230,1,67.4999979400635,2|0,1:2|0:0,0:0:0:0:
19,344,133276,1,2,1:2:0:0:
158,384,133377,2,0,L|120:217,1,134.999995880127,2|0,0:0|0:0,0:0:0:0:
18,23,133682,1,2,0:0:0:0:
52,8,133783,1,0,0:0:0:0:
102,14,133885,1,2,1:2:0:0:
137,51,133986,1,8,0:0:0:0:
148,119,134088,1,10,0:0:0:0:
2,155,134291,2,2,P|28:119|69:108,1,82.5000025177003,4|0,1:2|0:0,0:1:0:0:
276,0,134494,2,2,P|268:43|236:72,1,82.5000025177003,4|0,0:0|0:0,0:1:0:0:
199,270,134697,5,2,1:2:0:0:
162,261,134797,1,8,0:3:0:0:
142,232,134897,1,2,0:3:0:0:
146,195,134997,1,2,0:3:0:0:
259,153,135097,1,8,1:2:0:0:
255,173,135197,1,8,0:3:0:0:
243,190,135298,1,8,0:0:0:0:
225,199,135398,1,8,0:0:0:0:
148,119,135498,1,2,1:2:0:0:
160,120,135598,1,2,0:0:0:0:
173,124,135698,1,2,0:0:0:0:
185,132,135798,1,2,0:0:0:0:
511,252,136021,101,2,0:0:0:0:
488,256,136123,1,2,0:0:0:0:
460,262,136225,1,2,0:0:0:0:
425,270,136326,1,2,1:2:0:0:
381,283,136427,1,2,0:0:0:0:
327,301,136528,1,2,0:0:0:0:
261,328,136629,2,0,P|334:343|327:218,1,202.499993820191,6|0,0:0|0:0,0:0:0:0:
428,187,137034,2,0,P|360:144|343:150,1,67.4999979400635,8|8,0:3|1:3,0:0:0:0:
68,78,137236,6,0,P|13:139|137:202,1,247.500007553101,6|0,0:0|1:2,0:0:0:0:
157,286,137641,2,0,P|227:231|227:211,1,82.5000025177003,8|8,0:0|0:3,0:0:0:0:
380,143,137843,102,0,P|365:47|216:111,1,292.499986610413,12|0,0:0|0:0,0:0:0:0:
335,308,138252,1,8,0:3:0:0:
312,236,138354,2,0,P|287:135|236:-11,1,247.500007553101,12|0,1:2|0:0,0:0:0:0:
260,333,138765,1,8,1:3:0:0:
256,326,138834,1,0,1:2:0:0:
251,319,138902,1,0,1:2:0:0:
249,313,138971,2,0,P|272:212|343:9,1,292.499986610413,12|0,0:0|0:0,0:0:0:0:
434,306,139382,2,2,P|425:259|390:228,1,97.4999955368044,0|0,0:0|0:0,0:1:0:0:
13,198,139589,22,0,P|183:242|372:315,1,359.999989013672,6|0,1:1|0:0,0:0:0:0:
9,361,140420,6,0,P|138:295|254:253,1,209.999993591309,4|0,1:2|0:0,0:0:0:0:
271,308,140732,1,8,0:0:0:0:
271,308,140836,1,8,0:0:0:0:
53,73,141044,1,0,1:2:0:0:
490,0,141251,102,0,B|418:-15|349:62|354:98|378:118|311:216|227:196,1,360,4|0,1:2|0:0,0:0:0:0:
165,129,141659,1,8,0:0:0:0:
213,2,142067,6,0,B|315:-5|374:123|341:141|328:182|392:288|486:285,1,427.499988584519,4|0,1:2|0:0,0:0:0:0:
512,360,142475,1,8,0:0:0:0:
178,292,142883,38,0,B|181:222|181:222|214:317,1,165.000005035401,4|2,1:2|0:0,0:0:0:0:
213,312,143289,2,2,B|214:271|263:245|263:245|58:295,1,292.499986610413,2|0,1:2|0:0,0:1:0:0:
58,367,143696,2,0,B|79:355|79:355|85:324,1,56.2500021457673,8|0,1:3|0:0,0:0:0:0:
9,233,143899,1,8,0:3:0:0:
217,0,144103,6,2,B|177:23|177:23|153:166,1,165.000005035401,10|0,1:2|0:0,0:1:0:0:
244,114,144408,1,2,0:0:0:0:
237,104,144510,2,0,B|215:86|215:86|186:93,1,56.2500021457673,8|0,1:3|0:0,0:0:0:0:
81,127,144712,1,8,0:3:0:0:
285,190,144914,1,8,1:2:0:0:
285,190,145117,2,0,B|326:200|326:200|357:174,1,82.5000025177003,2|0,0:0|0:0,0:0:0:0:
413,41,145319,102,0,B|462:-7|462:-7|495:103,1,165.000005035401,2|0,1:2|0:0,0:0:0:0:
512,164,145622,1,2,0:0:0:0:
512,164,145724,2,0,B|470:174|470:174|439:148,1,82.5000025177003,8|0,1:2|0:0,0:0:0:0:
335,4,145926,2,0,L|324:59,1,56.2500021457673,8|4,0:3|0:3,0:0:0:0:
416,243,146132,5,2,1:2:0:0:
418,252,146232,2,0,B|439:269|439:269|419:235,1,56.2500021457673,2|0,0:0|0:0,0:0:0:0:
361,192,146432,1,2,0:0:0:0:
363,182,146532,1,8,1:2:0:0:
510,346,146733,1,2,0:0:0:0:
238,205,146933,102,0,B|185:169|185:169|152:279,1,165.000005035401,2|0,1:2|0:0,0:0:0:0:
137,345,147233,2,0,B|178:355|178:355|209:329,1,82.5000025177003,2|8,0:0|1:2,0:0:0:0:
82,230,147434,2,0,L|55:133,1,56.2500021457673,2|0,0:0|0:0,0:0:0:0:
258,66,147634,6,2,P|229:19|183:1,1,97.4999955368044,2|0,0:0|1:2,0:1:0:0:
136,51,147838,2,2,B|137:92|194:119|194:119|-19:68,1,292.499986610413,0|8,0:0|1:2,0:1:0:0:
2,73,148348,2,0,L|57:63,1,56.2500021457673,8|0,0:3|0:0,0:0:0:0:
337,16,148551,1,2,1:2:0:0:
337,16,148755,1,2,0:0:0:0:
430,155,148959,1,10,1:2:0:0:
476,91,149061,2,2,B|459:67|459:67|275:111,1,165.000005035401,2|0,0:0|0:0,0:1:0:0:
253,310,149366,101,2,1:2:0:0:
252,320,149468,2,0,B|266:348|266:348|258:304,1,67.4999979400635,2|0,0:0|0:0,0:0:0:0:
219,244,149673,1,2,0:0:0:0:
225,235,149776,1,10,1:2:0:0:
231,226,149878,2,0,L|159:252,1,67.4999979400635,2|0,0:0|0:0,0:0:0:0:
347,349,150083,1,2,0:0:0:0:
347,349,150186,2,0,L|409:374,1,56.2500021457673,2|0,1:3|0:0,0:0:0:0:
384,145,150391,6,0,B|393:129|407:112|407:112|355:120|380:194,1,82.5000025177003,2|0,0:0|0:0,0:1:0:0:
266,47,150596,2,0,L|294:132,1,89.9999972534181,8|0,1:2|0:0,0:0:0:0:
320,209,150801,2,0,L|342:277,1,56.2500021457673,8|8,0:3|0:3,0:0:0:0:
470,250,151007,2,0,B|442:218|442:218|389:224,1,75,8|0,1:3|0:0,0:0:0:0:
271,61,151211,2,2,B|191:46|191:46|237:221|237:221|385:135,1,412.500012588501,2|0,0:0|0:0,0:1:0:0:
386,136,151823,2,0,L|405:75,1,56.2500021457673,0|8,1:2|0:3,0:0:0:0:
473,46,152027,1,0,1:2:0:0:
215,198,152231,101,8,1:2:0:0:
87,104,152435,2,0,B|68:83|59:81|59:81|92:74|101:106,1,82.5000025177003,2|0,0:0|0:0,2:2:0:0:
151,152,152642,1,0,1:2:0:0:
61,332,152846,2,0,L|0:349,1,56.2500021457673,8|0,0:3|0:0,0:0:0:0:
86,254,153050,5,10,1:2:0:0:
125,266,153152,1,2,0:3:0:0:
165,279,153254,1,2,0:0:0:0:
175,303,153356,1,2,0:0:0:0:
185,328,153458,1,2,1:2:0:0:
237,314,153560,1,2,0:3:0:0:
287,293,153662,1,2,0:0:0:0:
349,306,153764,1,2,0:0:0:0:
405,252,153866,1,2,1:2:0:0:
450,323,153968,2,0,B|427:301|427:301|474:161,1,165.000005035401,2|0,0:2|0:0,0:0:0:0:
469,174,154274,101,0,1:2:0:0:
387,374,154479,1,8,0:0:0:0:
231,230,154684,1,8,1:2:0:0:
214,221,154786,1,2,0:0:0:0:
197,213,154889,1,2,0:0:0:0:
180,204,154991,2,0,L|154:126,1,67.4999979400635,2|0,0:3|1:2,0:0:0:0:
118,261,155197,1,2,0:3:0:0:
118,261,155299,2,0,L|169:288,1,56.2500021457673,8|4,0:3|0:3,0:0:0:0:
431,23,155504,5,8,1:2:0:0:
373,2,155606,1,8,0:0:0:0:
315,18,155709,1,8,0:0:0:0:
272,76,155811,1,8,0:0:0:0:
266,153,155915,2,2,B|375:128|375:128|359:136|359:136|482:109,1,247.500007553101,4|0,1:2|0:0,0:1:0:0:
512,42,156323,1,4,1:2:0:0:
400,212,156528,102,0,L|418:281,1,56.2500021457673,8|8,0:0|0:3,0:0:0:0:
387,337,156732,1,8,1:3:0:0:
436,353,156834,1,8,0:3:0:0:
478,314,156936,1,8,0:3:0:0:
290,360,157141,2,0,B|304:344|304:344|324:231,1,112.500004291535,10|0,1:2|0:0,0:0:0:0:
269,186,157448,1,0,0:0:0:0:
334,136,157550,6,2,B|233:163|233:163|183:113|183:113|21:152,1,330.000010070801,2|8,1:2|1:2,0:1:0:0:
97,236,158097,2,0,B|113:190|113:190|66:129,1,100,2|0,0:0|0:0,0:0:0:0:
21,259,158370,1,2,1:2:0:0:
35,335,158507,1,2,0:3:0:0:
35,335,158643,1,2,0:3:0:0:
109,323,158780,1,2,1:2:0:0:
162,383,158917,1,2,0:3:0:0:
162,383,159054,1,2,0:3:0:0:
211,325,159191,1,0,1:2:0:0:
277,362,159325,2,0,L|378:385,1,75.000002861023,2|2,0:3|0:3,0:0:0:0:
350,378,159593,2,0,L|486:363,1,112.500004291535,8|0,1:2|0:0,0:0:0:0:
512,269,159894,101,8,0:3:0:0:
512,269,159995,2,0,L|456:277,1,56.2500021457673,0|0,1:2|0:0,0:0:0:0:
418,348,160196,1,8,0:3:0:0:
384,36,160397,5,0,1:2:0:0:
384,36,160497,1,2,0:0:0:0:
364,16,160598,1,2,0:0:0:0:
334,8,160698,1,8,0:3:0:0:
299,19,160799,1,2,1:2:0:0:
277,54,160900,1,8,0:3:0:0:
291,99,161002,1,2,0:0:0:0:
336,132,161103,1,8,0:3:0:0:
369,183,161205,1,2,1:2:0:0:
341,249,161306,1,8,0:3:0:0:
262,260,161408,1,2,0:0:0:0:
211,184,161509,2,0,P|266:134|456:140,1,225,4|0,0:0|0:0,0:0:0:0:
490,100,161915,1,2,0:0:0:0:
490,100,162017,2,0,P|464:173|431:178,1,75,2|0,1:2|0:0,0:0:0:0:
248,113,162220,2,0,P|205:48|171:52,1,89.9999972534181,2|0,0:0|0:0,0:0:0:0:
0,186,162423,102,0,L|55:363,1,150,4|0,1:0|0:0,0:0:0:0:
44,329,162831,2,0,B|45:289|45:289|98:248,1,75,4|0,1:3|0:0,0:0:0:0:
270,370,163036,1,0,0:0:0:0:
270,370,163138,2,0,B|259:380|259:380|90:320,1,150,2|0,0:0|0:0,0:0:0:0:
148,252,163445,2,0,B|160:259|160:259|177:343,1,60,2|0,0:0|0:0,0:0:0:0:
348,343,163649,2,0,B|360:350|360:350|449:320,1,60,10|0,1:2|0:0,0:0:0:0:
336,266,163854,2,0,B|304:267|304:267|287:289,1,60,2|0,0:0|0:0,0:0:0:0:
468,384,164058,5,2,1:2:0:0:
479,338,164160,1,2,0:3:0:0:
488,292,164262,1,2,0:0:0:0:
494,246,164365,1,2,0:3:0:0:
488,199,164467,1,10,1:2:0:0:
476,154,164569,1,8,0:3:0:0:
479,108,164671,1,2,0:0:0:0:
486,61,164773,1,4,0:3:0:0:
495,16,164876,102,0,L|514:110,1,89.9999972534181,2|0,1:2|0:0,0:0:0:0:
410,38,165080,2,0,L|395:111,1,75,2|0,0:0|0:0,0:0:0:0:
326,167,165285,2,0,L|241:193,1,60,8|0,1:2|0:0,0:0:0:0:
62,24,165489,85,2,0:0:0:0:
62,24,165591,2,0,L|138:49,2,60,2|2|0,0:0|1:3|0:0,0:0:0:0:
29,98,165894,2,0,L|109:123,1,75,0|8,1:2|0:0,0:0:0:0:
248,10,166096,1,2,1:2:0:0:
241,20,166197,2,0,L|265:118,1,60,4|8,0:3|0:3,0:0:0:0:
425,275,166398,2,0,L|332:242,1,75,2|4,0:0|1:3,0:0:0:0:
269,91,166600,2,0,L|246:171,1,75,2|4,0:0|0:3,0:0:0:0:
53,361,166802,2,0,L|146:328,1,75,10|4,0:0|1:3,0:0:0:0:
234,169,167003,2,0,L|257:249,1,75,2|4,0:0|0:3,0:0:0:0:
235,384,167205,2,0,B|274:208,1,179.999994506836,2|0,0:0|0:0,0:0:0:0:
126,156,167508,37,2,0:0:0:0:
98,89,167608,1,8,0:3:0:0:
138,29,167709,1,2,1:2:0:0:
210,30,167810,1,0,0:0:0:0:
269,91,167911,1,2,0:0:0:0:
304,79,168012,1,2,0:0:0:0:
341,72,168113,1,2,1:1:0:0:
397,11,168214,1,2,0:0:0:0:
407,15,168314,1,8,0:3:0:0:
417,20,168415,1,8,0:3:0:0:
426,26,168516,1,2,1:1:0:0:
463,98,168616,2,0,P|447:145|429:235,1,112.500004291535,8|0,0:0|0:0,0:0:0:0:
37,0,168928,38,2,P|83:169|104:297,1,269.999991760254,6|0,1:1|0:0,0:1:0:0:
20,279,169334,2,0,P|19:331|159:325,1,179.999994506836,8|0,1:2|0:0,0:0:0:0:
444,270,169639,1,8,1:2:0:0:
384,373,169739,6,0,P|419:202|446:112,1,209.999993591309,4|0,1:2|0:0,0:0:0:0:
492,111,170052,1,8,0:0:0:0:
452,40,170157,1,8,0:0:0:0:
308,337,170366,1,4,1:3:0:0:
55,16,170575,102,0,B|127:1|196:78|191:114|167:134|234:232|318:212,1,360,4|0,1:2|0:0,0:0:0:0:
393,265,170993,1,8,0:0:0:0:
350,118,171411,6,0,B|279:113|238:201|261:214|270:242|225:316|160:314,1,284.999992389679,4|0,1:2|0:0,0:0:0:0:
96,269,171724,1,8,0:0:0:0:
54,347,171829,1,8,0:0:0:0:
450,0,172243,38,0,L|494:215,1,179.999994506836,4|0,1:2|0:0,0:0:0:0:
495,183,172518,1,2,0:0:0:0:
503,192,172587,1,2,0:0:0:0:
512,204,172656,2,2,B|301:162|301:162|307:195|307:195|445:279|445:279|399:342|399:342|191:283|191:283|167:259|167:259|229:170|229:170|217:109,1,899.999972534181,10|0,1:2|0:0,0:1:0:0:
208,42,173898,1,8,1:3:0:0:
88,27,174104,6,0,B|120:50|120:50|71:161,1,150,2|8,0:0|1:2,0:0:0:0:
0,57,174413,1,2,0:0:0:0:
7,50,174516,2,0,B|7:21|7:21|26:90,1,75,2|0,0:3|0:0,0:0:0:0:
98,343,174722,1,2,1:2:0:0:
98,343,174825,1,2,0:0:0:0:
152,276,174928,2,0,L|60:230,1,89.9999972534181,8|0,0:3|0:0,0:0:0:0:
0,274,175135,1,4,1:3:0:0:
220,216,175341,1,2,0:3:0:0:
407,57,175547,101,0,0:0:0:0:
407,57,175648,2,0,B|436:-17|436:-17|444:-13|444:-13|430:108,1,179.999994506836,2|0,1:2|0:0,0:0:0:0:
505,102,175952,2,2,B|383:133|383:133|317:306|317:306|169:351|169:351,1,449.99998626709,10|0,1:2|0:0,0:1:0:0:
123,293,176560,2,0,B|99:269|99:269|44:276,1,56.2500021457673,2|0,0:3|0:0,0:0:0:0:
67,351,176763,1,8,1:2:0:0:
194,58,176965,2,0,L|217:141,1,67.4999979400635,8|8,0:3|0:0,0:0:0:0:
285,145,177168,2,0,L|304:83,1,56.2500021457673,8|0,1:3|0:0,0:0:0:0:
322,21,177371,1,4,0:3:0:0:
5,201,177574,5,10,0:0:0:0:
51,190,177675,1,2,0:3:0:0:
93,216,177777,1,2,0:0:0:0:
139,205,177879,1,2,0:3:0:0:
183,270,177981,2,0,B|208:284|208:284|240:278,1,56.2500021457673,8|8,1:3|0:3,0:0:0:0:
223,202,178184,1,8,0:3:0:0:
477,142,178388,2,0,B|496:120|521:110|521:110|477:96|462:144,1,112.5,2|0,1:2|0:0,0:0:0:0:
465,141,178591,2,0,L|489:228,1,75,2|0,0:0|0:0,0:0:0:0:
359,315,178795,102,0,L|344:383,4,56.2500021457673,2|2|2|2|2,1:2|0:3|0:3|0:3|1:3,0:0:0:0:
190,244,179400,2,0,L|173:169,1,56.2500021457673
251,11,179601,5,2,1:2:0:0:
310,32,179702,1,2,0:0:0:0:
322,96,179803,1,2,0:0:0:0:
272,137,179904,1,2,0:0:0:0:
211,115,180005,1,10,1:2:0:0:
200,52,180105,1,2,0:0:0:0:
336,361,180408,102,0,L|353:286,1,56.2500021457673,0|0,1:2|0:0,0:0:0:0:
279,271,180611,1,0,0:0:0:0:
66,100,180815,1,8,1:2:0:0:
57,106,180917,1,0,0:0:0:0:
49,113,181019,2,0,L|135:91,1,75
249,17,181222,5,2,1:2:0:0:
202,68,181324,1,8,0:3:0:0:
237,128,181426,1,2,0:0:0:0:
305,114,181528,1,8,0:3:0:0:
313,44,181630,1,10,1:2:0:0:
136,332,182037,102,0,L|120:262,1,56.2500021457673,8|0,1:3|0:0,0:0:0:0:
207,372,182240,1,2,0:3:0:0:
286,30,182443,5,10,1:2:0:0:
305,98,182544,1,2,0:0:0:0:
236,116,182646,1,2,0:0:0:0:
217,48,182747,1,2,0:0:0:0:
388,140,182950,1,2,0:0:0:0:
205,233,183153,2,0,L|288:255,1,56.2500021457673,8|0,0:3|0:0,0:0:0:0:
332,362,183356,1,4,0:3:0:0:
375,297,183559,1,2,0:0:0:0:
5,151,183763,69,2,0:0:0:0:
26,172,183865,1,8,0:0:0:0:
57,170,183967,1,8,0:3:0:0:
22,76,184069,1,2,1:2:0:0:
0,38,184171,1,8,0:0:0:0:
33,7,184273,2,0,L|62:105,1,89.9999972534181,8|8,0:0|0:3,0:0:0:0:
174,74,184477,1,8,1:3:0:0:
163,0,184579,2,0,L|126:161,1,151.875000579357,8|0,0:0|0:0,0:0:0:0:
136,160,184783,2,0,B|185:181|185:181|248:130,1,101.250000386238,8|0,0:0|1:2,0:0:0:0:
485,41,184987,37,8,0:0:0:0:
433,28,185089,1,8,0:0:0:0:
397,63,185191,1,8,0:0:0:0:
459,111,185293,2,0,P|344:121|292:248,1,179.999994506836,4|0,1:2|0:0,0:0:0:0:
366,220,185600,101,2,0:0:0:0:
392,220,185702,1,8,1:2:0:0:
413,242,185805,1,2,0:0:0:0:
361,296,185907,1,2,0:3:0:0:
361,296,186009,1,2,0:3:0:0:
494,369,186112,5,2,1:2:0:0:
459,358,186214,1,8,0:3:0:0:
425,349,186317,1,2,0:0:0:0:
425,349,186419,1,8,0:3:0:0:
361,296,186521,1,8,1:2:0:0:
327,305,186623,1,0,0:0:0:0:
294,314,186725,1,2,0:3:0:0:
261,323,186828,1,2,0:3:0:0:
134,382,186931,101,2,1:2:0:0:
83,329,187033,1,2,0:0:0:0:
95,258,187136,1,2,0:0:0:0:
158,224,187238,1,2,0:3:0:0:
224,254,187341,2,0,P|156:207|128:218,1,89.9999972534181,4|0,1:2|0:0,0:0:0:0:
8,363,187546,2,0,P|22:281|50:269,1,89.9999972534181,4|0,0:0|0:0,0:0:0:0:
87,176,187751,6,0,L|106:101,2,67.4999979400635,4|2|2,1:3|0:0|0:0,0:0:0:0:
107,36,188161,1,8,0:0:0:0:
107,36,188264,1,2,1:2:0:0:
59,98,188366,2,0,L|88:181,1,82.5000025177003,2|0,0:0|0:0,0:0:0:0:
205,32,188572,102,2,P|92:24|8:195,1,303.750001158714,2|0,1:2|0:0,0:1:0:0:
272,113,188978,2,2,L|308:-15,1,112.500004291535,8|0,1:2|0:0,0:1:0:0:
302,4,189282,1,0,0:0:0:0:
195,152,189384,2,2,P|308:144|392:315,1,303.750001158714,0|0,1:2|0:0,0:1:0:0:
462,346,189790,1,8,1:2:0:0:
386,189,189925,2,0,B|348:180|348:180|308:207,1,75.000002861023,2|0,0:0|0:0,0:0:0:0:
273,363,190196,5,0,1:2:0:0:
273,363,190331,1,2,0:0:0:0:
215,307,190478,1,2,0:3:0:0:
321,116,190626,101,2,0:0:0:0:
286,273,190773,1,2,0:0:0:0:
211,144,190921,5,2,0:3:0:0:
256,75,191069,1,2,0:3:0:0:
208,21,191216,1,2,0:0:0:0:
318,200,191387,102,0,B|392:223,1,56.2500021457673,8|0,1:2|0:0,0:0:0:0:
135,328,191603,2,0,L|214:306,1,82.5000025177003,8|0,0:3|0:0,0:0:0:0:
453,248,191823,1,2,1:2:0:0:
453,248,191925,1,2,0:0:0:0:
453,248,192027,1,2,0:0:0:0:
472,352,192231,5,8,1:2:0:0:
414,373,192333,1,8,0:3:0:0:
351,331,192435,1,2,0:0:0:0:
352,255,192537,1,8,0:3:0:0:
308,196,192639,1,2,1:2:0:0:
285,199,192741,1,2,0:0:0:0:
271,217,192843,2,0,L|198:186,1,75,2|0,0:3|0:0,0:0:0:0:
16,74,193047,101,12,1:2:0:0:
117,0,193251,1,2,0:0:0:0:
117,0,193353,1,0,0:0:0:0:
190,32,193557,2,0,L|170:104,1,67.4999979400635,2|0,0:0|0:0,0:0:0:0:
65,155,193761,2,0,L|93:244,1,56.2500021457673,2|8,0:0|1:2,0:0:0:0:
154,235,193966,1,2,0:0:0:0:
172,243,194068,1,8,0:3:0:0:
199,283,194170,1,2,0:0:0:0:
158,318,194272,1,8,1:3:0:0:
194,384,194374,2,0,L|172:310,1,56.2500021457673,2|0,0:0|0:0,0:0:0:0:
435,44,194681,6,0,B|416:51|416:51|368:193,1,150,12|0,1:2|0:0,0:0:0:0:
479,157,194988,2,0,B|454:116|454:116|395:130,1,89.9999972534181,2|0,0:0|1:2,0:0:0:0:
444,248,195191,1,8,0:3:0:0:
437,220,195293,1,2,0:0:0:0:
350,3,195497,1,10,1:2:0:0:
319,70,195599,1,8,0:3:0:0:
260,24,195701,1,2,0:0:0:0:
339,370,195904,101,2,1:2:0:0:
352,318,196006,1,2,0:0:0:0:
306,250,196108,1,8,0:3:0:0:
468,327,196312,1,8,1:2:0:0:
479,331,196380,1,8,0:0:0:0:
489,335,196448,1,8,0:0:0:0:
500,339,196516,2,0,L|419:357,1,75,8|0,0:0|0:0,0:0:0:0:
44,31,196719,5,4,1:3:0:0:
109,0,196821,1,8,0:0:0:0:
171,36,196923,1,8,0:0:0:0:
177,108,197025,1,8,0:0:0:0:
56,177,197127,1,4,1:3:0:0:
48,141,197229,1,8,0:0:0:0:
67,109,197331,1,2,0:3:0:0:
101,97,197432,1,2,0:3:0:0:
216,206,197534,69,8,1:2:0:0:
192,195,197636,1,8,0:3:0:0:
166,186,197738,1,8,0:3:0:0:
141,178,197840,1,4,0:3:0:0:
80,276,197942,1,8,1:3:0:0:
95,270,198044,1,8,0:3:0:0:
110,263,198146,1,4,0:3:0:0:
126,258,198247,1,4,0:3:0:0:
171,357,198371,102,0,P|129:182|89:68,1,269.999991760254,4|0,1:2|0:0,0:0:0:0:
142,27,198786,1,8,0:0:0:0:
225,47,198890,1,8,0:3:0:0:
237,73,198994,1,4,0:3:0:0:
232,86,199098,1,4,0:3:0:0:
318,338,199202,102,0,P|354:169|383:96,1,209.999993591309,4|0,1:2|0:0,0:0:0:0:
426,94,199514,1,0,1:2:0:0:
355,37,199618,1,8,0:0:0:0:
270,83,199721,1,8,0:3:0:0:
252,156,199826,2,0,P|302:168|368:211,1,104.999996795654,4|4,0:3|0:3,0:0:0:0:
493,205,200034,6,0,B|445:195|399:247|402:271|418:285|378:347|317:337,1,240,4|0,1:2|0:0,0:0:0:0:
251,307,200309,1,8,0:0:0:0:
255,294,200378,1,8,0:0:0:0:
263,284,200447,1,8,0:0:0:0:
83,112,200653,102,0,P|68:72|42:15,2,69.9999978637696,8|0|4,0:0|0:3|0:3,0:0:0:0:
21,167,200860,1,8,0:3:0:0:
21,167,200929,2,0,P|9:248|8:267,1,69.9999978637696,4|0,0:3|1:2,0:3:0:0:
154,92,201066,2,0,P|169:109|218:157,1,59.9999981689454,8|0,0:3|1:2,0:0:0:0:
108,186,201204,1,8,0:3:0:0:
124,186,201273,1,8,0:3:0:0:
133,201,201342,2,0,P|177:218|207:237,1,50,4|0,0:3|1:2,0:0:0:0:
133,348,201479,1,8,1:3:0:0:
90,338,201547,1,8,1:3:0:0:
66,299,201616,1,4,1:3:0:0:
78,257,201686,2,2,B|98:274|102:302|102:302|240:326|434:376|434:376|345:342|242:314|242:314,1,584.999982147217,8|2,0:0|0:1,0:1:0:0:
255,321,203294,37,0,0:0:0:0:
255,321,203394,1,0,0:0:0:0:
302,268,203495,1,0,0:0:0:0:
398,334,203697,1,8,0:3:0:0:
503,216,203999,2,0,L|522:280,1,56.2500021457673,2|0,0:3|0:0,0:0:0:0:
322,381,204302,1,0,0:0:0:0:
322,381,204504,1,0,0:0:0:0:
322,381,204705,1,0,0:0:0:0:
135,231,204907,101,0,0:0:0:0:
135,231,205009,1,0,0:0:0:0:
172,291,205111,1,0,0:0:0:0:
16,337,205315,1,8,0:3:0:0:
88,376,205621,1,8,0:3:0:0:
220,211,205927,1,0,0:0:0:0:
220,211,206131,1,0,0:0:0:0:
220,211,206335,1,0,0:0:0:0:
255,321,206539,5,0,0:0:0:0:
255,321,206642,1,0,0:0:0:0:
302,268,206745,1,0,0:0:0:0:
440,358,206951,1,8,0:3:0:0:
503,254,207260,2,0,B|524:229|524:229|508:259,1,56.2500021457673,2|0,0:1|0:0,0:0:0:0:
347,360,207569,1,0,0:0:0:0:
347,360,207776,1,0,0:0:0:0:
347,360,207982,1,0,0:0:0:0:
135,231,208188,101,0,0:0:0:0:
135,231,208290,1,0,0:0:0:0:
172,291,208392,1,0,0:0:0:0:
84,356,208597,1,8,0:3:0:0:
0,248,208904,1,8,0:3:0:0:
202,182,209211,1,0,0:0:0:0:
202,182,209416,1,0,0:0:0:0:
202,182,209621,1,0,0:0:0:0:
255,321,209826,5,0,0:0:0:0:
255,321,209928,1,0,0:0:0:0:
302,268,210030,1,0,0:0:0:0:
419,364,210234,1,8,0:3:0:0:
512,216,210540,2,0,L|493:280,1,67.4999979400635,2|0,0:3|0:0,0:0:0:0:
338,384,210850,1,0,0:0:0:0:
338,384,211058,1,0,0:0:0:0:
338,384,211267,1,0,0:0:0:0:
135,231,211458,102,0,L|159:300,3,48.7499977684022
85,323,211851,2,0,L|43:301,2,48.7499977684022,8|0|0,0:3|0:0|0:0,0:0:0:0:
143,384,212146,1,8,0:3:0:0:
235,190,212467,1,0,0:0:0:0:
235,190,212670,1,0,0:0:0:0:
235,190,212874,1,0,0:0:0:0:
255,321,213081,6,0,B|249:293|249:293|272:334,1,67.4999979400635,8|0,0:3|0:0,0:0:0:0:
293,347,213284,2,0,B|298:374|298:374|275:333,1,67.4999979400635,2|0,0:3|0:0,0:0:0:0:
333,279,213488,1,8,0:3:0:0:
346,285,213590,1,0,0:0:0:0:
360,291,213692,1,8,0:3:0:0:
374,297,213794,1,0,0:0:0:0:
425,354,213895,2,0,B|463:364|463:364|492:307,1,89.9999972534181,2|0,0:3|0:0,0:0:0:0:
443,252,214099,2,0,L|427:198,1,48.7499977684022,8|0,0:3|0:0,0:0:0:0:
366,159,214303,2,0,L|341:201,1,48.7499977684022,8|0,0:3|0:0,0:0:0:0:
342,202,214507,1,2,0:3:0:0:
256,375,214710,21,2,0:0:0:0:
142,43,215118,1,4,1:2:0:0:
338,98,217085,85,8,0:3:0:0:
353,88,217186,2,0,L|371:152,1,48.7499977684022,2|0,0:3|0:0,0:0:0:0:
474,58,217389,1,8,0:3:0:0:
450,39,217490,2,0,L|431:126,1,67.4999979400635,2|0,0:3|0:0,0:0:0:0:
380,17,217693,1,8,0:3:0:0:
380,17,217794,1,2,0:3:0:0:
235,135,217997,6,2,L|264:240,1,101.249996910095,0|0,0:0|0:0,0:1:0:0:
293,301,218399,1,2,0:3:0:0:
284,307,218500,1,2,0:3:0:0:
274,308,218601,1,2,0:3:0:0:
213,187,218802,2,0,L|241:118,1,56.2500021457673,2|0,0:1|0:0,0:0:0:0:
241,6,219003,101,2,0:0:0:0:
255,3,219103,1,2,0:0:0:0:
269,5,219204,1,2,0:0:0:0:
281,13,219305,1,2,0:0:0:0:
289,24,219405,1,2,0:0:0:0:
292,38,219506,1,2,0:0:0:0:
183,75,219813,1,2,0:0:0:0:
320,183,220019,6,0,L|371:160,2,44.999998626709,8|0|0,0:0|0:0|0:0,0:0:0:0:
268,263,220225,1,0,1:2:0:0:
204,223,220328,2,0,L|157:207,2,37.5,8|0|0,0:0|0:0|0:0,0:0:0:0:
280,275,220534,1,0,1:2:0:0:
263,348,220637,2,0,L|252:385,2,30,8|0|0,0:0|0:0|0:0,0:0:0:0:
246,140,220844,5,2,0:3:0:0:
252,123,220947,1,2,0:0:0:0:
260,105,221050,1,2,0:0:0:0:
233,70,221153,1,2,0:3:0:0:
260,0,221256,1,2,0:0:0:0:
334,38,221357,1,2,0:0:0:0:
334,38,221459,2,0,L|434:76,1,75,0|0,1:2|0:0,0:0:0:0:
163,124,221662,2,0,L|73:171,1,75,0|0,1:2|0:0,0:0:0:0:
259,232,221866,102,0,L|289:331,1,89.9999972534181,2|0,0:0|0:0,0:0:0:0:
213,363,222069,2,2,L|173:303,2,56.2500021457673,2|0|0,0:0|0:0|0:0,0:0:0:0:
400,225,222476,1,0,1:2:0:0:
366,296,222578,1,8,0:0:0:0:
366,296,222680,1,8,0:0:0:0:
38,169,222883,5,8,0:0:0:0:
91,185,222985,1,2,0:0:0:0:
145,202,223087,1,2,0:0:0:0:
199,219,223190,1,2,0:0:0:0:
252,235,223292,1,2,0:0:0:0:
511,89,223497,102,0,L|438:55,1,75,8|0,0:3|0:0,0:0:0:0:
379,118,223702,2,2,L|458:339,1,225,2|0,0:0|0:0,0:1:0:0:
481,158,224111,2,0,L|521:67,1,75,2|0,0:1|0:0,0:0:0:0:
259,0,224316,6,2,L|71:57,1,179.999994506836,2|0,0:3|0:0,0:0:0:0:
86,52,224725,2,0,L|176:78,1,75,8|0,0:3|0:0,0:0:0:0:
266,105,224929,1,8,0:0:0:0:
287,175,225031,1,8,0:0:0:0:
175,354,225235,1,8,0:0:0:0:
254,245,225439,101,2,0:3:0:0:
267,248,225541,1,2,0:3:0:0:
280,253,225643,2,0,L|304:338,1,75,0|0,1:2|1:2,0:0:0:0:
13,226,225847,1,8,0:0:0:0:
91,245,225949,2,0,L|202:273,1,89.9999972534181,8|2,0:0|0:1,0:0:0:0:
295,76,226153,37,2,0:3:0:0:
290,61,226255,1,2,0:3:0:0:
285,47,226357,1,2,0:3:0:0:
281,33,226459,1,2,0:3:0:0:
276,18,226561,2,0,B|238:8|238:8|209:65,1,89.9999972534181,2|0,0:1|0:0,0:0:0:0:
273,200,226765,2,0,B|299:239|299:239|270:153,1,89.9999972534181,8|0,0:3|0:3,0:0:0:0:
296,184,226969,2,0,B|270:145|270:145|299:231,1,89.9999972534181,2|0,0:0|0:0,0:0:0:0:
156,292,227174,2,0,B|183:264|183:264|237:299,1,89.9999972534181,2|0,0:1|0:0,0:0:0:0:
334,322,227378,2,0,B|308:361|308:361|337:275,1,89.9999972534181,8|0,0:3|0:0,0:0:0:0:
311,306,227582,2,0,B|337:267|337:267|308:353,1,89.9999972534181,2|0,0:0|0:0,0:0:0:0:
228,368,227786,101,6,1:1:0:0:
29,170,227988,1,8,0:3:0:0:
323,4,228190,2,0,L|276:206,1,179.999994506836,8|0,1:2|0:0,0:0:0:0:
208,218,228494,1,8,0:3:0:0:
208,218,228595,1,8,1:3:0:0:
16,26,228797,1,2,0:3:0:0:
153,365,229000,5,8,1:2:0:0:
204,341,229101,1,2,0:0:0:0:
257,322,229202,1,2,0:0:0:0:
311,306,229303,1,2,0:0:0:0:
366,294,229404,1,2,1:2:0:0:
71,349,229607,1,2,1:3:0:0:
401,203,229810,101,8,1:2:0:0:
410,199,229911,2,0,P|462:240|450:280,1,75
466,325,230114,2,0,P|452:252|441:223,1,75,2|0,0:0|1:2,0:0:0:0:
511,149,230317,1,2,0:0:0:0:
511,149,230419,1,0,0:0:0:0:
291,382,230622,2,2,P|313:280|342:191,1,150,10|0,1:2|0:0,0:0:0:0:
163,50,231028,6,0,B|169:4|112:-11|112:-11|138:15|144:62,1,150,2|0,1:2|0:0,0:0:0:0:
350,86,231433,2,2,L|146:137,1,179.999994506836,8|0,1:2|0:0,0:1:0:0:
127,187,231737,1,2,0:0:0:0:
127,187,231838,1,0,1:2:0:0:
70,114,232041,1,8,0:3:0:0:
352,365,232244,102,0,P|287:328|194:294,1,150,8|0,1:2|0:0,0:0:0:0:
353,242,232548,1,8,0:3:0:0:
353,242,232649,2,2,P|385:274|422:321,1,75,0|0,1:2|0:0,0:1:0:0:
483,304,232853,1,0,1:2:0:0:
41,362,233057,6,0,P|83:288|142:319,1,150,8|0,1:2|0:0,0:0:0:0:
195,361,233364,2,0,P|132:305|140:291,1,89.9999972534181,8|0,0:3|1:2,0:0:0:0:
172,230,233568,1,2,0:3:0:0:
172,230,233671,1,2,0:3:0:0:
0,0,233875,1,8,1:2:0:0:
38,21,233977,1,2,0:0:0:0:
67,69,234080,1,2,0:0:0:0:
63,149,234182,2,0,P|22:206|47:257,1,89.9999972534181,2|0,0:1|1:2,0:0:0:0:
243,277,234489,1,2,0:3:0:0:
484,333,234694,102,2,L|437:131,1,179.999994506836,8|0,1:2|0:0,0:1:0:0:
381,98,235003,1,2,0:0:0:0:
381,98,235105,1,0,1:2:0:0:
168,192,235311,1,8,0:3:0:0:
261,375,235516,6,0,P|283:273|312:184,1,150,8|0,1:2|0:0,0:0:0:0:
349,358,235825,2,2,P|392:297|414:276,1,75,0|0,0:0|1:2,0:1:0:0:
258,156,236030,1,2,0:3:0:0:
258,156,236133,1,2,0:3:0:0:
24,23,236340,102,0,P|66:97|125:66,1,150,8|0,1:2|0:0,0:0:0:0:
191,59,236651,1,8,0:3:0:0:
191,59,236754,1,0,1:2:0:0:
17,308,236961,6,0,P|86:334|115:353,1,89.9999972534181,2|0,0:0|0:0,0:0:0:0:
76,207,237168,1,8,1:2:0:0:
76,207,237271,2,0,P|132:255|152:282,1,89.9999972534181,2|0,0:0|0:0,0:0:0:0:
281,297,237478,2,2,B|340:274|403:317|403:317|258:303|182:429,1,314.999990386963,2|0,0:1|0:0,0:1:0:0:
447,10,237982,102,2,L|400:212,1,179.999994506836,8|0,1:2|0:0,0:1:0:0:
473,240,238283,1,2,0:0:0:0:
473,240,238383,1,0,1:2:0:0:
344,54,238583,1,8,0:3:0:0:
107,82,238784,1,8,1:2:0:0:
107,82,238884,2,0,B|106:17|164:6|164:6|122:41|123:124,1,209.999993591309,2|0,0:1|0:0,0:0:0:0:
90,201,239184,5,2,1:3:0:0:
90,201,239285,2,2,B|72:151|26:161|26:161|58:172|73:210,1,150,0|0,0:0|0:0,0:1:0:0:
185,217,239590,1,10,1:3:0:0:
185,217,239691,2,2,B|235:226|249:181|249:181|219:201|179:201,1,150,0|0,0:0|0:0,0:1:0:0:
121,290,239997,1,2,1:3:0:0:
121,290,240098,2,2,B|87:328|119:364|119:364|112:326|135:290,1,150,0|0,0:0|0:0,0:1:0:0:
170,84,240404,1,10,1:2:0:0:
192,111,240506,1,2,0:0:0:0:
159,117,240607,1,2,0:3:0:0:
418,205,240811,102,0,P|448:195|522:184,3,75,0|2|2|2,1:2|0:0|0:0|0:0,0:0:0:0:
378,292,241219,2,2,L|425:86,1,179.999994506836,8|0,1:2|0:0,0:1:0:0:
371,49,241525,1,8,0:0:0:0:
371,49,241627,1,8,1:3:0:0:
458,18,241831,1,8,0:3:0:0:
297,367,242035,2,0,P|275:265|246:176,1,150,8|0,1:2|0:0,0:0:0:0:
125,33,242443,5,2,1:2:0:0:
76,8,242545,1,8,0:3:0:0:
27,30,242647,1,2,0:0:0:0:
14,83,242750,1,8,0:3:0:0:
47,126,242852,2,0,P|110:58|218:50,1,179.999994506836,8|0,1:2|0:0,0:0:0:0:
260,4,243159,1,8,0:0:0:0:
260,4,243262,2,2,P|288:27|306:60,1,75,2|0,1:2|0:0,0:1:0:0:
239,121,243466,101,2,0:0:0:0:
14,307,243671,1,8,1:2:0:0:
14,307,243774,1,2,0:3:0:0:
14,307,243876,1,2,0:3:0:0:
306,205,244081,5,0,1:2:0:0:
47,126,244285,1,8,0:3:0:0:
212,367,244489,2,2,L|413:338,1,179.999994506836,8|0,1:2|0:0,0:1:0:0:
457,290,244795,1,2,0:0:0:0:
457,290,244897,1,8,1:3:0:0:
205,213,245101,1,8,0:3:0:0:
448,24,245305,102,0,P|456:87|479:184,1,150,8|0,1:2|0:0,0:0:0:0:
342,115,245611,2,2,P|363:52|384:16,1,75,0|0,0:0|1:2,0:1:0:0:
366,44,245916,1,8,0:3:0:0:
33,232,246119,6,0,P|24:268|10:303,1,75,8|0,1:2|0:0,0:0:0:0:
135,343,246323,1,2,0:3:0:0:
135,343,246424,2,0,P|119:241|90:152,1,150,8|0,0:0|0:0,0:0:0:0:
68,13,246729,101,8,0:3:0:0:
68,13,246831,1,8,0:3:0:0:
7,71,246933,1,8,1:2:0:0:
7,71,247035,1,8,0:0:0:0:
7,71,247136,2,0,P|18:106|38:189,1,89.9999972534181,2|0,0:3|0:0,0:0:0:0:
211,293,247340,5,2,1:2:0:0:
203,256,247442,1,2,0:3:0:0:
194,219,247545,1,2,0:3:0:0:
395,25,247750,2,2,L|348:240,1,179.999994506836,8|0,1:2|0:0,0:1:0:0:
297,260,248059,1,10,0:0:0:0:
297,260,248161,1,0,1:2:0:0:
270,152,248367,1,8,0:3:0:0:
495,55,248572,1,8,1:2:0:0:
471,383,248778,102,0,P|457:347|424:302,1,89.9999972534181,8|0,0:3|0:0,0:0:0:0:
508,274,248983,1,0,0:0:0:0:
508,274,249083,2,0,P|419:284|308:334,1,150,2|2,0:0|1:3,0:0:0:0:
289,339,249383,2,0,P|202:312|236:267,1,150,8|0,1:2|0:0,0:0:0:0:
288,260,249683,2,2,B|296:227|331:229|331:229|303:242|288:275,1,104.999996795654,0|0,0:0|1:2,0:1:0:0:
0,0,249983,5,2,0:0:0:0:
20,53,250083,1,2,0:0:0:0:
39,105,250183,1,10,1:2:0:0:
55,159,250283,1,2,0:0:0:0:
71,213,250383,1,2,0:0:0:0:
461,4,250604,101,2,1:2:0:0:
461,4,250705,2,0,P|426:59|415:91,1,75,2|0,0:0|0:0,0:0:0:0:
224,104,250908,1,2,0:0:0:0:
224,104,251010,2,2,L|428:152,1,179.999994506836,8|0,1:2|0:0,0:1:0:0:
427,72,251314,1,2,0:0:0:0:
427,72,251416,2,0,P|468:84|479:125,1,89.9999972534181,4|0,1:3|0:0,0:0:0:0:
512,196,251619,2,0,P|504:245|456:261,1,104.999996795654,4|0,0:3|0:0,0:0:0:0:
146,126,251822,1,8,1:2:0:0:
161,55,251923,1,8,0:0:0:0:
224,23,252025,1,8,0:0:0:0:
290,54,252126,1,12,1:2:0:0:
283,269,252330,53,2,0:0:0:0:
283,269,252433,2,2,B|263:226|263:226|278:315,1,89.9999972534181,8|0,0:3|0:0,0:0:0:0:
237,340,252638,2,2,B|211:379|211:379|240:293,1,89.9999972534181,2|0,0:0|0:0,0:1:0:0:
439,233,252843,2,2,B|412:205|412:205|358:240,1,89.9999972534181,2|0,0:0|0:0,0:0:0:0:
176,264,253048,2,2,B|129:258|129:258|213:291,1,89.9999972534181,2|0,0:0|0:0,0:1:0:0:
405,309,253253,5,2,0:3:0:0:
393,313,253355,1,2,0:3:0:0:
382,317,253458,1,2,0:3:0:0:
370,321,253560,1,2,0:3:0:0:
359,324,253663,1,2,0:3:0:0:
347,328,253765,1,2,0:3:0:0:
212,380,253869,54,2,P|182:194|145:41,1,314.999990386963,4|0,1:2|0:0,0:1:0:0:
114,2,254280,2,0,P|19:21|20:118,1,209.999993591309,10|0,1:2|0:0,0:0:0:0:
195,144,254589,1,8,0:3:0:0:
195,144,254692,2,0,P|191:97|152:70,1,97.4999955368044,2|0,1:2|0:0,0:0:0:0:
24,123,254898,1,0,0:0:0:0:
24,123,255001,2,0,P|106:145|145:161,1,89.9999972534181,2|8,0:0|1:2,0:0:0:0:
274,105,255206,2,0,P|292:36|308:-7,1,89.9999972534181,8|0,0:3|0:0,0:0:0:0:
380,0,255412,1,8,0:3:0:0:
380,0,255515,101,2,1:1:0:0:
506,245,255718,1,2,0:3:0:0:
394,279,255921,2,0,L|377:218,1,56.2500021457673,10|0,1:3|0:0,0:0:0:0:
493,260,256124,2,0,L|478:315,1,56.2500021457673,2|0,0:3|0:0,0:0:0:0:
381,294,256327,2,0,L|365:239,1,56.2500021457673,2|0,1:3|0:0,0:0:0:0:
480,275,256530,2,0,L|465:330,1,56.2500021457673,2|0,0:3|0:0,0:0:0:0:
368,309,256733,2,0,L|352:254,1,56.2500021457673,10|0,1:3|0:0,0:0:0:0:
467,290,256936,2,0,L|452:345,1,56.2500021457673,2|0,0:3|0:0,0:0:0:0:
261,202,257139,5,2,1:1:0:0:
301,131,257240,1,2,0:3:0:0:
307,127,257342,1,2,0:3:0:0:
307,134,257443,1,2,0:3:0:0:
166,86,257545,2,0,P|261:105|260:202,1,209.999993591309,10|0,1:2|0:0,0:0:0:0:
81,230,257849,1,8,0:3:0:0:
81,230,257951,2,0,P|85:183|124:156,1,97.4999955368044,2|0,1:2|0:0,0:0:0:0:
181,225,258154,1,8,0:3:0:0:
181,225,258255,2,0,P|159:307|153:349,2,89.9999972534181,2|8|0,0:0|1:2|0:0,0:0:0:0:
5,20,258560,101,8,0:3:0:0:
14,21,258661,1,8,0:3:0:0:
21,28,258765,2,0,L|38:99,1,75,4|2,1:3|0:0,0:0:0:0:
0,168,258968,1,8,0:3:0:0:
262,268,259170,6,2,P|283:181|318:98,1,179.999994506836,10|0,1:2|0:0,0:1:0:0:
397,72,259474,1,2,0:0:0:0:
397,72,259575,2,2,P|371:19|332:20,3,89.9999972534181,2|0|0|0,1:2|0:0|0:0|0:0,0:1:0:0:
432,142,259980,1,8,1:2:0:0:
447,140,260081,1,8,0:3:0:0:
453,127,260182,2,0,P|492:115|520:109,1,56.2500021457673,8|0,0:3|0:0,0:0:0:0:
408,384,260384,102,2,P|376:282|326:175,1,209.999993591309,4|0,1:2|0:0,0:1:0:0:
333,188,260790,2,0,P|238:207|230:308,1,209.999993591309,10|0,1:2|0:0,0:0:0:0:
341,340,261095,1,8,0:3:0:0:
341,340,261197,2,0,P|337:293|295:261,1,97.4999955368044,2|0,1:2|0:0,0:0:0:0:
141,283,261400,1,8,0:3:0:0:
141,283,261502,2,0,P|184:292|227:305,1,89.9999972534181,2|8,0:0|1:2,0:0:0:0:
11,384,261706,2,0,P|73:361|142:347,1,89.9999972534181,0|0,1:2|0:0,0:0:0:0:
287,115,261909,6,2,B|346:92|409:135|409:135|264:120|188:247,1,314.999990386963,0|0,0:0|0:0,0:1:0:0:
237,188,262419,2,0,P|233:104|160:33,1,168.750006437302,10|0,1:2|0:0,0:0:0:0:
79,85,262828,2,0,P|124:103|159:123,1,56.2500021457673,8|0,1:3|0:0,0:0:0:0:
353,0,263033,2,0,P|279:41|257:64,1,75,8|0,0:3|0:0,0:0:0:0:
182,249,263237,1,8,1:2:0:0:
148,222,263339,1,2,0:0:0:0:
152,182,263442,1,2,0:3:0:0:
324,180,263544,102,2,B|379:210|387:286|387:286|304:166|159:189,1,314.999990386963,2|0,0:0|0:0,0:1:0:0:
236,187,263956,1,0,1:2:0:0:
437,145,264060,2,0,P|401:230|400:266,1,75,8|0,1:2|0:0,0:0:0:0:
262,273,264267,2,0,P|311:315|332:351,1,89.9999972534181,8|0,0:0|0:0,0:0:0:0:
503,277,264475,5,8,1:3:0:0:
444,280,264578,1,8,0:3:0:0:
404,323,264682,1,4,0:3:0:0:
402,381,264785,1,4,0:3:0:0:
504,371,264889,1,6,1:3:0:0:
497,360,264992,1,6,0:3:0:0:
484,358,265096,1,6,0:3:0:0:
346,242,265200,2,2,L|260:273,1,89.9999972534181,8|0,0:0|1:2,0:0:0:0:
53,367,265406,53,0,0:0:0:0:
53,367,265509,2,2,B|14:341|14:341|100:370,1,89.9999972534181,0|0,0:0|0:0,0:0:0:0:
130,337,265714,2,2,B|169:311|169:311|83:340,1,89.9999972534181,2|0,0:0|0:0,0:1:0:0:
53,367,265919,2,2,B|14:341|14:341|100:370,1,89.9999972534181,2|0,0:0|0:0,0:0:0:0:
130,337,266124,2,2,B|169:311|169:311|83:340,1,89.9999972534181,2|0,0:0|0:0,0:1:0:0:
53,367,266329,2,2,B|14:341|14:341|100:370,1,89.9999972534181,2|0,0:0|0:0,0:0:0:0:
197,124,266534,2,2,P|74:137|87:296,1,269.999991760254,10|0,0:0|0:0,0:1:0:0:
188,200,266945,54,2,P|161:99|122:2,1,209.999993591309,4|0,1:2|1:2,0:1:0:0:
122,2,267352,2,0,P|217:21|216:118,1,209.999993591309,10|0,1:2|0:0,0:0:0:0:
98,157,267658,1,8,0:3:0:0:
98,157,267759,2,0,P|102:110|141:83,1,97.4999955368044,2|0,1:2|0:0,0:0:0:0:
293,171,267963,1,8,0:3:0:0:
293,171,268065,2,0,P|375:200|410:220,1,89.9999972534181,2|8,0:0|1:2,0:0:0:0:
435,85,268269,2,0,B|457:54|500:67|500:67|426:92|396:156,1,179.999994506836,2|0,0:3|0:0,0:0:0:0:
250,362,268574,102,2,B|195:363|178:321|178:321|198:291|203:251,1,157.499995193482,0|0,1:0|0:0,0:1:0:0:
204,246,268778,2,2,P|227:291|222:346,1,89.9999972534181,0|0,0:0|0:0,0:1:0:0:
447,255,268982,1,10,1:1:0:0:
447,255,269085,2,2,P|399:244|342:195,1,104.999996795654,0|0,0:0|0:0,0:1:0:0:
354,211,269289,2,2,P|321:266|319:328,1,104.999996795654,0|0,0:0|1:2,0:1:0:0:
398,328,269493,1,8,0:3:0:0:
398,328,269596,1,4,0:3:0:0:
90,113,269800,2,2,B|37:117|28:183|28:183|125:93|268:76,1,314.999990386963,8|0,1:2|0:0,0:0:0:0:
355,51,270209,6,2,P|328:149|320:209,2,104.999996795654,2|8|4,1:2|0:3|0:3,0:1:0:0:
355,51,270615,2,0,P|258:53|242:148,1,209.999993591309,10|0,1:2|0:0,0:0:0:0:
370,226,270919,1,0,0:0:0:0:
370,226,271021,2,0,P|366:179|327:152,1,97.4999955368044,2|0,1:2|0:0,0:0:0:0:
177,261,271224,1,0,0:0:0:0:
177,261,271325,2,0,P|221:241|268:227,1,97.4999955368044,2|8,0:0|1:2,0:0:0:0:
268,227,271630,2,0,P|246:274|234:318,1,97.4999955368044,8|0,0:3|0:0,0:0:0:0:
91,38,271833,102,2,B|36:37|19:79|19:79|39:109|44:149,1,157.499995193482,0|0,1:2|0:0,0:1:0:0:
45,154,272037,2,2,P|51:104|90:57,1,89.9999972534181,0|0,0:0|0:0,0:1:0:0:
290,44,272241,1,10,1:1:0:0:
170,14,272344,2,0,P|184:62|231:101,1,104.999996795654,0|0,0:0|0:0,0:1:0:0:
470,86,272548,1,2,0:1:0:0:
470,86,272650,2,0,P|383:124|337:154,1,104.999996795654,8|0,1:3|0:0,0:0:0:0:
89,245,272855,2,2,B|38:266|41:319|41:319|78:260|132:257,1,209.999993591309,2|8,0:0|1:2,0:0:0:0:
279,219,273161,2,2,B|241:178|193:199|193:199|261:213|282:263,1,209.999993591309,2|0,0:0|0:0,0:0:0:0:
463,259,273468,6,0,P|296:299|116:370,1,314.999990386963,4|0,1:2|0:0,0:0:0:0:
363,244,273878,2,0,P|347:339|250:341,1,209.999993591309,10|0,1:2|0:0,0:0:0:0:
349,157,274185,1,8,0:3:0:0:
349,157,274288,2,0,P|395:152|429:186,1,97.4999955368044,2|0,1:2|0:0,0:0:0:0:
286,267,274493,1,8,0:3:0:0:
286,267,274596,2,0,P|257:185|237:150,1,89.9999972534181,2|8,0:0|1:2,0:0:0:0:
255,182,274903,2,0,P|185:235|148:250,1,89.9999972534181,8|0,0:3|0:0,0:0:0:0:
0,8,275109,102,2,B|-1:63|41:80|41:80|71:60|111:55,1,157.499995193482,0|0,1:2|0:0,0:1:0:0:
111,46,275313,2,2,P|66:22|11:27,1,89.9999972534181,0|0,0:0|0:0,0:1:0:0:
49,228,275517,1,10,1:1:0:0:
49,228,275619,2,2,P|68:182|126:135,1,104.999996795654,0|0,0:0|0:0,0:1:0:0:
320,35,275823,2,2,P|270:39|248:99,1,89.9999972534181,0|0,0:0|1:2,0:1:0:0:
312,111,276027,1,8,0:3:0:0:
385,84,276129,2,0,P|397:40|415:0,1,89.9999972534181,8|0,0:3|0:0,0:0:0:0:
512,184,276333,1,8,1:2:0:0:
512,184,276435,2,0,P|488:106|480:70,1,104.999996795654,8|0,0:3|0:0,0:0:0:0:
205,256,276639,6,2,B|161:273|164:321|164:321|217:264|287:254,1,209.999993591309,0|0,0:0|0:0,0:1:0:0:
301,331,276943,2,0,P|243:361|212:394,1,89.9999972534181,0|4,1:3|0:3,0:0:0:0:
381,183,277146,1,0,1:2:0:0:
381,183,277247,2,0,P|361:265|301:265,1,104.999996795654,8|0,0:0|0:0,0:0:0:0:
225,377,277450,102,0,P|206:291|160:166,1,209.999993591309,8|2,0:0|0:3,0:0:0:0:
114,114,277754,2,0,P|76:164|102:200,1,89.9999972534181,8|8,0:3|0:3,0:0:0:0:
258,180,277957,1,8,1:2:0:0:
258,180,278058,2,0,P|267:128|283:78,1,104.999996795654,8|0,0:3|0:0,0:0:0:0:
197,74,278261,2,0,P|190:48|181:23,1,52.4999983978272,2|0,0:3|0:0,0:0:0:0:
190,32,278465,53,2,0:0:0:0:
190,32,278568,2,2,B|151:6|151:6|237:35,1,89.9999972534181,2|0,0:0|0:0,0:0:0:0:
282,78,278775,2,2,B|321:52|321:52|235:81,1,89.9999972534181,2|0,0:0|0:0,0:1:0:0:
190,32,278982,2,2,B|151:6|151:6|237:35,1,89.9999972534181,2|0,0:0|0:0,0:0:0:0:
328,68,279189,2,2,B|367:94|367:94|281:65,1,89.9999972534181,2|0,0:0|0:0,0:1:0:0:
190,32,279396,2,2,B|151:6|151:6|237:35,1,89.9999972534181,2|0,0:0|0:0,0:0:0:0:
379,114,279603,2,2,P|417:91|458:72,1,89.9999972534181,8|0,0:0|0:0,0:1:0:0:
420,0,279810,2,2,P|379:18|340:42,1,89.9999972534181,8|0,0:3|0:0,0:0:0:0:
255,357,280017,53,4,1:2:0:0:
279,314,280118,1,2,0:3:0:0:
251,290,280220,1,2,0:3:0:0:
261,269,280322,2,0,P|254:246|247:192,1,75,2|8,0:0|1:2,0:0:0:0:
307,137,280527,2,0,P|281:253|281:349,1,179.999994506836,2|0,0:0|0:0,0:0:0:0:
97,188,280833,2,0,P|124:178|162:167,5,59.9999981689454,8|4|8|4|8|4,1:3|0:3|0:3|0:3|0:3|0:3,0:0:0:0:
31,229,281241,2,0,P|69:269|123:253,1,89.9999972534181,8|0,1:2|0:0,0:0:0:0:
224,124,281445,2,0,P|235:80|251:38,1,89.9999972534181,8|0,0:3|0:0,0:0:0:0:
507,105,281649,5,2,1:1:0:0:
469,27,281751,2,2,P|492:85|499:119,1,75,0|0,0:0|0:0,0:1:0:0:
507,105,282058,2,0,P|406:115|399:271,1,262.499991989136,10|0,1:2|0:0,0:0:0:0:
391,256,282365,1,2,0:0:0:0:
482,191,282468,2,0,P|413:174|356:170,1,89.9999972534181,8|8,1:3|0:0,0:0:0:0:
432,337,282672,2,0,P|480:294|464:248,1,89.9999972534181,8|0,0:3|0:0,0:0:0:0:
328,132,282877,1,8,1:2:0:0:
328,132,282980,1,8,0:3:0:0:
320,209,283082,2,0,P|276:203|258:168,1,75,8|0,0:3|0:0,0:0:0:0:
262,7,283287,102,2,P|297:122|329:249,1,209.999993591309,0|0,1:2|0:0,0:1:0:0:
319,208,283692,2,0,P|316:111|146:153,1,314.999990386963,10|0,1:2|0:0,0:0:0:0:
148,221,284097,2,0,P|194:216|222:178,1,97.4999955368044,2|0,1:2|0:0,0:0:0:0:
93,6,284300,1,8,0:3:0:0:
93,6,284401,2,0,P|11:28|-28:44,1,89.9999972534181,2|8,0:0|1:2,0:0:0:0:
7,29,284705,2,0,P|67:88|92:121,1,89.9999972534181,8|0,0:3|0:0,0:0:0:0:
104,364,284908,6,2,P|78:270|24:152,1,209.999993591309,0|0,1:2|0:0,0:1:0:0:
20,337,285211,2,2,P|69:327|104:364,1,104.999996795654,0|8,0:0|1:2,0:1:0:0:
451,162,285515,2,2,P|364:166|320:286,2,209.999993591309,0|2|0,0:0|1:2|0:0,0:1:0:0:
450,313,286020,1,2,0:0:0:0:
450,313,286122,2,0,P|398:253|416:224,1,104.999996795654,8|0,1:2|0:0,0:0:0:0:
473,34,286324,1,8,0:3:0:0:
512,110,286425,2,0,P|497:67|484:24,2,75,2|2|2,0:0|1:3|0:3,0:0:0:0:
59,350,286833,101,2,0:3:0:0:
101,279,286936,2,0,P|108:149|298:188,1,367.49998878479,10|0,1:2|0:0,0:1:0:0:
296,186,287346,2,0,P|249:182|222:143,1,97.4999955368044,2|0,1:2|0:0,0:0:0:0:
383,80,287551,1,8,0:3:0:0:
383,80,287654,2,0,P|301:102|262:118,1,89.9999972534181,2|8,0:0|1:2,0:0:0:0:
296,103,287961,6,0,P|317:20|323:-20,1,89.9999972534181,8|0,0:3|0:0,0:0:0:0:
442,167,288167,2,0,P|452:123|466:81,1,89.9999972534181,8|0,1:3|0:0,0:0:0:0:
228,33,288371,1,2,0:0:0:0:
228,33,288473,1,2,0:0:0:0:
21,214,288677,1,2,0:0:0:0:
21,214,288779,2,0,P|42:155|57:98,1,89.9999972534181,2|0,0:0|0:0,0:0:0:0:
71,368,288983,2,0,P|89:274|125:169,1,179.999994506836,2|0,1:2|0:0,0:0:0:0:
115,193,289391,102,2,P|237:209|385:277,1,262.499991989136,8|0,1:2|0:0,0:1:0:0:
367,272,289697,1,2,0:0:0:0:
307,327,289799,2,2,P|277:282|307:228,1,89.9999972534181,0|0,1:2|0:0,0:1:0:0:
284,249,290205,2,0,P|359:309|437:151,1,314.999990386963,8|0,1:2|0:0,0:0:0:0:
196,18,290612,5,2,1:2:0:0:
185,42,290713,1,2,0:0:0:0:
190,68,290815,1,10,0:0:0:0:
208,86,290917,1,10,0:0:0:0:
274,34,291019,101,8,1:2:0:0:
300,110,291120,1,8,0:0:0:0:
222,165,291222,1,8,0:0:0:0:
111,97,291324,2,0,P|88:109|68:126,1,52.4999983978272,4|0,0:0|0:0,0:0:0:0:
285,296,292653,69,4,0:3:0:0:
213,335,292756,2,2,B|195:337|181:355|181:355|200:340|259:330,1,75,2|0,0:0|0:0,0:0:0:0:
338,230,292960,1,2,0:0:0:0:
348,349,293063,38,2,P|303:181|263:78,1,262.499991989136,4|0,1:2|0:0,0:1:0:0:
262,91,293368,1,2,0:0:0:0:
359,20,293469,2,2,B|420:29|439:103|439:103|378:27|271:2,1,314.999990386963,8|0,1:2|0:0,0:0:0:0:
30,190,293876,5,2,1:2:0:0:
99,231,293978,2,0,P|170:201|301:170,1,179.999994506836,2|0,0:0|0:0,0:0:0:0:
153,79,294283,1,10,1:2:0:0:
153,79,294385,2,0,P|104:115|118:164,1,89.9999972534181,8|0,0:3|0:0,0:0:0:0:
260,315,294588,2,0,P|236:229|182:145,1,179.999994506836,2|0,0:0|0:0,0:0:0:0:
93,327,294894,2,0,P|153:293|187:283,1,89.9999972534181,8|0,0:3|0:0,0:0:0:0:
375,90,295098,102,0,P|499:155|480:234,1,225,10|0,1:2|0:0,0:0:0:0:
414,252,295506,2,0,P|398:205|376:159,1,89.9999972534181,2|2,1:3|0:3,0:0:0:0:
505,4,295710,2,0,P|472:41|448:76,1,82.5000025177003,2|2,0:3|0:3,0:0:0:0:
316,228,295914,1,10,1:3:0:0:
300,227,296016,1,8,0:3:0:0:
290,240,296118,2,0,P|250:261|219:286,1,67.4999979400635,4|0,0:3|0:0,0:0:0:0:
0,339,296322,5,2,1:2:0:0:
43,315,296424,1,2,0:3:0:0:
67,343,296526,1,2,0:3:0:0:
88,333,296629,2,0,P|116:334|173:349,1,75,2|8,0:0|1:2,0:0:0:0:
16,166,296833,1,2,0:0:0:0:
16,166,296936,2,0,P|44:228|56:274,1,75,2|0,0:0|0:0,0:0:0:0:
256,102,297141,102,0,L|283:1,1,89.9999972534181,2|0,1:1|0:0,0:0:0:0:
244,266,297550,2,0,L|220:154,1,89.9999972534181,10|0,1:1|0:0,0:0:0:0:
286,369,297857,2,0,L|304:302,1,44.999998626709,2|0,0:1|1:2,0:0:0:0:
382,121,298062,5,2,0:0:0:0:
382,121,298165,2,0,P|443:159|445:200,1,89.9999972534181,2|0,0:0|0:0,0:0:0:0:
384,291,298370,2,0,P|370:226|357:184,1,89.9999972534181,10|0,1:2|0:0,0:0:0:0:
473,85,298576,2,0,P|452:148|442:191,1,89.9999972534181,2|0,0:0|0:0,0:0:0:0:
213,215,298781,102,2,P|112:235|39:266,1,168.750006437302,2|0,1:3|0:0,0:0:0:0:
96,320,298987,2,0,P|150:299|209:289,1,112.500004291535,2|0,1:2|0:0,0:0:0:0:
150,102,299192,2,0,P|122:195|90:353,1,225.000008583069,10|0,1:3|0:0,0:0:0:0:
296,3,299603,5,6,1:2:0:0:
272,46,299705,1,2,0:3:0:0:
300,70,299808,1,2,0:3:0:0:
289,91,299910,2,0,P|292:120|305:176,1,75,2|8,0:0|1:2,0:0:0:0:
117,2,300115,1,2,0:0:0:0:
117,2,300218,2,0,P|145:9|197:32,1,75,2|0,0:0|0:0,0:0:0:0:
399,245,300423,102,0,L|516:222,1,89.9999972534181,2|0,1:1|0:0,0:0:0:0:
222,175,300833,2,0,L|341:205,1,89.9999972534181,10|0,1:1|0:0,0:0:0:0:
76,225,301141,2,0,L|145:207,1,44.999998626709,2|0,0:1|1:2,0:0:0:0:
297,380,301346,5,2,0:0:0:0:
353,325,301449,2,0,P|330:294|272:294,1,89.9999972534181,2|0,0:0|0:0,0:0:0:0:
193,272,301654,1,10,1:2:0:0:
193,272,301756,2,0,P|213:335|223:378,2,89.9999972534181,2|0|0,0:0|0:0|0:0,0:0:0:0:
273,113,302064,102,2,P|374:133|447:164,1,168.750006437302,2|0,1:3|0:0,0:0:0:0:
390,218,302269,2,0,P|336:197|277:187,1,112.500004291535,2|0,1:3|0:0,0:0:0:0:
336,0,302474,2,0,P|364:93|396:251,1,225.000008583069,2|0,1:3|0:0,0:0:0:0:
0,68,302885,5,2,1:2:0:0:
43,44,302986,1,2,0:3:0:0:
67,72,303088,1,2,0:3:0:0:
88,61,303190,2,0,P|117:64|173:77,1,75,2|8,0:0|1:2,0:0:0:0:
42,214,303394,1,2,0:0:0:0:
42,214,303496,2,0,P|39:185|26:129,1,75,2|0,0:0|0:0,0:0:0:0:
287,21,303699,102,0,L|392:43,1,89.9999972534181,2|0,1:1|0:0,0:0:0:0:
216,271,304107,2,0,L|111:293,1,89.9999972534181,10|0,1:1|0:0,0:0:0:0:
294,346,304413,2,0,L|338:355,1,44.999998626709,6|0,0:0|0:0,0:0:0:0:
338,355,304718,70,2,B|364:316|364:316|335:402,1,89.9999972534181,2|0,0:0|0:0,0:0:0:0:
430,263,304922,2,2,B|456:302|456:302|427:216,1,89.9999972534181,2|0,0:0|0:0,0:1:0:0:
338,355,305127,2,2,B|364:316|364:316|335:402,1,89.9999972534181,2|0,0:0|0:0,0:0:0:0:
431,246,305331,2,0,P|414:202|377:113,1,89.9999972534181,2|0,0:1|0:1,0:1:0:0:
352,35,305536,1,2,0:0:0:0:
357,49,305638,1,2,0:0:0:0:
361,64,305740,1,6,0:0:0:0:
364,77,305842,2,2,P|300:41|233:15,1,112.500004291535,2|0,0:0|0:0,0:0:0:0:
185,75,306149,69,2,1:1:0:0:
120,43,306250,1,2,0:0:0:0:
51,58,306351,1,2,0:3:0:0:
16,118,306452,1,2,0:0:0:0:
34,186,306553,1,10,0:1:0:0:
94,219,306654,1,2,0:0:0:0:
161,198,306756,1,2,0:3:0:0:
223,230,306857,1,2,0:3:0:0:
239,297,306958,1,2,1:1:0:0:
198,354,307059,1,2,0:0:0:0:
129,357,307160,1,2,0:3:0:0:
81,307,307261,1,2,0:0:0:0:
80,237,307363,1,10,0:1:0:0:
131,188,307464,1,2,0:0:0:0:
201,192,307565,1,2,0:3:0:0:
247,246,307666,1,2,0:3:0:0:
278,308,307767,1,2,1:1:0:0:
342,339,307869,1,2,0:0:0:0:
411,325,307970,1,2,0:3:0:0:
457,271,308071,1,2,0:0:0:0:
461,200,308172,1,10,0:1:0:0:
420,142,308273,1,2,0:0:0:0:
353,120,308375,1,2,0:3:0:0:
287,144,308476,1,2,0:3:0:0:
246,200,308577,1,2,1:1:0:0:
247,270,308678,1,2,0:0:0:0:
294,322,308779,1,2,0:3:0:0:
364,328,308880,1,2,0:0:0:0:
420,284,308982,1,10,0:1:0:0:
429,214,309083,1,2,0:3:0:0:
402,148,309184,1,2,0:3:0:0:
345,105,309285,1,2,0:3:0:0:
275,95,309389,1,2,1:1:0:0:
209,121,309490,1,2,0:0:0:0:
159,170,309591,1,2,0:3:0:0:
89,166,309692,1,2,0:0:0:0:
44,113,309793,1,10,0:1:0:0:
54,44,309894,1,2,0:0:0:0:
111,4,309995,1,2,0:3:0:0:
181,21,310096,1,2,0:3:0:0:
214,82,310197,1,2,1:1:0:0:
204,151,310298,1,2,0:0:0:0:
152,199,310399,1,2,0:3:0:0:
94,239,310500,1,2,0:0:0:0:
87,308,310601,1,10,0:1:0:0:
135,359,310702,1,2,0:0:0:0:
205,355,310803,1,2,0:3:0:0:
247,300,310904,1,10,0:0:0:0:
270,234,311004,1,2,1:1:0:0:
328,193,311105,1,10,0:0:0:0:
399,196,311207,1,2,0:3:0:0:
454,240,311308,1,2,0:0:0:0:
465,309,311410,1,10,0:1:0:0:
423,365,311511,1,2,0:0:0:0:
353,373,311613,1,2,0:3:0:0:
299,327,311714,1,2,0:0:0:0:
297,258,311816,1,2,1:1:0:0:
345,207,311917,1,2,0:0:0:0:
396,159,312019,1,2,0:3:0:0:
406,89,312120,1,2,0:3:0:0:
370,28,312222,1,10,0:1:0:0:
305,4,312323,1,2,0:3:0:0:
237,26,312425,1,10,0:3:0:0:
200,86,312526,1,6,0:0:0:0:
208,156,312630,1,2,1:1:0:0:
260,202,312731,1,2,0:0:0:0:
330,197,312832,1,2,0:3:0:0:
376,144,312933,1,10,0:3:0:0:
369,74,313034,1,10,0:1:0:0:
316,30,313135,1,2,0:0:0:0:
246,37,313236,1,2,0:3:0:0:
191,83,313337,1,2,0:3:0:0:
183,154,313438,1,2,1:1:0:0:
213,218,313539,1,2,0:0:0:0:
205,288,313640,1,2,0:3:0:0:
152,333,313741,1,2,0:0:0:0:
82,329,313842,1,10,0:1:0:0:
34,278,313943,1,2,0:0:0:0:
35,208,314044,1,2,0:3:0:0:
84,158,314145,1,10,0:0:0:0:
152,158,314246,1,2,1:1:0:0:
201,210,314348,1,10,0:0:0:0:
222,278,314450,1,2,0:3:0:0:
277,321,314552,1,2,0:0:0:0:
347,326,314654,1,10,0:1:0:0:
410,292,314756,1,2,0:0:0:0:
444,229,314858,1,2,0:3:0:0:
440,159,314960,1,2,0:3:0:0:
399,101,315062,1,2,1:1:0:0:
333,75,315164,1,2,0:0:0:0:
263,88,315266,1,2,0:3:0:0:
212,137,315368,1,2,0:0:0:0:
199,207,315470,1,10,0:1:0:0:
229,270,315572,1,10,0:3:0:0:
291,305,315674,1,2,0:3:0:0:
362,298,315776,1,6,0:3:0:0:
415,251,315881,1,2,1:1:0:0:
430,182,315983,1,2,0:0:0:0:
408,115,316086,1,2,0:3:0:0:
353,70,316188,1,2,0:0:0:0:
282,60,316291,1,10,0:1:0:0:
218,90,316393,1,2,0:0:0:0:
179,149,316496,1,2,0:3:0:0:
123,192,316598,1,2,0:3:0:0:
53,184,316701,1,10,0:1:0:0:
9,130,316804,1,2,0:0:0:0:
15,60,316906,1,10,0:0:0:0:
66,13,317009,1,10,0:0:0:0:
141,19,317111,1,10,0:1:0:0:
198,72,317214,1,10,0:0:0:0:
205,157,317316,1,10,0:0:0:0:
142,232,317419,2,2,P|110:306|89:377,1,155.999999047852,12|0,0:0|0:0,0:0:0:0:
88,378,319190,37,2,1:2:0:0:
28,327,319608,101,10,0:0:0:0:
90,135,320026,5,2,1:2:0:0:
387,44,320444,101,10,0:0:0:0:
459,100,320757,5,2,0:0:0:0:
464,107,320862,2,0,P|442:172|436:200,1,75.000002861023,0|8,1:2|0:0,0:0:0:0:
377,212,321066,1,2,1:3:0:0:
61,0,321270,2,0,P|100:138|107:187,1,150,8|8,0:0|0:0,0:0:0:0:
296,368,321678,102,0,P|306:325|313:305,1,56.2500021457673,0|8,1:2|0:3,0:0:0:0:
222,341,321882,2,0,P|212:298|205:278,1,56.2500021457673,0|8,0:0|0:3,0:0:0:0:
247,38,322086,2,0,P|299:67|301:108,1,75,8|8,0:0|0:3,0:0:0:0:
259,141,322286,2,0,P|207:175|180:204,1,75,0|8,1:2|0:3,0:0:0:0:
122,370,322487,38,0,P|31:316|74:263,1,150,6|0,1:2|0:0,0:0:0:0:
115,272,322797,1,2,0:0:0:0:
124,294,322901,1,8,1:2:0:0:
433,187,323108,2,0,P|408:252|404:277,1,75,8|0,0:3|0:0,0:0:0:0:
367,348,323316,101,2,1:2:0:0:
293,300,323416,1,2,0:0:0:0:
324,217,323517,1,2,0:0:0:0:
480,75,323719,5,10,1:2:0:0:
501,149,323820,1,2,0:0:0:0:
433,187,323921,1,2,0:0:0:0:
209,26,324122,101,2,1:2:0:0:
262,12,324223,1,2,0:0:0:0:
314,32,324324,1,2,0:0:0:0:
345,78,324426,1,2,0:0:0:0:
344,133,324527,2,0,P|263:103|238:103,1,75,10|0,1:2|0:0,0:0:0:0:
132,5,324730,1,2,0:0:0:0:
95,283,324932,5,0,1:2:0:0:
48,226,325034,2,0,P|63:184|76:144,1,56.2500021457673,8|0,0:0|0:0,0:0:0:0:
275,104,325236,1,0,1:2:0:0:
205,148,325338,2,0,P|233:224|244:263,1,89.9999972534181,8|0,1:2|0:0,0:0:0:0:
499,371,325540,1,0,1:2:0:0:
499,371,325642,102,0,B|452:380|419:328|426:307|442:298|413:235|352:246,1,209.999993591309,6|0,0:1|0:0,0:0:0:0:
290,294,325946,2,0,P|353:242|335:223,1,89.9999972534181,2|0,0:0|0:0,0:0:0:0:
473,119,326149,1,10,1:2:0:0:
473,119,326250,2,0,P|437:142|440:185,1,89.9999972534181,2|0,0:3|0:0,0:0:0:0:
505,254,326453,6,0,B|458:245|425:297|432:318|448:327|419:390|358:379,1,209.999993591309,6|0,0:1|0:0,0:0:0:0:
317,309,326758,2,0,P|257:261|232:271,1,104.999996795654,2|0,0:0|0:0,0:0:0:0:
53,208,326961,1,10,1:2:0:0:
80,222,327062,2,0,P|100:298|106:335,1,104.999996795654,2|0,0:3|0:0,0:0:0:0:
25,378,327265,102,0,P|51:280|105:146,1,240,6|0,0:1|0:0,0:0:0:0:
214,132,327568,2,0,P|212:183|171:212,1,104.999996795654,2|0,0:0|0:0,0:0:0:0:
25,117,327769,1,10,1:2:0:0:
4,39,327870,2,0,P|54:32|90:67,1,104.999996795654,8|0,0:3|0:0,0:0:0:0:
364,296,328071,6,0,P|338:198|284:64,1,240,6|0,0:1|0:0,0:0:0:0:
368,13,328373,2,0,P|425:62|424:119,1,120,2|0,0:0|0:0,0:0:0:0:
313,375,328575,1,10,1:3:0:0:
248,319,328675,2,0,P|268:246|320:222,1,120,4|0,0:3|0:0,0:0:0:0:
454,375,328877,102,0,B|513:391|545:264|409:243|345:309,1,240,12|0,0:0|0:0,0:0:0:0:
363,295,329184,2,0,P|382:246|406:199,1,104.999996795654,0|0,1:2|0:0,0:0:0:0:
164,345,329392,2,0,P|153:293|137:243,1,104.999996795654,8|0,1:2|0:0,0:0:0:0:
63,67,329599,1,8,1:3:0:0:
130,0,329703,38,0,P|180:17|203:32,1,52.4999983978272,8|0,0:0|0:0,0:0:0:0:
378,25,329911,102,0,P|313:49|301:56,1,48.7499977684022,8|0,0:0|0:0,0:0:0:0:
195,98,330118,6,0,P|216:137|223:154,1,44.999998626709,8|0,0:3|0:0,0:0:0:0:
323,133,330326,102,0,P|299:183|294:200,1,41.2500012588501,8|0,0:0|0:0,0:0:0:0:
240,216,330534,6,0,P|249:266|250:282,1,37.5,4|0,0:3|0:0,0:0:0:0:
261,255,330738,102,0,P|254:287|254:297,1,33.7499989700318,4|0,0:3|0:0,0:0:0:0:
262,384,330942,6,0,P|250:378|237:374,1,28.1250010728836,8|0,0:0|0:0,0:0:0:0:
246,367,331146,102,0,P|259:371|272:378,1,28.1250010728836,8|0,0:0|0:0,0:0:0:0:
262,384,331350,6,0,P|250:378|237:374,1,28.1250010728836,8|0,0:3|0:0,0:0:0:0:
257,95,331535,53,8,0:0:0:0:
258,118,331639,1,8,0:0:0:0:
237,136,331744,1,8,0:0:0:0:
183,82,331849,1,8,0:3:0:0:
207,15,331954,1,8,0:3:0:0:
277,2,332059,1,4,0:3:0:0:
321,59,332164,1,4,0:3:0:0:
113,123,332266,86,0,P|245:96|380:81,1,269.999991760254,4|0,1:2|0:0,0:0:0:0:
466,105,332570,1,0,1:2:0:0:
466,105,332672,1,8,0:0:0:0:
504,171,332773,1,8,0:3:0:0:
470,231,332875,1,4,1:3:0:0:
432,243,332976,1,8,0:0:0:0:
361,299,333078,102,0,P|186:243|47:212,1,269.999991760254,4|0,1:2|0:0,0:0:0:0:
42,164,333382,1,4,1:3:0:0:
0,230,333484,1,8,0:0:0:0:
14,293,333585,1,8,0:3:0:0:
40,319,333687,1,8,0:3:0:0:
65,328,333788,1,4,0:3:0:0:
149,374,333890,6,0,B|211:376|256:302|247:273|224:260|265:170|338:174,1,300,4|8,1:2|0:0,0:0:0:0:
512,334,334197,1,4,1:3:0:0:
512,334,334300,1,2,0:3:0:0:
511,248,334402,1,4,1:3:0:0:
452,204,334505,1,4,1:3:0:0:
408,219,334607,1,8,0:0:0:0:
340,315,334710,102,0,B|278:317|233:243|242:214|265:201|224:111|152:116,1,300,4|0,1:2|0:0,0:0:0:0:
16,121,335018,1,8,0:3:0:0:
35,189,335120,1,8,0:3:0:0:
82,218,335223,1,4,0:3:0:0:
126,216,335325,1,4,0:3:0:0:
149,203,335428,1,4,0:3:0:0:
83,52,335536,101,6,1:2:0:0:
152,117,335637,1,2,0:0:0:0:
214,82,335738,2,0,P|266:105|311:118,1,75,0|0,1:2|0:0,0:0:0:0:
511,278,335940,102,0,P|457:183|350:165,1,225,10|0,0:1|0:0,0:0:0:0:
496,301,336244,2,0,P|491:246|454:203,1,112.500004291535,10|0,0:1|0:0,0:0:0:0:
383,35,336446,1,8,0:3:0:0:
383,35,336547,2,0,P|354:97|349:120,1,56.2500021457673,8|0,0:3|0:0,0:0:0:0:
257,344,336750,5,2,1:2:0:0:
314,285,336851,1,0,0:0:0:0:
287,240,336952,2,0,P|276:190|263:155,1,75,0|0,0:0|1:2,0:0:0:0:
25,346,337154,102,0,P|72:262|166:247,1,194.999991073609,10|0,0:1|0:0,0:0:0:0:
38,368,337461,2,0,P|45:313|81:272,1,97.4999955368044,10|0,0:1|0:0,0:0:0:0:
136,330,337665,2,0,B|154:347|156:375|156:375|145:344|120:330,1,97.4999955368044,8|0,0:3|0:0,0:0:0:0:
10,212,337870,1,8,0:0:0:0:
106,48,337973,6,2,P|143:137|161:231,1,191.250003647804,2|0,1:3|0:0,0:0:0:0:
85,207,338177,2,0,P|74:159|57:113,1,97.4999955368044,2|0,1:3|0:0,0:0:0:0:
230,7,338382,1,12,0:0:0:0:
230,7,338689,86,0,L|315:30,1,75,8|0,0:0|0:0,0:0:0:0:
433,110,338893,1,4,1:3:0:0:
433,110,338995,2,0,L|530:81,1,75,8|8,0:0|0:3,0:0:0:0:
395,1,339198,2,0,L|373:66,1,44.999998626709,8|0,0:3|0:0,0:0:0:0:
337,188,339401,1,2,1:3:0:0:
340,198,339502,1,0,1:2:0:0:
344,209,339604,1,0,1:2:0:0:
347,219,339705,1,0,1:2:0:0:
351,230,339807,2,0,L|369:157,1,44.999998626709,0|2,1:2|0:3,0:0:0:0:
315,115,340010,2,0,L|256:138,1,44.999998626709,2|0,0:3|0:0,0:0:0:0:
465,270,340213,1,0,1:2:0:0:
465,270,340314,2,0,L|430:176,1,75,8|0,0:0|0:0,0:0:0:0:
205,114,340519,1,8,0:0:0:0:
205,114,340622,2,0,L|277:136,1,75,4|2,1:3|0:3,0:0:0:0:
498,2,340828,2,0,L|471:75,1,56.2500021457673,2|0,0:3|0:0,0:0:0:0:
415,122,341034,2,0,L|393:48,1,56.2500021457673,4|0,1:3|0:0,0:0:0:0:
256,23,341240,1,8,0:0:0:0:
269,18,341343,1,4,0:3:0:0:
281,13,341446,2,0,L|354:38,1,44.999998626709,8|0,0:3|0:0,0:0:0:0:
313,180,341653,1,8,0:3:0:0:
287,102,341756,2,0,L|254:252,1,150,8|8,0:0|0:0,0:0:0:0:
4,365,342065,21,6,1:2:0:0:
73,300,342167,1,2,0:0:0:0:
135,335,342269,2,0,P|190:321|236:316,1,75,0|0,1:2|0:0,0:0:0:0:
200,62,342473,102,0,P|97:23|4:78,1,225,10|0,0:1|0:0,0:0:0:0:
0,149,342779,2,0,P|4:94|41:51,1,112.500004291535,10|0,0:1|0:0,0:0:0:0:
227,142,342983,1,4,1:3:0:0:
285,89,343085,2,0,P|243:163|238:180,1,97.4999955368044,8|0,0:0|0:0,0:0:0:0:
73,300,343289,5,2,1:2:0:0:
123,230,343391,1,8,0:3:0:0:
92,187,343493,2,0,P|75:138|53:92,1,63.7500012159348,8|0,0:3|1:2,0:0:0:0:
357,3,343697,102,0,P|441:72|440:181,1,225.000008583069,10|0,0:1|0:0,0:0:0:0:
444,260,344001,2,0,P|362:202|362:200,1,112.500004291535,10|0,0:1|0:0,0:0:0:0:
249,0,344204,1,8,0:3:0:0:
249,0,344306,2,0,P|278:62|286:93,1,97.4999955368044,4|0,0:3|0:0,0:0:0:0:
363,207,344509,6,2,P|275:171|178:152,1,191.250003647804,2|0,1:3|0:0,0:0:0:0:
205,230,344712,2,0,P|255:241|298:257,1,97.4999955368044,2|0,1:3|0:0,0:0:0:0:
367,111,344915,1,12,0:0:0:0:
33,217,345118,70,0,L|72:387,1,165.000005035401,8|8,0:0|0:3,0:0:0:0:
131,109,345420,2,0,L|107:178,1,67.4999979400635,8|8,0:0|0:3,0:0:0:0:
126,249,345619,1,8,0:3:0:0:
86,43,345718,2,0,L|-3:13,1,82.5000025177003,8|0,0:0|0:0,0:0:0:0:
199,163,345917,1,8,0:3:0:0:
199,163,346016,2,0,L|273:144,1,67.4999979400635,8|0,0:0|1:2,0:0:0:0:
48,283,346215,1,8,0:0:0:0:
48,283,346314,2,0,L|29:197,1,67.4999979400635,8|4,0:3|0:3,0:0:0:0:
317,216,346513,1,0,1:2:0:0:
317,216,346619,2,0,L|213:241,1,82.5000025177003,8|2,0:0|0:3,0:0:0:0:
170,88,346832,1,0,1:2:0:0:
170,88,346939,2,0,L|191:17,2,56.2500021457673,4|8|8,1:3|0:0|0:0,0:0:0:0:
242,238,347246,1,4,1:3:0:0:
242,238,347349,2,0,L|313:259,2,56.2500021457673,8|8|4,0:0|0:3|1:3,0:0:0:0:
94,124,347656,1,8,0:0:0:0:
94,124,347759,2,0,L|-16:153,1,82.5000025177003,8|4,0:0|1:3,0:0:0:0:
248,0,347964,2,0,L|215:104,1,82.5000025177003,4|8,1:3|0:3,0:0:0:0:
168,341,348169,1,8,0:3:0:0:
173,330,348272,1,0,1:2:0:0:
177,320,348374,2,0,L|161:252,1,56.2500021457673,8|0,0:3|0:0,0:0:0:0:
223,78,348580,37,6,1:2:0:0:
302,153,348682,1,2,0:0:0:0:
355,96,348784,2,0,P|407:104|453:123,1,75,0|0,1:2|0:0,0:0:0:0:
386,244,348988,102,0,P|485:198|512:93,1,225,10|0,0:1|0:0,0:0:0:0:
464,40,349295,2,0,P|499:82|503:137,1,112.500004291535,10|0,0:1|0:0,0:0:0:0:
488,298,349499,1,0,0:2:0:0:
455,212,349601,1,8,0:0:0:0:
455,212,349703,1,8,0:0:0:0:
249,340,349806,5,0,1:2:0:0:
287,267,349908,1,4,0:3:0:0:
321,281,350011,2,0,P|365:252|399:237,1,75,2|0,0:3|0:0,0:0:0:0:
240,74,350215,102,0,P|178:69|139:193,1,194.999991073609,8|0,0:0|0:0,0:0:0:0:
213,221,350520,2,0,P|237:126|276:37,1,194.999991073609,8|0,0:0|1:2,0:0:0:0:
103,332,350826,2,0,P|178:302|182:281,1,97.4999955368044,8|0,0:0|0:0,0:0:0:0:
57,64,351029,6,2,P|93:152|112:249,1,191.250003647804,2|0,1:3|0:0,0:0:0:0:
34,222,351233,2,0,P|23:172|7:129,1,97.4999955368044,2|0,1:3|0:0,0:0:0:0:
154,55,351437,86,0,L|173:1,2,48.7499977684022,8|8|8,0:0|0:0|0:0,0:0:0:0:
154,55,351641,1,8,0:0:0:0:
298,118,351743,2,0,L|312:171,2,44.999998626709,8|8|8,0:0|0:0|0:0,0:0:0:0:
298,118,351945,1,8,0:0:0:0:
450,39,352047,1,8,0:0:0:0:
450,39,352097,1,8,0:0:0:0:
450,39,352148,2,0,L|358:86,1,82.5000025177003,8|8,0:0|0:0,0:0:0:0:
368,280,352351,2,0,L|406:136,1,123.75000377655,2|0,1:3|0:0,0:0:0:0:
404,154,352554,1,8,0:3:0:0:
463,262,352656,2,0,L|486:361,1,82.5000025177003,2|0,1:3|0:0,0:0:0:0:
298,227,352859,2,0,L|318:155,1,56.2500021457673,8|8,0:3|0:3,0:0:0:0:
512,137,353062,2,0,L|474:188,1,56.2500021457673,4|8,0:3|0:3,0:0:0:0:
234,367,353265,1,2,0:3:0:0:
234,367,353366,2,0,L|312:342,1,82.5000025177003,2|0,0:3|1:2,0:0:0:0:
404,154,353571,1,8,0:0:0:0:
354,0,353778,2,0,L|381:89,1,82.5000025177003,2|2,0:3|0:3,0:0:0:0:
512,258,353985,1,8,0:0:0:0:
421,379,354192,2,0,L|448:290,1,82.5000025177003,2|2,0:3|0:3,0:0:0:0:
507,70,354399,1,0,1:2:0:0:
507,70,354502,2,0,L|454:89,1,56.2500021457673,4|0,1:3|0:0,0:0:0:0:
404,154,354709,1,4,0:3:0:0:
328,136,354812,2,0,L|166:101,1,165.000005035401,8|4,0:3|0:3,0:0:0:0:
106,384,355123,21,6,1:2:0:0:
171,315,355226,1,2,0:0:0:0:
136,253,355329,2,0,P|159:201|172:156,1,75,0|0,1:2|0:0,0:0:0:0:
40,347,355535,102,0,P|86:248|191:221,1,225,10|0,0:1|0:0,0:0:0:0:
244,269,355844,2,0,P|202:234|147:230,1,112.500004291535,10|0,0:1|0:0,0:0:0:0:
66,144,356050,1,8,0:3:0:0:
5,200,356153,2,0,P|39:176|126:146,1,97.4999955368044,8|0,0:0|0:0,0:0:0:0:
402,0,356360,5,2,1:2:0:0:
345,59,356463,1,8,0:0:0:0:
372,104,356566,2,0,P|383:154|401:205,1,75,0|0,1:2|1:2,0:0:0:0:
501,213,356772,102,0,P|468:132|363:105,1,194.999991073609,10|4,0:1|1:3,0:0:0:0:
511,21,357080,2,0,P|488:73|480:120,1,97.4999955368044,10|0,0:1|0:0,0:0:0:0:
507,341,357285,2,0,P|438:334|439:246,1,146.249993305207,8|0,0:0|0:0,0:0:0:0:
432,261,357491,1,8,0:3:0:0:
336,289,357593,6,2,P|245:260|146:250,1,191.250003647804,8|0,1:2|0:0,0:0:0:0:
179,325,357799,2,0,P|229:331|273:343,1,97.4999955368044,8|4,1:2|1:3,0:0:0:0:
293,0,358004,70,0,L|265:86,1,89.9999972534181,8|0,0:0|0:0,0:0:0:0:
181,92,358210,2,0,L|148:22,1,67.4999979400635,2|2,0:3|0:3,0:0:0:0:
58,140,358415,2,0,L|131:160,1,75,2|0,1:3|0:0,0:0:0:0:
383,64,358615,1,8,0:0:0:0:
383,64,358815,1,8,0:3:0:0:
451,106,358915,2,0,L|422:184,1,67.4999979400635,8|0,0:3|0:0,0:0:0:0:
315,222,359116,2,0,L|271:59,1,165.000005035401,4|8,0:3|0:3,0:0:0:0:
495,215,359416,2,0,L|397:148,1,82.5000025177003,4|4,0:3|0:3,0:0:0:0:
271,62,359617,2,0,L|185:87,1,67.4999979400635,2|4,0:3|0:3,0:0:0:0:
374,310,359817,2,0,L|406:216,1,67.4999979400635,4|4,1:3|0:3,0:0:0:0:
215,161,360017,2,0,L|241:264,1,82.5000025177003,8|0,0:0|0:0,0:0:0:0:
292,305,360216,2,0,L|270:382,1,56.2500021457673,8|0,0:3|0:0,0:0:0:0:
141,203,360415,2,0,L|157:268,1,67.4999979400635,4|0,1:3|0:0,0:0:0:0:
158,268,360565,1,4,0:3:0:0:
158,268,360615,2,0,L|135:336,1,56.2500021457673,4|0,0:3|0:0,0:0:0:0:
76,384,360814,1,4,0:3:0:0:
69,366,360913,1,4,0:3:0:0:
63,348,361013,1,4,0:3:0:0:
57,330,361113,1,4,0:3:0:0:
9,268,361213,1,8,0:0:0:0:
28,215,361312,1,4,0:3:0:0:
48,162,361412,1,4,0:3:0:0:
68,110,361512,1,8,0:0:0:0:
0,65,361611,37,6,1:2:0:0:
69,0,361713,1,2,0:0:0:0:
131,35,361816,2,0,P|183:12|228:-1,1,75,0|0,1:2|0:0,0:0:0:0:
439,198,362021,102,0,P|387:87|270:57,1,247.500002360344,14|0,0:1|0:0,0:0:0:0:
211,111,362328,2,0,P|257:72|318:67,1,123.750001180172,14|0,0:1|0:0,0:0:0:0:
488,31,362534,1,8,0:0:0:0:
488,31,362636,2,0,P|436:120|430:140,1,97.4999955368044,8|0,0:0|1:2,0:0:0:0:
339,342,362841,5,2,1:2:0:0:
396,283,362944,1,8,0:0:0:0:
369,238,363046,2,0,P|358:187|340:136,1,75,0|0,1:2|1:2,0:0:0:0:
0,301,363252,102,0,P|46:201|151:174,1,209.999993591309,10|0,0:1|0:0,0:0:0:0:
247,285,363559,2,0,P|224:332|219:384,1,104.999996795654,10|0,0:1|0:0,0:0:0:0:
79,291,363764,1,0,1:2:0:0:
134,360,363867,2,0,P|107:285|85:257,1,97.4999955368044,8|8,0:0|0:0,0:0:0:0:
334,1,364072,6,0,P|298:89|279:186,1,191.250003647804,2|0,1:3|0:0,0:0:0:0:
357,159,364277,2,0,P|368:109|384:66,1,97.4999955368044,2|0,1:3|0:0,0:0:0:0:
221,8,364482,2,0,L|236:66,1,37.5,8|8,0:0|0:0,0:0:0:0:
230,44,364893,85,2,0:0:0:0:
172,95,364996,2,0,L|111:73,1,44.999998626709,8|0,0:3|0:0,0:0:0:0:
129,79,365202,2,0,L|68:57,1,44.999998626709,8|0,0:3|0:0,0:0:0:0:
249,173,365409,1,4,0:3:0:0:
260,185,365519,2,0,L|230:255,1,44.999998626709,2|0,0:0|0:0,0:0:0:0:
101,283,365759,1,8,0:0:0:0:
99,266,365826,1,8,0:0:0:0:
103,250,365893,1,8,0:0:0:0:
113,236,365961,1,8,0:0:0:0:
127,227,366028,1,8,0:0:0:0:
143,223,366096,1,8,0:0:0:0:
159,225,366163,2,0,L|179:292,1,44.999998626709,8|0,0:0|0:0,0:0:0:0:
241,306,366355,1,2,0:0:0:0:
323,127,366545,2,0,L|306:70,1,44.999998626709,2|0,0:0|0:0,0:0:0:0:
315,88,366752,1,8,0:3:0:0:
315,88,366855,2,0,L|298:31,1,44.999998626709,2|0,0:0|0:0,0:0:0:0:
276,189,367063,1,8,0:0:0:0:
345,206,367166,2,0,L|402:223,1,44.999998626709,2|0,0:0|0:0,0:0:0:0:
467,84,367374,1,8,0:0:0:0:
469,67,367445,1,8,0:0:0:0:
465,51,367516,1,8,0:0:0:0:
455,37,367587,1,8,0:0:0:0:
441,28,367658,1,8,0:0:0:0:
425,24,367729,1,8,0:0:0:0:
409,26,367800,2,0,L|389:93,1,44.999998626709,8|0,0:0|0:0,0:0:0:0:
448,159,367999,2,0,L|470:231,1,75,8|0,0:0|0:0,0:0:0:0:
219,326,368203,21,6,1:2:0:0:
304,279,368303,1,2,0:0:0:0:
348,333,368404,2,0,P|401:351|443:372,1,75,0|0,1:2|0:0,0:0:0:0:
81,368,368606,102,0,P|130:253|250:227,1,247.500002360344,14|0,0:1|0:0,0:0:0:0:
304,279,368908,2,0,P|258:240|197:235,1,123.750001180172,14|0,0:1|0:0,0:0:0:0:
49,210,369110,1,0,1:2:0:0:
6,275,369211,2,0,P|30:210|38:169,1,97.4999955368044,8|0,0:0|1:2,0:0:0:0:
178,14,369413,5,2,1:2:0:0:
121,73,369513,1,8,0:0:0:0:
148,118,369614,2,0,P|132:167|122:220,1,75,0|0,0:0|1:2,0:0:0:0:
420,254,369816,102,0,P|374:154|269:127,1,209.999993591309,10|0,0:1|0:0,0:0:0:0:
216,163,370117,2,0,P|263:135|317:140,1,104.999996795654,10|0,0:1|0:0,0:0:0:0:
339,363,370318,1,0,1:2:0:0:
286,305,370419,2,0,P|312:248|334:212,1,97.4999955368044,8|8,0:0|0:0,0:0:0:0:
512,5,370620,6,0,P|417:17|324:49,1,191.250003647804,2|0,1:3|0:0,0:0:0:0:
385,103,370821,2,0,P|433:87|479:79,1,97.4999955368044,2|0,1:3|0:0,0:0:0:0:
246,28,371022,2,0,L|50:-3,1,179.999994506836,12|0,0:0|1:2,0:0:0:0:
16,55,371290,69,8,0:0:0:0:
24,75,371357,1,8,0:0:0:0:
44,85,371424,2,0,L|66:159,2,55.0000016784668,8|8|8,1:2|0:3|0:3,0:0:0:0:
137,36,371627,2,0,L|122:91,2,44.999998626709,2|8|8,1:3|0:3|0:3,0:0:0:0:
33,233,371831,2,0,L|0:188,2,55.0000016784668,8|4|4,1:3|0:3|0:3,0:0:0:0:
161,161,372035,2,0,L|186:124,2,44.999998626709,4|0|0,1:3|0:3|0:3,0:0:0:0:
113,223,372238,1,4,0:3:0:0:
257,277,372374,2,0,L|220:394,1,110.000003356934,8|0,0:0|0:0,0:0:0:0:
14,349,372646,1,8,1:2:0:0:
30,341,372714,1,8,0:3:0:0:
47,334,372782,1,8,0:3:0:0:
64,327,372850,1,4,1:3:0:0:
81,320,372918,1,4,0:3:0:0:
97,313,372985,1,8,0:0:0:0:
115,306,373053,2,0,L|168:328,2,55.0000016784668,8|8|8,1:2|0:3|0:3,0:0:0:0:
224,382,373257,2,0,L|296:350,2,55.0000016784668,2|8|8,1:3|0:3|0:3,0:0:0:0:
345,319,373462,2,0,L|407:332,2,44.999998626709,8|4|4,1:3|0:3|0:3,0:0:0:0:
460,354,373667,2,0,L|522:341,1,44.999998626709,4|0,1:3|0:0,0:0:0:0:
504,344,373803,1,8,0:0:0:0:
330,240,374008,1,4,1:3:0:0:
330,240,374076,2,0,L|439:264,1,89.999997253418,8|0,0:0|0:0,0:0:0:0:
485,205,374281,1,8,1:3:0:0:
478,176,374349,1,8,0:3:0:0:
471,148,374417,1,8,0:0:0:0:
464,120,374485,1,8,1:2:0:0:
457,92,374554,1,8,0:0:0:0:
450,64,374622,1,8,0:0:0:0:
444,36,374690,37,6,1:2:0:0:
375,101,374793,1,2,0:0:0:0:
313,66,374895,2,0,P|261:89|216:102,1,75,0|0,1:2|0:0,0:0:0:0:
74,243,375099,102,0,P|37:123|112:26,1,247.500002360344,14|0,0:1|0:0,0:0:0:0:
187,31,375405,2,0,P|126:30|76:66,1,123.750001180172,14|0,0:1|0:0,0:0:0:0:
198,244,375609,1,8,0:3:0:0:
260,178,375711,2,0,P|211:289|208:306,1,97.4999955368044,8|0,0:0|0:0,0:0:0:0:
0,195,375915,5,2,1:2:0:0:
59,138,376017,1,8,0:0:0:0:
104,165,376119,2,0,P|153:149|206:139,1,75,0|0,1:2|1:2,0:0:0:0:
433,325,376323,102,0,P|462:218|398:130,1,209.999993591309,10|0,0:1|0:0,0:0:0:0:
335,124,376631,2,0,P|389:132|427:171,1,104.999996795654,10|0,0:1|0:0,0:0:0:0:
354,358,376836,1,0,1:2:0:0:
292,292,376939,2,0,P|341:403|344:420,1,97.4999955368044,8|0,0:0|0:0,0:0:0:0:
502,170,377144,6,0,P|406:178|312:207,1,191.250003647804,2|0,1:3|0:0,0:0:0:0:
367,262,377350,2,0,P|416:248|462:242,1,97.4999955368044,2|0,1:3|0:0,0:0:0:0:
512,11,377555,1,12,0:0:0:0:
439,50,377658,86,0,L|271:24,1,149.999995422363,8|0,0:0|0:0,0:0:0:0:
270,23,377898,1,8,0:0:0:0:
251,19,377966,1,8,0:0:0:0:
216,90,378069,1,8,0:3:0:0:
102,52,378172,2,0,L|157:42,2,50,8|8|8,0:0|0:3|0:3,0:0:0:0:
107,57,378379,2,0,L|11:75,1,75,8|8,0:0|0:0,0:0:0:0:
143,219,378586,1,4,1:3:0:0:
155,213,378655,1,4,0:3:0:0:
162,204,378724,1,4,0:3:0:0:
163,190,378793,2,0,L|137:125,1,67.4999979400635,4|0,1:3|0:0,0:0:0:0:
137,127,378951,1,4,0:3:0:0:
137,127,379004,1,4,0:3:0:0:
73,180,379109,2,0,L|55:245,1,67.4999979400635,4|4,1:3|0:3,0:0:0:0:
115,300,379321,2,0,L|132:346,3,44.999998626709,8|4|4|4,0:3|0:3|0:3|0:3,0:0:0:0:
58,372,379621,2,0,L|-8:348,1,56.2500021457673,8|4,0:3|0:3,0:0:0:0:
200,286,379826,2,0,L|346:331,1,134.999995880127,8|0,0:0|0:0,0:0:0:0:
333,330,380031,1,8,0:3:0:0:
247,369,380133,2,0,L|292:223,1,134.999995880127,8|0,0:0|0:0,0:0:0:0:
291,236,380338,1,8,0:3:0:0:
368,188,380441,1,8,0:3:0:0:
368,188,380544,2,0,L|344:101,1,89.9999972534181,8|0,0:0|0:0,0:0:0:0:
418,80,380749,2,0,L|440:167,1,89.9999972534181,8|0,0:0|0:0,0:0:0:0:
505,339,380954,1,8,0:3:0:0:
488,267,381056,2,0,L|395:238,1,67.4999979400635,8|8,0:3|0:3,0:0:0:0:
138,0,381262,21,6,1:2:0:0:
210,70,381361,1,2,0:0:0:0:
179,139,381461,2,0,P|163:193|144:236,1,75,0|0,1:2|0:0,0:0:0:0:
43,66,381660,102,0,P|163:29|260:104,1,247.500002360344,14|0,0:1|0:0,0:0:0:0:
257,174,381958,2,0,P|252:115|209:68,1,123.750001180172,14|0,0:1|0:0,0:0:0:0:
71,136,382157,1,4,1:3:0:0:
5,198,382257,2,0,P|116:149|133:146,1,97.4999955368044,8|0,0:0|0:0,0:0:0:0:
507,88,382456,5,2,1:2:0:0:
445,24,382555,1,8,0:0:0:0:
395,53,382655,2,0,P|346:37|293:27,1,75,0|0,1:2|1:2,0:0:0:0:
404,177,382856,102,0,P|302:145|220:209,1,209.999993591309,10|0,0:1|0:0,0:0:0:0:
229,273,383157,2,0,P|228:221|258:179,1,104.999996795654,10|0,0:1|0:0,0:0:0:0:
439,250,383358,1,4,1:3:0:0:
505,312,383459,2,0,P|394:263|377:260,1,97.4999955368044,8|8,0:0|0:0,0:0:0:0:
282,327,383660,6,0,P|316:238|332:144,1,191.250003647804,2|0,1:3|0:0,0:0:0:0:
256,179,383861,2,0,P|246:227|229:273,1,97.4999955368044,2|0,0:3|0:0,0:0:0:0:
413,380,384062,1,12,0:0:0:0:
413,380,384467,69,2,0:0:0:0:
409,363,384537,1,2,0:0:0:0:
404,347,384608,1,2,0:0:0:0:
400,331,384678,1,2,0:0:0:0:
314,343,384784,2,0,L|331:276,3,50,2|2|2|2,0:3|0:3|0:3|0:3,0:0:0:0:
239,367,385101,1,8,0:3:0:0:
223,361,385172,1,8,0:3:0:0:
207,356,385243,1,8,0:3:0:0:
191,351,385313,1,8,0:3:0:0:
145,289,385419,2,0,L|76:308,3,50,4|4|4|4,0:3|0:3|0:3|0:3,0:0:0:0:
43,367,385736,1,8,0:0:0:0:
43,367,385789,1,8,0:0:0:0:
43,367,385842,1,8,0:0:0:0:
43,367,385895,1,8,0:0:0:0:
43,367,385948,1,8,0:0:0:0:
244,282,386164,2,0,L|225:219,3,50,4|8|8|4,0:3|0:3|0:3|0:3,0:0:0:0:
295,192,386468,1,6,0:3:0:0:
189,139,386670,1,10,0:3:0:0:
295,192,386873,1,6,0:3:0:0:
372,158,387076,1,8,0:0:0:0:
372,158,387177,1,8,0:3:0:0:
444,9,387380,1,2,0:2:0:0:
447,20,387447,1,2,0:3:0:0:
451,32,387515,1,2,0:0:0:0:
455,44,387582,1,2,0:3:0:0:
459,56,387650,1,2,0:0:0:0:
462,68,387717,1,2,0:3:0:0:
466,80,387785,37,6,1:2:0:0:
371,34,387885,1,2,0:0:0:0:
315,82,387986,2,0,P|263:60|218:46,1,75,0|0,1:2|0:0,0:0:0:0:
102,53,388187,102,0,P|222:16|319:91,1,247.500002360344,14|0,0:1|0:0,0:0:0:0:
313,167,388489,2,0,P|314:106|278:56,1,123.750001180172,14|0,0:1|0:0,0:0:0:0:
178,101,388691,1,0,1:2:0:0:
112,163,388791,2,0,P|223:114|240:111,1,97.4999955368044,8|0,0:0|0:0,0:0:0:0:
512,296,388993,5,10,1:2:0:0:
453,239,389093,1,0,1:2:0:0:
408,266,389194,2,0,P|359:250|306:240,1,75,0|8,1:2|0:0,0:0:0:0:
253,292,389395,102,0,P|141:234|32:291,1,247.500002360344,14|0,0:1|0:0,0:0:0:0:
25,367,389700,2,0,P|34:306|78:263,1,123.750001180172,14|0,0:1|0:0,0:0:0:0:
63,65,389904,1,0,0:0:0:0:
63,65,390006,2,0,P|98:130|114:190,1,104.999996795654
408,266,390209,6,0,P|319:232|225:216,1,191.250003647804,2|0,1:3|0:0,0:0:0:0:
253,292,390413,2,0,P|301:302|347:319,1,97.4999955368044,2|0,1:3|0:0,0:0:0:0:
492,214,390617,2,0,L|474:162,1,37.5,12|0,0:0|0:0,0:0:0:0:
479,178,391024,69,8,0:0:0:0:
504,106,391124,1,8,0:3:0:0:
504,106,391224,1,8,0:3:0:0:
413,119,391325,1,8,0:0:0:0:
388,47,391425,1,8,0:3:0:0:
272,87,391525,1,8,0:0:0:0:
297,15,391625,1,8,0:3:0:0:
297,15,391726,1,8,0:3:0:0:
197,135,391826,2,0,L|231:232,1,89.9999972534181,8|8,0:0|0:3,0:0:0:0:
378,378,392027,2,0,L|420:234,1,134.999995880127,10|0,0:0|0:0,0:0:0:0:
425,244,392228,1,4,1:3:0:0:
305,337,392328,2,0,L|218:362,1,75,4|0,0:3|0:0,0:0:0:0:
357,177,392529,2,0,L|328:266,1,89.9999972534181,4|0,1:2|0:0,0:0:0:0:
32,140,392733,1,4,0:3:0:0:
95,87,392838,2,0,L|129:203,1,89.9999972534181,8|0,0:0|0:0,0:0:0:0:
175,379,393047,1,2,0:3:0:0:
175,379,393151,1,8,0:0:0:0:
120,313,393256,2,0,L|12:282,1,89.9999972534181,8|0,0:3|0:0,0:0:0:0:
220,13,393465,1,10,0:3:0:0:
220,13,393517,1,10,0:3:0:0:
220,13,393569,2,0,L|194:104,1,89.9999972534181,2|0,0:3|0:0,0:0:0:0:
318,157,393778,1,10,0:3:0:0:
318,157,393831,1,10,0:3:0:0:
318,157,393883,2,0,L|292:66,1,89.9999972534181,10|4,0:3|0:3,0:0:0:0:
359,14,394092,2,0,L|440:35,1,67.4999979400635,4|4,1:3|0:3,0:0:0:0:
250,314,394301,70,0,P|211:142|193:81,1,209.999993591309,4|0,1:2|0:0,0:0:0:0:
395,212,394607,1,4,1:3:0:0:
378,259,394709,1,8,0:0:0:0:
349,273,394812,1,8,0:3:0:0:
327,272,394914,2,0,P|294:243|214:217,1,82.5000025177003,8|0,0:3|0:0,0:0:0:0:
70,375,395118,102,0,P|108:203|129:130,1,225.000008583069,4|0,1:2|0:0,0:0:0:0:
186,11,395425,1,4,1:3:0:0:
109,7,395527,1,8,0:0:0:0:
76,44,395629,1,8,0:3:0:0:
74,71,395732,2,0,P|109:154|112:172,1,89.9999972534181,4|0,0:3|0:0,0:0:0:0:
477,112,395936,6,0,B|419:108|386:180|405:191|412:214|376:273|326:271,1,240,4|0,1:2|0:0,0:0:0:0:
245,73,396244,1,2,0:0:0:0:
309,105,396347,1,10,0:0:0:0:
322,142,396450,1,8,0:3:0:0:
316,169,396553,2,0,P|247:218|218:251,1,97.4999955368044,4|0,0:3|0:0,0:0:0:0:
197,370,396759,102,0,B|135:373|100:296|120:285|127:260|89:197|36:198,1,255.000004863739,4|0,1:2|0:0,0:0:0:0:
0,315,397068,1,2,0:0:0:0:
79,347,397170,1,10,0:0:0:0:
135,305,397272,1,8,0:3:0:0:
148,279,397376,2,0,P|160:217|180:168,1,104.999996795654,4|0,0:3|0:0,0:0:0:0:
370,24,397582,101,14,0:0:0:0:
299,10,397684,1,10,0:0:0:0:
245,73,397787,2,0,P|283:143|297:181,1,112.500004291535,2|0,1:2|0:0,0:0:0:0:
0,21,397992,101,14,0:0:0:0:
82,1,398094,1,10,0:0:0:0:
129,88,398197,2,0,P|91:158|70:215,1,112.500004291535,2|0,1:2|0:0,0:0:0:0:
481,284,398402,37,14,0:0:0:0:
406,309,398505,1,10,0:0:0:0:
370,242,398607,2,0,P|349:187|294:172,1,120,2|0,1:2|0:0,0:0:0:0:
0,352,398812,101,14,0:0:0:0:
93,377,398915,1,10,0:0:0:0:
136,287,399017,2,0,P|160:234|217:222,1,120,2|0,1:2|0:0,0:0:0:0:
366,95,399223,6,0,P|326:224|293:354,1,269.999991760254,4|0,1:2|0:0,0:0:0:0:
446,174,399526,1,8,0:0:0:0:
446,174,399627,1,8,0:0:0:0:
473,248,399728,1,8,0:3:0:0:
429,301,399830,1,8,0:3:0:0:
390,305,399931,1,4,0:3:0:0:
289,359,400032,102,0,P|250:180|207:44,1,269.999991760254,4|0,1:2|0:0,0:0:0:0:
64,63,400335,1,10,0:0:0:0:
35,136,400437,1,10,0:0:0:0:
60,195,400538,1,10,0:0:0:0:
90,217,400639,1,2,1:2:0:0:
116,222,400740,1,10,0:0:0:0:
172,299,400841,6,0,B|234:301|279:227|270:198|247:185|286:94|361:99,1,300,4|0,1:2|0:0,0:0:0:0:
431,224,401146,1,4,1:3:0:0:
431,224,401248,1,8,0:0:0:0:
356,181,401350,1,4,1:3:0:0:
289,220,401452,1,8,0:0:0:0:
279,256,401554,1,4,1:3:0:0:
349,356,401655,102,0,B|287:358|242:284|251:255|274:242|233:152|161:157,1,300,4|0,1:2|0:0,0:0:0:0:
17,361,401961,1,10,0:0:0:0:
36,293,402063,1,10,0:0:0:0:
83,264,402165,1,10,0:0:0:0:
127,266,402267,1,2,1:2:0:0:
150,279,402369,1,2,1:2:0:0:
202,338,402470,85,10,0:3:0:0:
275,371,402609,101,4,0:3:0:0:
282,361,402749,5,4,0:3:0:0:
375,220,402888,101,10,0:3:0:0:
293,269,403027,5,4,0:3:0:0:
281,252,403167,101,4,0:3:0:0:
123,141,403307,5,10,0:3:0:0:
217,185,403446,101,4,0:3:0:0:
234,160,403586,5,4,0:3:0:0:
403,20,403726,101,10,0:3:0:0:
302,64,403865,5,4,0:3:0:0:
279,24,404005,101,6,0:3:0:0:
275,371,404145,5,4,0:3:0:0:
293,269,404283,101,10,0:3:0:0:
282,361,404422,5,4,0:3:0:0:
217,185,404561,101,10,0:3:0:0:
275,371,404700,5,4,0:3:0:0:
302,64,404839,101,10,0:3:0:0:
91,346,404978,5,6,1:2:0:0:
239,10,405186,1,6,1:2:0:0:
485,265,405395,1,6,1:2:0:0:
212,241,418218,54,0,L|216:254,1,11.2499996566773,2|2,0:0|0:0,0:0:0:0:
309,305,418553,1,2,0:0:0:0:
237,340,418720,1,2,0:0:0:0:
262,363,418888,2,0,L|258:374,2,11.2499996566773,2|2|2,0:3|0:3|0:3,0:0:0:0:
308,150,419558,22,0,L|304:163,1,11.2499996566773,2|2,0:0|0:0,0:0:0:0:
206,230,419893,1,2,0:0:0:0:
310,297,420060,1,2,0:0:0:0:
259,352,420228,2,0,L|262:363,2,11.2499996566773,2|2|2,0:3|0:3|0:3,0:0:0:0:
176,79,420899,102,0,L|159:85,1,11.2499996566773,2|2,0:0|0:0,0:0:0:0:
18,10,421237,1,2,0:0:0:0:
18,10,421406,1,2,0:0:0:0:
96,47,421575,2,0,L|80:39,2,11.2499996566773,2|2|2,0:3|0:3|0:3,0:0:0:0:
313,143,422251,6,0,L|330:149,1,11.2499996566773,2|2,0:0|0:0,0:0:0:0:
509,62,422600,1,2,0:0:0:0:
509,62,422775,1,2,0:0:0:0:
393,111,422950,2,0,L|409:103,2,11.2499996566773,2|2|2,0:3|0:3|0:3,0:0:0:0:
203,0,423603,102,0,L|207:16,1,11.2499996566773,2|2,0:0|0:0,0:0:0:0:
296,100,423934,1,2,0:0:0:0:
223,160,424100,1,2,0:0:0:0:
250,182,424265,2,0,L|246:196,2,11.2499996566773,2|2|2,0:3|0:3|0:3,0:0:0:0:
250,182,424763,1,2,0:0:0:0:
125,67,424928,6,0,L|131:86,1,11.2499996566773,2|2,0:0|0:0,0:0:0:0:
360,149,425261,1,2,0:0:0:0:
159,232,425428,1,2,0:0:0:0:
227,290,425594,2,0,L|221:309,1,11.2499996566773,2|2,0:3|0:0,0:0:0:0:
353,281,425928,1,2,0:0:0:0:
297,331,426094,2,0,L|303:350,1,11.2499996566773,2|2,0:0|0:0,0:0:0:0:
231,374,426428,1,2,0:0:0:0:
231,374,426594,2,0,L|234:385,1,11.2499996566773,2|2,0:0|0:0,0:0:0:0:
233,384,426928,1,2,0:3:0:0:
233,384,427261,1,2,0:3:0:0:
39,67,427594,102,0,L|24:43,1,22.4999993133545,6|2,0:0|0:0,0:0:0:0:
109,35,428094,1,2,0:0:0:0:
109,35,428261,2,0,L|116:18,1,11.2499996566773,2|2,0:0|0:0,0:0:0:0:
162,90,428594,1,2,0:0:0:0:
162,90,428761,2,0,L|178:83,1,11.2499996566773,2|2,0:0|0:0,0:0:0:0:
239,52,429094,1,2,0:0:0:0:
239,52,429261,1,2,0:0:0:0:
448,91,429594,2,0,L|477:98,1,22.4999993133545,2|0,0:0|0:0,0:0:0:0:
462,199,430261,6,0,L|477:175,1,22.4999993133545,2|2,0:0|0:0,0:0:0:0:
392,167,430787,1,2,0:0:0:0:
392,167,430962,2,0,L|385:150,1,11.2499996566773,2|2,0:0|0:0,0:0:0:0:
339,222,431313,1,2,0:0:0:0:
339,222,431489,2,0,L|323:215,1,11.2499996566773,2|2,0:0|0:0,0:0:0:0:
262,184,431827,1,2,0:0:0:0:
262,184,431990,1,2,0:0:0:0:
53,223,432234,2,0,L|24:230,1,22.4999993133545,14|0,0:0|0:0,0:0:0:0:
39,67,432962,102,0,L|24:43,1,22.4999993133545,6|2,0:0|0:0,0:0:0:0:
109,35,433486,1,2,0:0:0:0:
109,35,433661,2,0,L|116:18,1,11.2499996566773,2|2,0:0|0:0,0:0:0:0:
162,90,434011,1,2,0:0:0:0:
162,90,434186,2,0,L|178:83,1,11.2499996566773,2|2,0:0|0:0,0:0:0:0:
239,52,434536,1,2,0:0:0:0:
239,52,434711,1,2,0:0:0:0:
447,90,434945,2,0,L|476:97,1,22.4999993133545,14|0,0:0|0:0,0:0:0:0:
211,371,435653,6,0,L|199:344,1,22.4999993133545,2|2,0:0|0:0,0:0:0:0:
318,289,436334,2,0,L|330:262,1,22.4999993133545,2|2,0:0|0:0,0:0:0:0:
327,268,436846,1,2,0:0:0:0:
224,210,437016,2,0,L|220:191,1,11.2499996566773,2|2,0:0|0:0,0:0:0:0:
293,143,437357,2,0,L|299:127,1,11.2499996566773,2|0,0:0|0:0,0:0:0:0:
248,72,437698,2,0,L|242:43,1,22.4999993133545,2|0,0:0|0:0,0:0:0:0:
301,371,438334,102,0,L|305:360,1,11.2499996566773,6|0,0:0|0:0,0:0:0:0:
336,295,438674,2,0,L|340:284,1,11.2499996566773,2|2,0:0|0:0,0:0:0:0:
173,326,439015,2,0,L|163:305,1,22.4999993133545,2|2,0:0|0:0,0:0:0:0:
288,210,439527,1,2,0:0:0:0:
288,210,439697,2,0,L|290:198,1,11.2499996566773,2|2,0:0|0:0,0:0:0:0:
219,143,440038,2,0,L|215:132,1,11.2499996566773,2|0,0:0|0:0,0:0:0:0:
264,72,440379,2,0,L|268:49,1,22.4999993133545,2|0,0:0|0:0,0:0:0:0:
180,10,441000,6,0,L|174:36,1,22.4999993133545,2|2,0:0|0:0,0:0:0:0:
338,105,441677,2,0,L|346:133,1,22.4999993133545,2|2,0:0|0:0,0:0:0:0:
345,127,442186,1,2,0:0:0:0:
216,179,442355,2,0,L|212:198,1,11.2499996566773,2|2,0:0|0:0,0:0:0:0:
285,246,442694,2,0,L|291:262,1,11.2499996566773,2|0,0:0|0:0,0:0:0:0:
240,317,443033,2,0,L|234:346,1,22.4999993133545,2|0,0:0|0:0,0:0:0:0:
43,35,443651,102,0,L|28:41,2,11.2499996566773,6|0|2,0:0|0:0|0:0,0:0:0:0:
121,60,444327,2,0,L|148:70,1,22.4999993133545,2|2,0:0|0:0,0:0:0:0:
213,43,444834,1,2,0:0:0:0:
304,111,445003,2,0,L|321:108,1,11.2499996566773,2|2,0:0|0:0,0:0:0:0:
387,96,445341,2,0,L|404:93,1,11.2499996566773,2|0,0:0|0:0,0:0:0:0:
459,52,445679,1,2,0:0:0:0:
256,192,446325,12,4,448994,0:0:0:0:
