osu file format v14

[General]
AudioFilename: audio.mp3
AudioLeadIn: 0
PreviewTime: 82525
Countdown: 0
SampleSet: None
StackLeniency: 0.9
Mode: 0
LetterboxInBreaks: 0
WidescreenStoryboard: 1

[Editor]
Bookmarks: 24263,60626,123353
DistanceSpacing: 1.2
BeatDivisor: 4
GridSize: 8
TimelineZoom: 1.050002

[Metadata]
Title:Black & Blue
TitleUnicode:Black & Blue
Artist:Ghost Pavilion
ArtistUnicode:Ghost Pavilion
Creator:Saltssaumure
Version:Normal
Source:
Tags:traces pop soul dream synthwave experimental los angeles blue
BeatmapID:1406347
BeatmapSetID:662895

[Difficulty]
HPDrainRate:5
CircleSize:3.8
OverallDifficulty:5
ApproachRate:6
SliderMultiplier:1.4
SliderTickRate:1

[Events]
//Background and Video events
0,0,"bg.jpg",0,0
//Break Periods
//Storyboard Layer 0 (Background)
//Storyboard Layer 1 (Fail)
//Storyboard Layer 2 (Pass)
//Storyboard Layer 3 (Foreground)
//Storyboard Sound Samples

[TimingPoints]
2445,606.673407482305,4,3,1,50,1,0
60685,606.673407482305,4,3,1,50,1,0
82525,-100,4,3,1,50,0,1
102242,-100,4,3,2,30,0,0
102546,-100,4,3,2,20,0,0
102849,-100,4,3,2,10,0,0
103152,-100,4,3,2,5,0,0
103986,606.060606060606,4,3,1,50,1,0
142773,606.673407482305,4,3,1,50,1,1
161579,-100,4,3,1,50,0,0
162186,-100,4,3,1,50,0,1
181903,-100,4,3,2,30,0,0
182206,-100,4,3,2,20,0,0
182510,-100,4,3,2,10,0,0
182813,-100,4,3,2,5,0,0
183723,606.673407482305,4,3,1,50,1,0
202302,-100,4,3,1,20,0,0
202529,-100,4,3,1,50,0,0
202605,-100,4,3,1,20,0,0
202833,-100,4,3,1,50,0,0
203439,606.673407482305,4,3,2,30,1,0
204045,-100,4,3,2,20,0,0
204652,-100,4,3,2,15,0,0
205259,-100,4,3,2,10,0,0
205865,-100,4,3,2,5,0,0

[Colours]
Combo1 : 0,0,191
Combo2 : 0,0,255
Combo3 : 64,64,255
Combo4 : 128,128,255
Combo5 : 191,191,255
Combo6 : 128,128,255
Combo7 : 64,64,255
Combo8 : 0,0,255

[HitObjects]
320,32,2445,5,0,0:0:0:0:
472,96,3051,1,0,0:0:0:0:
320,160,3658,1,0,0:0:0:0:
472,224,4265,1,0,0:0:0:0:
375,360,4871,5,0,0:0:0:0:
311,304,5175,2,0,P|303:259|321:220,1,70
340,71,6085,1,0,0:0:0:0:
390,138,6389,2,0,P|398:183|380:222,1,70
291,340,7298,5,0,0:0:0:0:
215,376,7601,2,0,P|182:385|131:360,1,70
0,296,8511,1,0,0:0:0:0:
160,240,9118,1,0,0:0:0:0:
0,176,9725,5,0,0:0:0:0:
58,115,10029,2,0,P|103:107|142:125,1,70
272,195,10939,1,0,0:0:0:0:
205,245,11241,2,0,P|160:253|121:235,1,70
297,295,12151,5,0,0:0:0:0:
364,345,12455,2,0,P|409:353|448:335,1,70
510,197,13365,1,0,0:0:0:0:
342,197,13971,1,0,0:0:0:0:
422,49,14578,5,0,0:0:0:0:
497,12,14881,2,0,P|506:55|493:93,1,70
335,46,15791,1,0,0:0:0:0:
260,9,16094,2,0,P|250:42|256:76,1,70
381,190,17005,5,0,0:0:0:0:
418,265,17308,2,0,P|375:274|337:261,1,70
199,193,18218,1,0,0:0:0:0:
254,116,18521,1,0,0:0:0:0:
284,37,18825,2,0,P|249:30|216:40,1,70
150,91,19431,6,0,B|98:106|98:106|36:86,2,105
216,40,20645,1,0,0:0:0:0:
255,202,21251,1,0,0:0:0:0:
400,285,21858,2,0,B|452:270|452:270|514:290,2,105
334,336,23071,1,0,0:0:0:0:
266,285,23375,1,0,0:0:0:0:
200,336,23678,1,0,0:0:0:0:
42,277,24285,5,0,0:0:0:0:
7,353,24588,2,0,P|43:360|76:352,1,70
124,284,25195,1,0,0:0:0:0:
93,206,25498,1,0,0:0:0:0:
138,44,26105,2,0,L|68:44,1,70
36,121,26711,5,0,0:0:0:0:
1,197,27014,2,0,P|37:204|70:196,1,70
138,148,27621,1,0,0:0:0:0:
203,201,27925,1,0,0:0:0:0:
270,47,28531,1,0,0:0:0:0:
427,106,29138,5,0,0:0:0:0:
394,30,29441,2,0,P|427:22|462:30,1,70
507,100,30048,1,0,0:0:0:0:
474,177,30351,1,0,0:0:0:0:
510,253,30655,1,0,0:0:0:0:
477,330,30958,2,0,L|387:331,1,70
326,304,31565,5,0,0:0:0:0:
390,248,31869,2,0,P|398:203|380:164,1,70
314,147,32475,1,0,0:0:0:0:
234,174,32778,1,0,0:0:0:0:
184,334,33385,1,0,0:0:0:0:
23,285,33992,6,0,B|8:233|8:233|28:171,2,105
78,347,35205,2,0,P|101:311|101:272,1,70
187,287,35812,2,0,P|181:252|161:224,1,70
101,165,36418,6,0,B|116:113|116:113|96:51,2,105
42,225,37632,1,0,0:0:0:0:
20,68,38238,2,0,P|25:33|45:5,1,70
100,64,38845,5,0,0:0:0:0:
157,5,39148,2,0,P|177:33|183:68,1,70
137,139,39755,1,0,0:0:0:0:
183,208,40058,1,0,0:0:0:0:
351,207,40665,1,0,0:0:0:0:
305,138,40968,1,0,0:0:0:0:
380,99,41272,6,0,B|395:47|395:47|375:-15,2,105
305,138,42485,1,0,0:0:0:0:
445,230,43092,1,0,0:0:0:0:
368,265,43395,1,0,0:0:0:0:
309,325,43698,5,0,0:0:0:0:
248,267,44002,2,0,P|240:222|258:183,1,70
313,147,44608,1,0,0:0:0:0:
256,84,44912,1,0,0:0:0:0:
224,6,45215,2,0,P|258:-1|293:9,2,70
174,73,46125,6,0,B|122:88|122:88|73:72,2,105
123,140,47338,2,0,L|175:189,1,70
122,319,47945,1,0,0:0:0:0:
