osu file format v14

[General]
AudioFilename: audio.mp3
AudioLeadIn: 0
PreviewTime: 82525
Countdown: 0
SampleSet: None
StackLeniency: 0.9
Mode: 0
LetterboxInBreaks: 0
WidescreenStoryboard: 1

[Editor]
Bookmarks: 24263,60626,123353
DistanceSpacing: 0.8
BeatDivisor: 2
GridSize: 4
TimelineZoom: 0.5

[Metadata]
Title:Black & Blue
TitleUnicode:Black & Blue
Artist:Ghost Pavilion
ArtistUnicode:Ghost Pavilion
Creator:Saltssaumure
Version:Easy
Source:
Tags:traces pop soul dream synthwave experimental los angeles blue
BeatmapID:1406369
BeatmapSetID:662895

[Difficulty]
HPDrainRate:3
CircleSize:3.4
OverallDifficulty:2.5
ApproachRate:4
SliderMultiplier:1
SliderTickRate:1

[Events]
//Background and Video events
0,0,"bg.jpg",0,0
//Break Periods
//Storyboard Layer 0 (Background)
//Storyboard Layer 1 (Fail)
//Storyboard Layer 2 (Pass)
//Storyboard Layer 3 (Foreground)
//Storyboard Sound Samples

[TimingPoints]
2445,606.673407482305,4,3,1,50,1,0
60685,606.673407482305,4,3,1,50,1,0
82525,-100,4,3,1,50,0,1
102242,-100,4,3,2,30,0,0
102546,-100,4,3,2,20,0,0
102849,-100,4,3,2,10,0,0
103152,-100,4,3,2,5,0,0
103986,606.060606060606,4,3,1,50,1,0
142773,606.673407482305,4,3,1,50,1,1
161579,-100,4,3,1,50,0,0
162186,-100,4,3,1,50,0,1
181903,-100,4,3,2,30,0,0
182206,-100,4,3,2,20,0,0
182510,-100,4,3,2,10,0,0
182813,-100,4,3,2,5,0,0
183723,606.673407482305,4,3,1,50,1,0
202302,-100,4,3,1,20,0,0
202529,-100,4,3,1,50,0,0
202605,-100,4,3,1,20,0,0
202833,-100,4,3,1,50,0,0
203439,606.673407482305,4,3,2,30,1,0
204045,-100,4,3,2,20,0,0
204652,-100,4,3,2,15,0,0
205259,-100,4,3,2,10,0,0
205865,-100,4,3,2,5,0,0

[Colours]
Combo1 : 0,0,191
Combo2 : 0,0,255
Combo3 : 64,64,255
Combo4 : 128,128,255
Combo5 : 191,191,255
Combo6 : 128,128,255
Combo7 : 64,64,255
Combo8 : 0,0,255

[HitObjects]
48,88,2445,5,0,0:0:0:0:
104,32,3051,1,0,0:0:0:0:
160,88,3658,1,0,0:0:0:0:
216,32,4265,1,0,0:0:0:0:
288,64,4871,6,0,P|319:107|314:161,1,100
240,129,6085,2,0,L|154:151,2,50
288,64,7298,5,0,0:0:0:0:
356,104,7905,1,0,0:0:0:0:
416,52,8511,2,0,B|440:72|440:72|432:144,1,100
365,184,9725,6,0,P|334:227|339:281,1,100
412,249,10938,2,0,L|497:271,2,50
365,184,12151,5,0,0:0:0:0:
292,220,12758,1,0,0:0:0:0:
235,163,13365,2,0,B|211:183|211:183|219:255,1,100
284,300,14578,6,0,P|241:331|187:326,1,100
140,272,15791,2,0,L|112:320,2,50
75,224,17005,6,0,P|118:193|172:198,1,100
234,230,18218,1,0,0:0:0:0:
278,296,18825,1,0,0:0:0:0:
243,367,19431,5,0,0:0:0:0:
199,303,20038,2,0,L|154:328,2,50
278,296,21251,1,0,0:0:0:0:
354,319,21858,6,0,P|354:269|324:230,1,100
245,220,23071,2,0,L|197:202,2,50
295,157,24285,6,0,P|334:127|383:127,1,100
452,167,25498,2,0,L|500:185,2,50
383,207,26711,6,0,L|372:331,2,100
339,139,28531,1,0,0:0:0:0:
404,92,29138,6,0,P|364:62|315:62,1,100
239,86,30351,2,0,L|232:14,2,50
230,165,31565,2,0,L|366:153,2,100
165,117,33385,1,0,0:0:0:0:
102,67,33992,6,0,L|-34:78,2,100
167,20,35812,1,0,0:0:0:0:
244,38,36418,6,0,P|219:80|174:99,1,100
101,66,37632,1,0,0:0:0:0:
108,145,38238,1,0,0:0:0:0:
156,208,38845,2,0,B|109:227|109:227|19:196,2,100
211,150,40665,1,0,0:0:0:0:
290,155,41272,6,0,L|404:115,1,100
436,61,42485,1,0,0:0:0:0:
357,48,43092,1,0,0:0:0:0:
305,109,43698,6,0,L|337:203,1,100
413,179,44912,2,0,L|397:131,2,50
464,240,46125,6,0,P|517:292|425:308,1,200
384,252,47945,1,0,0:0:0:0:
342,183,48552,6,0,P|302:153|253:152,1,100
277,228,49765,2,0,L|248:298,2,50
253,152,50978,5,0,0:0:0:0:
339,34,52798,1,0,0:0:0:0:
362,110,53405,6,0,P|312:109|273:79,1,100
195,61,54618,6,0,P|220:18|266:0,2,100
221,136,56438,1,0,0:0:0:0:
76,67,57652,1,0,0:0:0:0:
59,145,58258,5,0,0:0:0:0:
174,255,59472,2,0,L|143:185,2,50
246,288,60685,5,0,0:0:0:0:
181,335,61291,1,0,0:0:0:0:
115,381,61898,1,0,0:0:0:0:
106,301,62505,1,0,0:0:0:0:
26,311,63111,6,0,B|26:207|145:196|179:271|179:271|238:128,1,350
101,130,66145,1,0,0:0:0:0:
371,157,66751,6,0,L|237:115,1,100
197,109,67965,6,0,L|515:153,1,300
450,83,70391,6,0,L|345:171,1,100
180,181,71605,1,0,0:0:0:0:
50,190,72211,1,0,0:0:0:0:
141,83,72818,6,0,P|301:96|136:185,1,420
86,121,75245,6,0,P|254:140|94:224,1,420
115,113,77671,6,0,P|369:85|404:217,1,420
266,193,80098,6,0,L|107:195,1,140
146,127,81008,1,0,0:0:0:0:
8,155,81615,2,0,L|126:121,2,70
69,120,82525,6,0,L|224:99,1,140
80,164,83738,1,0,0:0:0:0:
80,164,84951,5,0,0:0:0:0:
80,164,85558,1,0,0:0:0:0:
176,62,86165,2,0,L|279:135,1,70
104,158,87075,6,0,L|198:193,1,70
27,160,89805,6,0,L|211:151,1,140
35,201,91018,2,0,L|163:194,1,70
104,197,91928,6,0,L|213:177,1,70
114,132,94658,5,0,0:0:0:0:
10,160,95265,2,0,L|128:160,2,70
142,113,96478,1,0,0:0:0:0:
69,232,97085,6,0,L|192:186,2,70
81,104,99512,6,0,L|201:105,2,105
116,163,100725,1,0,0:0:0:0:
46,117,101938,5,0,0:0:0:0:
166,177,102545,1,0,0:0:0:0:
45,116,103152,1,0,0:0:0:0:
234,148,103986,6,0,L|394:131,1,140
237,150,105198,1,0,0:0:0:0:
93,175,105804,1,0,0:0:0:0:
52,162,106410,6,0,L|270:136,1,210
56,188,108228,1,0,0:0:0:0:
22,155,108834,6,0,L|168:137,1,140
101,11,110046,2,0,L|190:54,2,70
125,163,111258,5,0,0:0:0:0:
146,128,113076,1,0,0:0:0:0:
8,152,113682,6,0,L|170:136,1,140
63,250,114895,2,0,L|112:184,2,70
37,112,116107,6,0,L|181:68,1,140
43,149,117925,1,0,0:0:0:0:
172,96,118531,5,0,0:0:0:0:
256,192,118834,12,0,120955,0:0:0:0:
84,135,123379,6,0,L|372:120,1,280
246,157,125198,1,0,0:0:0:0:
106,149,125804,6,0,L|561:66,1,420
380,92,128228,6,0,L|57:142,1,280
16,234,130046,1,0,0:0:0:0:
122,142,130652,6,0,L|399:138,1,245
215,50,132470,1,0,0:0:0:0:
121,154,133076,6,0,L|417:146,1,280
270,156,134895,1,0,0:0:0:0:
130,166,135501,6,0,P|159:76|426:133,1,420
256,192,137925,12,0,140349,0:0:0:0:
69,120,142773,6,0,L|224:99,1,140
80,164,143986,1,0,0:0:0:0:
80,164,145199,5,0,0:0:0:0:
80,164,145806,1,0,0:0:0:0:
176,62,146413,2,0,L|279:135,1,70
104,158,147323,6,0,L|198:193,1,70
27,160,150053,6,0,L|211:151,1,140
35,201,151266,2,0,L|163:194,1,70
104,197,152176,6,0,L|213:177,1,70
114,132,154906,5,0,0:0:0:0:
10,160,155513,2,0,L|128:160,2,70
142,113,156726,1,0,0:0:0:0:
69,232,157333,6,0,L|192:186,2,70
81,104,159760,6,0,L|201:105,2,105
116,163,160973,1,0,0:0:0:0:
69,120,162186,6,0,L|224:99,1,140
80,164,163399,1,0,0:0:0:0:
80,164,164612,5,0,0:0:0:0:
80,164,165219,1,0,0:0:0:0:
176,62,165826,2,0,L|279:135,1,70
104,158,166736,6,0,L|198:193,1,70
27,160,169466,6,0,L|211:151,1,140
35,201,170679,2,0,L|163:194,1,70
104,197,171589,6,0,L|213:177,1,70
114,132,174319,5,0,0:0:0:0:
10,160,174926,2,0,L|128:160,2,70
142,113,176139,1,0,0:0:0:0:
69,232,176746,6,0,L|192:186,2,70
81,104,179173,6,0,L|201:105,2,105
116,163,180386,1,0,0:0:0:0:
46,117,181599,5,0,0:0:0:0:
119,101,182206,1,0,0:0:0:0:
119,101,182813,1,0,0:0:0:0:
25,147,183723,6,0,L|179:119,1,140
93,110,184936,2,0,L|208:108,2,70
112,188,186149,5,0,0:0:0:0:
112,188,186756,1,0,0:0:0:0:
112,188,187969,1,0,0:0:0:0:
127,119,188576,6,0,L|279:38,1,140
192,92,189789,2,0,L|157:162,2,70
126,112,191003,5,0,0:0:0:0:
69,130,191609,1,0,0:0:0:0:
69,130,192823,1,0,0:0:0:0:
124,87,193429,6,0,L|273:61,1,140
206,106,194643,2,0,L|297:142,2,70
170,156,195856,5,0,0:0:0:0:
124,209,196463,1,0,0:0:0:0:
124,209,197676,1,0,0:0:0:0:
109,140,198283,6,0,L|270:148,1,140
179,157,199496,1,0,0:0:0:0:
109,167,200103,1,0,0:0:0:0:
109,167,200709,6,0,L|265:143,1,140
177,149,201923,1,0,0:0:0:0:
152,174,202226,2,0,L|199:245,1,70
256,192,203439,12,0,207079,0:0:0:0:
