osu file format v14

[General]
AudioFilename: audio.mp3
AudioLeadIn: 0
PreviewTime: 82525
Countdown: 0
SampleSet: None
StackLeniency: 0.9
Mode: 0
LetterboxInBreaks: 0
WidescreenStoryboard: 0

[Editor]
Bookmarks: 24263,60626,123353
DistanceSpacing: 2.1
BeatDivisor: 4
GridSize: 16
TimelineZoom: 1.050002

[Metadata]
Title:Black & Blue
TitleUnicode:Black & Blue
Artist:Ghost Pavilion
ArtistUnicode:Ghost Pavilion
Creator:Saltssaumure
Version:Blue
Source:
Tags:traces pop soul dream synthwave experimental los angeles and inatersi
BeatmapID:1403108
BeatmapSetID:662895

[Difficulty]
HPDrainRate:6
CircleSize:4.2
OverallDifficulty:7
ApproachRate:8
SliderMultiplier:1.4
SliderTickRate:1

[Events]
//Background and Video events
0,0,"bg.jpg",0,0
//Break Periods
//Storyboard Layer 0 (Background)
//Storyboard Layer 1 (Fail)
//Storyboard Layer 2 (Pass)
//Storyboard Layer 3 (Foreground)
//Storyboard Sound Samples

[TimingPoints]
2445,606.673407482305,4,3,1,50,1,0
82525,-100,4,3,1,60,0,1
102242,-100,4,3,2,30,0,0
102546,-100,4,3,2,20,0,0
102849,-100,4,3,2,10,0,0
103152,-100,4,3,2,5,0,0
103986,606.673407482305,4,3,1,50,1,0
122792,-100,4,3,1,60,0,0
123096,-100,4,3,1,70,0,0
123399,-100,4,3,1,50,0,0
124309,-100,4,3,1,20,0,0
124461,-100,4,3,1,30,0,0
125219,-100,4,3,1,50,0,0
126736,-100,4,3,1,20,0,0
126887,-100,4,3,1,30,0,0
127646,-100,4,3,1,50,0,0
129162,-100,4,3,1,20,0,0
129314,-100,4,3,1,30,0,0
130072,-100,4,3,1,50,0,0
134016,-100,4,3,1,20,0,0
134168,-100,4,3,1,30,0,0
134926,-100,4,3,1,50,0,0
136443,-100,4,3,1,30,0,0
136594,-100,4,3,1,40,0,0
136746,-100,4,3,1,50,0,0
137049,-100,4,3,1,60,0,0
137201,-100,4,3,1,60,0,0
137353,-100,4,3,1,70,0,0
137656,-100,4,3,1,80,0,0
137808,-100,4,3,1,90,0,0
137959,-100,4,3,1,100,0,0
140386,-100,4,3,1,50,0,0
142813,-100,4,3,1,60,0,1
161619,-100,4,3,1,50,0,0
162226,-100,4,3,1,60,0,1
181943,-100,4,3,2,30,0,0
182246,-100,4,3,2,20,0,0
182550,-100,4,3,2,10,0,0
182853,-100,4,3,2,5,0,0
183723,606.673407482305,4,3,1,50,1,0
202302,-100,4,3,1,20,0,0
202529,-100,4,3,1,50,0,0
202605,-100,4,3,1,20,0,0
202833,-100,4,3,1,50,0,0
203439,606.673407482305,4,3,2,30,1,0
204045,-100,4,3,2,20,0,0
204652,-100,4,3,2,15,0,0
205259,-100,4,3,2,10,0,0
205865,-100,4,3,2,5,0,0

[Colours]
Combo1 : 0,0,191
Combo2 : 0,0,255
Combo3 : 64,64,255
Combo4 : 128,128,255
Combo5 : 191,191,255
Combo6 : 128,128,255
Combo7 : 64,64,255
Combo8 : 0,0,255

[HitObjects]
53,255,2445,6,0,P|71:304|142:323,1,105,2|0,0:0|0:1,0:1:0:0:
189,329,3051,1,0,0:1:0:0:
193,325,3658,1,0,0:1:0:0:
197,321,4265,1,0,0:1:0:0:
201,317,4871,6,0,P|146:307|110:259,1,105,2|0,0:0|0:0,0:0:0:0:
98,199,5478,1,0,0:1:0:0:
102,195,6085,1,0,0:1:0:0:
138,52,6388,2,0,P|103:45|69:51,1,70,0|0,0:1|0:1,0:1:0:0:
65,54,7298,6,0,P|80:97|150:124,1,105,2|0,0:0|0:0,0:0:0:0:
203,120,7905,1,0,0:1:0:0:
207,116,8511,1,0,0:1:0:0:
211,112,9118,1,0,0:1:0:0:
215,108,9725,6,0,P|260:132|277:180,1,105,2|0,0:0|0:0,0:0:0:0:
254,250,10331,1,0,0:1:0:0:
250,254,10938,1,0,0:1:0:0:
117,318,11241,2,0,P|133:350|161:371,1,70,0|0,0:1|0:1,0:1:0:0:
165,375,12151,6,0,P|207:334|269:335,1,105,2|0,0:0|0:0,0:0:0:0:
321,351,12758,1,0,0:1:0:0:
325,355,13365,1,0,0:1:0:0:
329,359,13971,1,0,0:1:0:0:
333,363,14578,6,0,P|385:347|409:294,1,105,2|0,0:0|0:0,0:0:0:0:
406,231,15185,1,0,0:1:0:0:
402,227,15791,1,0,0:1:0:0:
279,144,16095,2,0,P|301:116|330:97,1,70,0|0,0:1|0:1,0:1:0:0:
335,102,17005,6,0,B|380:156|380:156|412:149|441:164,1,105,2|0,0:0|0:0,0:0:0:0:
472,200,17611,1,0,0:1:0:0:
476,204,18218,1,0,0:1:0:0:
480,208,18825,2,0,P|492:250|479:297,1,70,0|0,0:1|0:1,0:1:0:0:
352,330,19431,6,0,B|316:307|310:274|310:274|277:280|250:258,1,105,2|0,0:0|0:0,0:0:0:0:
209,243,20038,1,0,0:1:0:0:
331,162,20341,1,0,0:1:0:0:
168,116,20645,1,0,0:1:0:0:
164,112,21251,1,0,0:1:0:0:
164,112,21858,6,0,B|122:121|105:150|105:150|76:133|43:144,1,105,2|0,0:0|0:0,0:0:0:0:
1,153,22465,1,0,0:1:0:0:
45,297,22768,1,0,0:1:0:0:
170,188,23071,2,0,P|182:221|169:254,1,70,0|0,0:1|0:1,0:1:0:0:
166,256,23678,1,4,0:0:0:0:
162,260,24285,6,0,P|178:304|230:331,1,105,2|0,0:0|0:0,0:0:0:0:
235,257,24891,1,0,0:1:0:0:
206,112,25195,1,0,0:1:0:0:
356,132,25498,1,0,0:1:0:0:
191,198,25801,2,0,P|170:224|162:258,2,70,0|0|0,0:1|0:1|0:1,0:1:0:0:
352,128,26711,6,0,P|344:81|297:46,1,105,2|0,0:0|0:0,0:0:0:0:
280,117,27318,1,0,0:1:0:0:
338,251,27621,1,0,0:1:0:0:
425,132,27925,1,0,0:1:0:0:
429,136,28531,1,0,0:1:0:0:
433,140,29138,6,0,P|426:190|388:224,1,105,2|0,0:0|0:0,0:0:0:0:
361,155,29745,1,0,0:1:0:0:
408,11,30048,1,0,0:1:0:0:
242,38,30351,1,0,0:1:0:0:
390,87,30655,2,0,P|418:108|433:140,1,70,0|0,0:1|0:1,0:1:0:0:
315,227,31261,1,0,0:1:0:0:
217,116,31565,6,0,P|165:123|131:172,1,105,2|0,0:0|0:0,0:0:0:0:
202,188,32171,1,0,0:1:0:0:
322,103,32475,1,0,0:1:0:0:
186,47,32778,1,0,0:1:0:0:
182,43,33385,1,0,0:1:0:0:
178,39,33992,5,2,0:0:0:0:
110,169,34295,1,0,0:1:0:0:
88,151,34447,1,0,0:1:0:0:
66,133,34598,1,0,0:1:0:0:
0,258,34902,1,0,0:1:0:0:
133,188,35205,1,0,0:1:0:0:
78,326,35508,1,0,0:1:0:0:
232,260,35812,2,0,P|255:233|264:200,1,70
203,43,36418,5,2,0:0:0:0:
353,75,36722,1,0,0:1:0:0:
379,84,36873,1,0,0:1:0:0:
401,100,37025,2,0,P|422:130|423:172,1,70,0|0,0:1|0:1,0:1:0:0:
303,273,37632,1,0,0:1:0:0:
307,277,38238,2,0,P|347:280|370:304,1,70,0|0,0:1|0:1,0:1:0:0:
493,380,38845,6,0,P|518:332|501:263,1,105,2|0,0:0|0:0,0:0:0:0:
469,223,39452,1,0,0:1:0:0:
348,319,39755,1,0,0:1:0:0:
321,153,40058,1,0,0:1:0:0:
317,157,40665,1,0,0:1:0:0:
192,269,40968,1,0,0:1:0:0:
57,370,41272,5,2,0:0:0:0:
47,216,41575,1,0,0:1:0:0:
58,190,41726,1,0,0:1:0:0:
78,170,41878,1,0,0:1:0:0:
227,132,42182,1,0,0:1:0:0:
74,62,42485,1,0,0:1:0:0:
78,66,43092,1,0,0:1:0:0:
239,19,43395,1,0,0:1:0:0:
395,55,43698,6,0,P|376:25|303:4,1,105,2|0,0:0|0:0,0:0:0:0:
324,75,44305,1,0,0:1:0:0:
447,153,44608,1,0,0:1:0:0:
453,9,44912,1,0,0:1:0:0:
324,75,45215,1,0,0:1:0:0:
371,213,45518,2,0,P|339:226|304:226,1,70,0|0,0:1|0:1,0:1:0:0:
249,89,46125,6,0,P|280:139|335:150,1,105,2|0,0:0|0:0,0:0:0:0:
394,139,46732,1,0,0:1:0:0:
330,279,47035,1,0,0:1:0:0:
257,190,47945,5,0,0:1:0:0:
251,181,48552,6,0,P|222:148|146:145,1,105,2|0,0:0|0:0,0:0:0:0:
183,210,49158,1,0,0:1:0:0:
314,276,49462,1,0,0:1:0:0:
299,121,49765,1,0,0:1:0:0:
66,283,50068,2,0,P|53:315|53:350,2,70,0|0|0,0:1|0:1|0:1,0:1:0:0:
165,164,50978,6,0,P|195:202|270:202,1,105,2|0,0:0|0:0,0:0:0:0:
234,140,51585,1,0,0:1:0:0:
114,79,51888,1,0,0:1:0:0:
103,221,52192,1,0,0:1:0:0:
105,227,52798,2,0,P|132:269|162:281,1,70,0|0,0:1|0:1,0:1:0:0:
271,221,53405,6,0,P|328:211|377:245,1,105,2|0,0:0|0:0,0:0:0:0:
314,284,54012,1,0,0:1:0:0:
190,311,54315,1,0,0:1:0:0:
96,224,54618,1,0,0:1:0:0:
117,101,54922,1,0,0:1:0:0:
239,24,55225,2,0,P|255:60|251:95,1,70,0|0,0:1|0:1,0:1:0:0:
179,212,55832,6,0,P|208:262|257:278,1,105,2|0,0:0|0:0,0:0:0:0:
320,258,56438,1,0,0:1:0:0:
413,159,56742,1,0,0:1:0:0:
277,128,57045,1,0,0:1:0:0:
283,133,57652,2,0,P|328:155|356:151,1,70,0|0,0:1|0:1,0:1:0:0:
463,64,58258,6,0,P|493:106|499:160,1,105,2|0,0:0|0:0,0:0:0:0:
404,247,58865,1,0,0:1:0:0:
235,218,59168,1,0,0:1:0:0:
389,142,59472,1,0,0:1:0:0:
309,291,59775,1,8,0:1:0:0:
285,123,60078,1,8,0:1:0:0:
149,216,60382,1,8,0:1:0:0:
174,377,60685,5,2,0:0:0:0:
60,286,60988,1,0,0:1:0:0:
41,260,61140,1,0,0:1:0:0:
33,235,61292,1,0,0:1:0:0:
52,92,61595,1,0,0:1:0:0:
117,32,61898,2,0,P|159:34|184:71,1,70,0|0,0:1|0:1,0:1:0:0:
189,69,62353,1,0,0:1:0:0:
199,86,62505,2,0,P|226:106|261:106,1,70,0|0,0:1|0:1,0:1:0:0:
330,66,63112,6,0,P|509:170|293:162,1,560,4|4,0:1|0:1,2:0:0:0:
295,176,66145,2,0,P|266:141|214:138,1,70,0|0,0:1|0:1,0:1:0:0:
134,156,66752,1,0,0:1:0:0:
138,166,67359,1,0,0:1:0:0:
141,176,67965,6,0,P|38:264|89:109,1,420,4|0,0:1|0:1,2:1:0:0:
92,109,70392,6,0,P|140:65|80:77,1,140,6|0,0:0|0:1,2:1:0:0:
0,126,71302,1,0,0:1:0:0:
126,208,71605,1,0,0:1:0:0:
118,211,72212,1,0,0:1:0:0:
109,214,72819,6,0,P|65:251|50:287,1,70,6|0,0:0|0:1,0:1:0:0:
115,360,73425,2,0,P|119:325|135:294,1,70,0|0,0:1|0:1,0:1:0:0:
155,277,73880,1,0,0:1:0:0:
180,266,74032,2,0,P|214:260|247:268,1,70,0|0,0:1|0:1,0:1:0:0:
353,359,74639,1,0,0:1:0:0:
349,355,75245,6,0,P|320:305|318:266,1,70,2|0,0:0|0:0,0:0:0:0:
402,207,75851,2,0,P|393:241|398:275,1,70,0|0,0:1|0:1,0:1:0:0:
405,293,76306,1,0,0:1:0:0:
417,310,76458,2,0,P|444:332|476:342,1,70,0|0,0:1|0:1,0:1:0:0:
510,238,77065,1,0,0:1:0:0:
509,230,77672,6,0,P|472:186|436:171,1,70,2|0,0:0|0:0,0:0:0:0:
360,229,78278,2,0,P|345:196|344:161,1,70,0|0,0:1|0:1,0:1:0:0:
349,138,78734,1,0,0:1:0:0:
361,117,78885,2,0,P|383:90|414:75,1,70,0|0,0:1|0:1,0:1:0:0:
280,42,79492,1,0,0:1:0:0:
344,162,79795,2,0,P|320:176|284:178,1,35,0|0,0:1|0:1,0:1:0:0:
182,109,80099,6,0,P|162:163|167:201,1,70,2|0,3:0|3:0,3:0:0:0:
276,175,80705,2,0,P|285:231|309:262,1,70,0|0,3:1|3:1,3:1:0:0:
455,335,81312,1,0,0:1:0:0:
451,135,81615,1,8,0:1:0:0:
298,330,81919,1,8,0:1:0:0:
311,254,82070,1,8,0:1:0:0:
326,119,82525,6,0,B|329:84|314:50|314:50|259:21,1,105,2|0,0:0|0:0,0:0:0:0:
219,10,83132,1,0,0:1:0:0:
27,12,83435,1,0,0:1:0:0:
61,172,83739,1,0,0:1:0:0:
182,113,84042,1,8,0:1:0:0:
98,342,84345,1,8,0:1:0:0:
240,205,84649,2,0,P|265:183|291:178,1,35,0|0,0:1|0:1,0:1:0:0:
282,173,84952,6,0,P|320:144|305:66,1,105,2|0,0:0|0:0,0:0:0:0:
273,59,85559,2,0,P|271:109|232:142,1,105,0|0,0:1|0:1,0:1:0:0:
185,113,86165,2,0,P|220:84|230:47,2,70,0|8|8,0:1|0:1|0:1,0:1:0:0:
57,153,87075,1,0,0:1:0:0:
281,326,87379,6,0,B|316:329|350:314|350:314|379:259,1,105,2|0,0:0|0:0,0:0:0:0:
399,216,87986,1,0,0:1:0:0:
388,27,88289,1,0,0:1:0:0:
228,61,88591,1,0,0:1:0:0:
287,182,88896,1,8,0:1:0:0:
58,98,89199,1,8,0:1:0:0:
185,223,89502,2,0,P|206:248|211:274,1,35,0|0,0:1|0:1,0:1:0:0:
218,271,89805,6,0,P|216:321|177:354,1,105,2|0,0:0|0:0,0:0:0:0:
125,322,90412,2,0,P|165:290|167:240,1,105,0|0,0:1|0:1,0:1:0:0:
122,243,91018,2,0,P|107:274|79:294,2,70,0|8|8,0:1|0:1|0:1,0:1:0:0:
77,99,91929,1,0,0:1:0:0:
244,214,92232,6,0,B|272:234|309:238|309:238|362:204,1,105,2|0,0:0|0:0,0:0:0:0:
394,178,92839,1,0,0:1:0:0:
405,50,93142,1,0,0:1:0:0:
235,7,93446,1,0,0:1:0:0:
241,12,94052,2,0,P|280:35|328:23,1,70,8|0,0:1|0:1,0:1:0:0:
483,19,94659,6,0,B|503:47|507:84|507:84|473:137,1,105,2|0,0:0|0:0,0:0:0:0:
450,171,95266,1,0,0:1:0:0:
408,251,95569,1,0,0:1:0:0:
375,156,95872,1,0,0:1:0:0:
333,285,96176,1,8,0:1:0:0:
282,143,96479,1,8,0:1:0:0:
285,148,97086,6,0,P|295:172|286:198,3,35,2|0|0|0,0:0|0:0|0:0|0:0,0:0:0:0:
261,246,97692,1,0,0:1:0:0:
138,336,97996,1,0,0:1:0:0:
3,254,98299,1,0,0:1:0:0:
2,261,98906,1,8,0:1:0:0:
3,268,99512,6,0,B|5:302|26:333|26:333|86:351,1,105,2|0,0:0|0:0,0:0:0:0:
132,346,100119,1,0,0:1:0:0:
232,219,100422,1,0,0:1:0:0:
107,93,100726,2,0,P|163:46|245:49,1,140,0|0,0:1|0:1,0:1:0:0:
233,45,101939,5,6,0:0:0:0:
256,192,102242,12,0,103455,0:1:0:0:
423,375,103986,6,0,P|467:359|494:307,1,105,2|0,0:0|0:0,0:0:0:0:
419,301,104593,1,0,0:1:0:0:
414,297,105200,1,0,0:1:0:0:
287,194,105503,1,0,0:1:0:0:
277,88,105806,2,0,P|238:98|208:127,1,70,0|0,0:1|0:1,0:1:0:0:
161,294,106413,6,0,P|115:271|96:224,1,105,2|8,0:0|0:1,0:0:0:0:
170,220,107020,1,0,0:1:0:0:
78,82,107323,1,0,0:1:0:0:
256,192,108233,2,0,P|279:159|317:140,1,70,0|0,0:1|0:1,0:1:0:0:
442,79,108840,6,0,P|486:63|513:11,1,105,2|0,0:0|0:0,0:0:0:0:
438,5,109447,1,0,0:1:0:0:
363,114,109750,1,0,0:1:0:0:
353,259,110053,1,0,0:1:0:0:
244,163,110357,1,0,0:1:0:0:
102,136,110660,2,0,P|99:177|110:218,1,70,0|0,0:1|0:1,0:1:0:0:
241,237,111267,6,0,P|197:221|170:169,1,105,2|0,0:0|0:0,0:0:0:0:
244,163,111873,1,0,0:1:0:0:
386,239,112177,1,0,0:1:0:0:
254,315,112480,1,0,0:1:0:0:
247,314,113087,1,0,0:1:0:0:
96,190,113390,1,0,0:1:0:0:
40,352,113693,6,0,P|70:316|67:257,1,105,2|0,0:0|0:0,0:0:0:0:
0,289,114300,1,0,0:1:0:0:
160,346,114603,1,0,0:1:0:0:
127,180,114907,1,0,0:1:0:0:
0,193,115210,2,0,P|2:147|23:111,2,70,0|0|0,0:1|0:1|0:1,0:1:0:0:
60,298,116120,6,0,P|95:328|154:325,1,105,2|0,0:0|0:0,0:0:0:0:
123,258,116727,1,0,0:1:0:0:
11,125,117030,1,0,0:1:0:0:
142,17,117333,1,0,0:1:0:0:
252,147,117940,2,0,P|223:171|182:179,1,70,0|0,0:1|0:1,0:1:0:0:
54,108,118547,6,0,P|26:151|34:202,1,105,2|0,0:0|0:0,0:0:0:0:
99,167,119153,1,0,0:1:0:0:
156,17,119457,1,0,0:1:0:0:
3,48,119760,1,0,0:1:0:0:
4,56,120367,1,0,0:1:0:0:
4,62,120973,6,0,P|20:105|71:133,1,105,2|0,0:0|0:0,0:0:0:0:
82,59,121580,1,0,0:1:0:0:
59,206,121883,1,0,0:1:0:0:
204,23,122187,5,0,0:1:0:0:
180,183,122490,1,0,0:1:0:0:
185,204,122642,1,0,0:1:0:0:
195,224,122793,1,0,0:1:0:0:
215,246,122945,1,0,0:1:0:0:
251,264,123097,1,0,0:1:0:0:
300,262,123248,1,0,0:1:0:0:
356,244,123400,6,0,B|315:281|319:338|319:338|339:320|364:313,1,140,4|0,0:1|0:0,0:0:0:0:
483,247,124310,1,0,0:1:0:0:
475,211,124462,1,0,0:1:0:0:
456,177,124613,2,0,B|432:142|378:136,1,70,0|0,0:1|0:1,0:1:0:0:
248,143,125220,2,0,B|244:86|285:49,1,105,0|0,0:1|0:1,0:1:0:0:
303,27,125827,6,0,B|340:68|397:64|397:64|370:78|347:97,1,140,2|0,0:0|0:1,0:1:0:0:
271,154,126737,1,0,0:1:0:0:
258,187,126888,1,0,0:1:0:0:
259,228,127040,2,0,B|262:270|306:302,1,70,0|0,0:1|0:1,0:1:0:0:
438,364,127647,1,0,0:1:0:0:
444,358,128253,6,0,B|485:321|481:264|481:264|461:282|436:289,1,140,4|0,0:1|0:1,0:1:0:0:
349,315,129163,1,0,0:1:0:0:
310,324,129315,1,0,0:1:0:0:
275,322,129467,2,0,P|238:307|209:273,1,70,0|0,0:1|0:1,0:1:0:0:
212,138,130073,2,0,B|151:140|112:206,1,105,0|0,0:1|0:1,0:1:0:0:
148,193,130680,6,0,B|185:152|242:156|242:156|215:142|192:123,1,140,2|0,0:0|0:0,0:0:0:0:
0,30,131590,1,0,0:1:0:0:
21,43,131742,1,0,0:1:0:0:
47,62,131893,2,0,P|79:118|34:198,1,140,0|0,0:1|0:1,2:1:0:0:
50,190,133107,6,0,B|9:227|13:284|13:284|33:266|58:259,1,140,2|0,0:0|0:1,2:1:0:0:
163,227,134017,1,0,0:1:0:0:
200,231,134168,1,0,0:1:0:0:
230,244,134320,2,0,P|259:270|260:318,1,70,0|0,0:1|0:1,0:1:0:0:
294,154,134927,2,0,P|302:187|329:209,1,70,0|0,0:1|0:1,0:1:0:0:
472,171,135533,6,0,B|435:130|378:134|378:134|405:120|428:101,1,140,2|0,0:0|0:1,0:1:0:0:
482,33,136443,1,0,0:1:0:0:
453,11,136595,1,0,0:1:0:0:
415,0,136747,1,0,0:1:0:0:
316,76,137050,1,0,0:1:0:0:
263,60,137202,1,0,0:1:0:0:
206,59,137353,1,0,0:1:0:0:
197,198,137657,1,0,0:1:0:0:
130,224,137809,1,0,0:1:0:0:
91,282,137960,5,2,0:0:0:0:
243,339,138264,1,0,0:1:0:0:
72,167,138567,1,0,0:1:0:0:
253,248,138870,1,0,0:1:0:0:
128,55,139174,1,0,0:1:0:0:
289,146,139477,1,0,0:1:0:0:
243,26,139780,1,0,0:1:0:0:
249,31,140387,6,0,P|306:65|394:49,1,140,4|0,0:1|0:1,0:1:0:0:
510,0,141297,1,0,0:1:0:0:
480,109,141600,2,0,L|443:144,1,35,0|0,0:1|0:1,0:1:0:0:
378,176,141904,2,0,L|413:212,1,35,0|0,0:1|0:1,0:1:0:0:
460,260,142207,2,0,L|435:285,1,35,0|0,0:1|0:1,0:1:0:0:
334,292,142510,2,0,L|358:317,1,35,0|0,0:1|0:1,0:1:0:0:
480,364,142814,6,0,B|427:317|427:317|441:282|432:253,1,105,4|0,0:1|0:1,0:1:0:0:
411,212,143420,1,0,0:1:0:0:
328,127,143724,1,0,0:1:0:0:
214,92,144027,1,0,0:1:0:0:
75,112,144330,1,0,0:1:0:0:
307,0,144634,1,8,0:1:0:0:
195,197,144937,1,0,0:1:0:0:
326,105,145240,6,0,B|273:151|273:151|287:186|278:215,1,105,2|0,0:0|0:0,0:0:0:0:
311,252,145847,2,0,B|364:205|364:205|350:170|359:141,1,105,0|0,0:1|0:1,0:1:0:0:
397,114,146454,2,0,P|386:66|353:38,2,70,0|8|8,0:1|0:1|0:1,0:1:0:0:
300,275,147364,1,0,0:1:0:0:
105,296,147667,5,2,0:1:0:0:
32,92,147970,1,0,0:1:0:0:
54,74,148122,1,0,0:1:0:0:
85,61,148274,1,0,0:1:0:0:
131,204,148577,1,0,0:1:0:0:
268,34,148880,1,0,0:1:0:0:
319,41,149032,1,0,0:1:0:0:
358,80,149184,1,0,0:1:0:0:
207,271,149487,1,8,0:1:0:0:
200,281,150094,6,0,B|153:334|153:334|118:320|89:329,1,105,2|0,0:0|0:0,0:0:0:0:
93,280,150700,2,0,B|92:275|127:289|127:289|174:236,1,105,0|0,0:1|0:1,0:1:0:0:
150,194,151307,2,0,B|105:246,1,70,0|8,0:1|0:1,0:1:0:0:
12,354,151914,1,8,0:1:0:0:
198,145,152217,1,0,0:1:0:0:
193,365,152520,6,0,B|199:365|179:333|179:333|223:278,1,105,2|0,0:0|0:0,0:0:0:0:
333,147,153127,1,8,0:1:0:0:
198,145,153430,1,0,0:1:0:0:
321,7,153734,1,0,0:1:0:0:
316,12,154340,2,0,P|283:33|248:30,1,70,8|0,0:1|0:1,0:1:0:0:
118,0,154947,6,0,B|182:25|182:25|181:56|197:73,1,105,2|0,0:0|0:0,0:0:0:0:
237,112,155554,1,8,0:1:0:0:
369,138,155857,1,0,0:1:0:0:
499,82,156160,1,0,0:1:0:0:
406,244,156464,1,8,0:1:0:0:
323,2,156767,1,8,0:1:0:0:
319,8,157374,6,0,L|294:51,3,35,2|0|0|0,0:0|0:0|0:0|0:0,0:0:0:0:
265,97,157980,1,8,0:1:0:0:
292,217,158284,1,0,0:1:0:0:
418,195,158587,1,0,0:1:0:0:
413,204,159194,1,8,0:1:0:0:
409,215,159800,6,0,P|457:249|474:303,2,105,2|0|0,0:0|0:0|0:0,0:0:0:0:
173,330,161014,1,0,0:1:0:0:
165,333,161620,1,8,0:1:0:0:
159,338,162227,6,0,B|130:338|109:327|109:327|109:302|125:275,1,105,2|0,0:0|0:0,0:0:0:0:
162,212,162834,1,0,0:1:0:0:
33,237,163137,1,0,0:1:0:0:
116,109,163440,2,0,P|157:96|198:118,1,70,0|0,0:1|0:1,0:1:0:0:
42,346,164047,1,8,0:1:0:0:
176,327,164350,2,0,P|196:305|197:274,1,35,0|0,0:1|0:1,0:1:0:0:
220,233,164654,6,0,B|225:202|216:179|216:179|193:175|166:185,1,105,2|0,0:0|0:0,0:0:0:0:
100,213,165260,2,0,B|73:223|50:219|50:219|41:196|46:165,1,105,0|0,0:1|0:1,0:1:0:0:
75,100,165867,1,0,0:1:0:0:
242,30,166170,1,8,0:1:0:0:
507,125,166474,1,8,0:1:0:0:
512,131,167080,6,0,B|522:157|518:180|518:180|495:189|464:184,1,105,2|0,0:0|0:0,0:0:0:0:
405,133,167687,1,0,0:1:0:0:
479,271,167991,1,0,0:1:0:0:
300,112,168294,1,0,0:1:0:0:
251,112,168446,1,0,0:1:0:0:
203,136,168597,1,0,0:1:0:0:
276,209,168901,2,0,P|335:207|355:191,1,70,8|0,0:1|0:1,0:1:0:0:
473,115,169507,6,0,B|453:138|429:146|429:146|412:131|402:104,1,105,2|0,0:0|0:0,0:0:0:0:
374,33,170114,2,0,B|364:5|346:-9|346:-9|323:-1|303:22,1,105,0|0,0:1|0:1,0:1:0:0:
263,87,170721,1,0,0:1:0:0:
363,313,171024,1,8,0:1:0:0:
118,133,171327,1,8,0:1:0:0:
246,284,171631,1,0,0:1:0:0:
192,105,171934,6,0,B|216:125|224:148|224:148|209:166|182:176,1,105,2|0,0:0|0:0,0:0:0:0:
107,186,172541,1,0,0:1:0:0:
0,92,172844,1,0,0:1:0:0:
206,0,173147,1,0,0:1:0:0:
211,6,173754,2,0,P|231:43|222:83,1,70,8|0,0:1|0:1,0:1:0:0:
157,215,174361,6,0,B|152:243|160:265|160:265|184:269|213:259,1,105,2|0,0:0|0:0,0:0:0:0:
277,217,174967,1,0,0:1:0:0:
72,101,175271,1,0,0:1:0:0:
68,319,175574,1,0,0:1:0:0:
137,220,175877,1,0,0:1:0:0:
266,384,176181,1,0,0:1:0:0:
275,381,176787,5,2,0:0:0:0:
299,367,176939,1,0,0:1:0:0:
332,339,177091,1,0,0:1:0:0:
360,292,177242,1,0,0:1:0:0:
361,225,177394,1,0,0:1:0:0:
239,89,177697,1,0,0:1:0:0:
410,58,178001,1,0,0:1:0:0:
404,66,178607,1,8,0:1:0:0:
401,73,179214,6,0,B|396:101|404:123|404:123|428:127|457:117,1,105,2|0,0:0|0:0,0:0:0:0:
512,72,179821,1,0,0:1:0:0:
439,205,180124,1,0,0:1:0:0:
481,349,180427,1,0,0:1:0:0:
363,298,180731,1,0,0:1:0:0:
225,334,181034,1,0,0:1:0:0:
217,296,181186,1,0,0:1:0:0:
227,259,181337,1,0,0:1:0:0:
349,145,181641,5,2,0:0:0:0:
256,192,181944,12,0,183157,0:1:0:0:
502,101,183723,6,0,P|484:52|413:33,1,105,2|0,0:0|0:0,0:0:0:0:
365,26,184329,1,0,0:1:0:0:
359,28,184936,1,0,0:1:0:0:
447,155,185239,1,0,0:1:0:0:
309,235,185543,1,0,0:1:0:0:
310,227,186149,6,0,P|300:172|252:136,1,105,2|0,0:0|0:0,0:0:0:0:
194,134,186756,1,0,0:1:0:0:
186,136,187363,1,0,0:1:0:0:
179,138,187969,1,0,0:1:0:0:
170,141,188576,6,0,P|132:105|124:54,1,105,2|0,0:0|0:0,0:0:0:0:
176,0,189183,1,0,0:1:0:0:
172,5,189789,1,0,0:1:0:0:
25,113,190093,1,0,0:1:0:0:
180,190,190396,1,0,0:1:0:0:
179,198,191003,6,0,P|155:243|107:260,1,105,2|0,0:0|0:0,0:0:0:0:
36,236,191609,1,0,0:1:0:0:
32,230,192216,1,0,0:1:0:0:
30,224,192823,1,0,0:1:0:0:
28,219,193429,6,0,P|84:234|114:289,1,105,2|0,0:0|0:0,0:0:0:0:
96,346,194036,1,0,0:1:0:0:
98,339,194643,1,0,0:1:0:0:
130,174,194946,1,0,0:1:0:0:
265,280,195249,1,0,0:1:0:0:
268,274,195856,6,0,P|289:223|263:171,1,105,2|0,0:0|0:0,0:0:0:0:
206,141,196463,1,0,0:1:0:0:
198,140,197069,1,0,0:1:0:0:
189,140,197676,1,0,0:1:0:0:
181,139,198283,6,0,B|127:184|127:184|139:211|123:250,1,105,2|0,0:0|0:0,0:0:0:0:
60,212,198889,1,0,0:1:0:0:
21,40,199193,1,0,0:1:0:0:
240,177,199496,1,0,0:1:0:0:
246,181,200103,2,0,P|279:189|314:184,1,70,0|0,0:1|0:1,0:1:0:0:
395,305,200709,6,0,B|350:251|350:251|323:263|284:247,1,105,2|0,0:0|0:0,0:0:0:0:
241,246,201316,1,0,0:1:0:0:
305,68,201619,1,0,0:1:0:0:
119,146,201923,1,0,0:1:0:0:
191,288,202226,2,0,L|197:317,2,17.5,0|0|0,0:1|0:1|0:1,0:1:0:0:
219,222,202529,2,0,L|225:251,2,17.5,0|0|0,0:1|0:1|0:1,0:1:0:0:
250,156,202833,1,2,0:0:0:0:
256,192,203439,12,0,207079,0:1:0:0:
