osu file format v14

[General]
AudioFilename: audio.mp3
AudioLeadIn: 0
PreviewTime: 188087
Countdown: 1
SampleSet: None
StackLeniency: 0.7
Mode: 0
LetterboxInBreaks: 0
WidescreenStoryboard: 0
SamplesMatchPlaybackRate: 1

[Editor]
DistanceSpacing: 1.2
BeatDivisor: 8
GridSize: 8
TimelineZoom: 2.360001

[Metadata]
Title:Maintai Maintai
TitleUnicode:Maintai Maintai
Artist:Ghost Oracle Drive
ArtistUnicode:Ghost Oracle Drive
Creator:EltopoXD
Version:
Source:God Eater Anime OST
Tags:God Eater Ghost Oracle Drive
BeatmapID:1940942
BeatmapSetID:929321

[Difficulty]
HPDrainRate:5
CircleSize:4
OverallDifficulty:5
ApproachRate:6
SliderMultiplier:1.10000000596046
SliderTickRate:1

[Events]
//Background and Video events
0,0,"650460.jpg",0,0
//Break Periods
//Storyboard Layer 0 (Background)
//Storyboard Layer 1 (Fail)
//Storyboard Layer 2 (Pass)
//Storyboard Layer 3 (Foreground)
//Storyboard Sound Samples

[TimingPoints]
0,3529.41176470588,4,1,0,100,1,0
658,218.181818181818,4,1,0,100,1,0
15129,872.352941176471,4,1,0,100,1,0
26920,438.11181818182,4,1,0,100,1,0
98770,-66.6666666666667,4,1,0,100,0,0
113233,872.346612387322,4,1,0,100,1,0
113233,-66.6666666666667,4,1,0,100,0,0
119813,438.112901694767,4,1,0,100,1,0
175802,438.761194029851,4,1,0,100,1,0
189832,438.11181818182,4,1,0,100,1,0
247397,220.731818181818,4,1,0,100,1,0
261711,3482.29831688915,4,1,0,100,1,0

[HitObjects]
224,192,658,5,0,0:0:0:0:
192,184,876,1,0,0:0:0:0:
192,160,1094,1,0,0:0:0:0:
224,144,1312,1,0,0:0:0:0:
192,128,1530,1,0,0:0:0:0:
232,120,1748,1,0,0:0:0:0:
224,96,1967,1,0,0:0:0:0:
256,72,2185,1,0,0:0:0:0:
288,64,2403,21,0,0:0:0:0:
288,64,2621,1,0,0:0:0:0:
288,64,2839,1,0,0:0:0:0:
288,64,3057,1,0,0:0:0:0:
288,64,3276,1,0,0:0:0:0:
288,64,3494,1,0,0:0:0:0:
288,64,3712,1,0,0:0:0:0:
288,64,3930,1,0,0:0:0:0:
288,64,4148,5,0,0:0:0:0:
288,64,4367,1,0,0:0:0:0:
288,128,4585,1,0,0:0:0:0:
288,128,4803,1,0,0:0:0:0:
288,192,5021,1,0,0:0:0:0:
288,192,5239,1,0,0:0:0:0:
384,256,5457,1,0,0:0:0:0:
384,256,5676,1,0,0:0:0:0:
320,256,5894,1,0,0:0:0:0:
320,256,6112,5,0,0:0:0:0:
256,192,6335,1,0,0:0:0:0:
256,192,6548,1,0,0:0:0:0:
256,192,6767,1,0,0:0:0:0:
256,192,6985,5,0,0:0:0:0:
256,192,7217,1,0,0:0:0:0:
256,192,7421,1,0,0:0:0:0:
256,192,7639,5,0,0:0:0:0:
192,160,7857,1,0,0:0:0:0:
192,160,8076,1,0,0:0:0:0:
192,160,8294,1,0,0:0:0:0:
192,160,8512,1,0,0:0:0:0:
192,160,8730,1,0,0:0:0:0:
192,160,8948,1,0,0:0:0:0:
192,160,9167,1,0,0:0:0:0:
256,128,9385,5,0,0:0:0:0:
256,128,9603,1,0,0:0:0:0:
288,128,9821,1,0,0:0:0:0:
288,128,10039,1,0,0:0:0:0:
320,128,10257,1,0,0:0:0:0:
320,128,10476,1,0,0:0:0:0:
352,128,10694,1,0,0:0:0:0:
352,128,10912,1,0,0:0:0:0:
304,192,11130,5,0,0:0:0:0:
304,192,11348,1,0,0:0:0:0:
304,192,11567,1,0,0:0:0:0:
304,192,11785,1,0,0:0:0:0:
304,192,12003,1,0,0:0:0:0:
304,192,12221,1,0,0:0:0:0:
304,192,12439,1,0,0:0:0:0:
304,192,12657,1,0,0:0:0:0:
352,128,12876,5,0,0:0:0:0:
416,160,13203,2,0,P|384:224|288:288,1,183.333334326743
160,256,13857,1,0,0:0:0:0:
128,96,14239,1,0,0:0:0:0:
256,96,14348,1,0,0:0:0:0:
192,160,14457,1,0,0:0:0:0:
192,96,14567,1,0,0:0:0:0:
192,96,14694,2,0,B|81:207|226:273|226:274,1,220.000001192092
256,192,15183,12,0,18182,3:0:0:0:
256,193,18400,5,0,3:0:0:0:
256,192,18618,12,0,21671,3:0:0:0:
256,192,22107,12,0,25161,0:0:0:0:
256,192,25379,5,0,0:0:0:0:
256,192,25597,12,0,26920,0:0:0:0:
224,240,27066,5,0,3:0:0:0:
264,296,27285,1,0,3:0:0:0:
328,304,27504,1,0,3:0:0:0:
328,304,27577,1,0,3:0:0:0:
352,272,27723,1,0,3:0:0:0:
368,208,27942,1,0,3:0:0:0:
320,168,28161,1,0,3:0:0:0:
256,192,28307,2,0,L|233:176,3,27.5000001490115
256,192,28672,2,0,P|208:224|160:208,1,110.000000596046
136,152,29329,2,0,P|152:136|184:136,3,55.000000298023
248,208,30205,2,0,B|272:168|256:144|256:144|289:119,1,110.000000596046
320,108,30753,2,0,L|352:93,4,27.5000001490115
419,74,31301,1,0,0:0:0:0:
422,183,31666,1,0,0:0:0:0:
398,265,31958,2,0,B|371:284|343:289|314:292|301:278,1,96.2500005215402
287,289,32396,1,0,0:0:0:0:
254,292,32505,1,0,0:0:0:0:
221,285,32615,1,0,0:0:0:0:
195,264,32724,1,0,0:0:0:0:
175,237,32834,1,0,0:0:0:0:
157,208,32944,1,0,0:0:0:0:
167,136,33053,2,0,B|219:106|260:137|271:153,1,110.000000596046
325,133,33710,6,0,L|362:190,1,68.7500003725287
336,309,34367,1,0,0:0:0:0:
207,279,34806,1,0,0:0:0:0:
132,325,35134,2,0,P|108:325|44:349,1,82.5000004470345,0|0,0:0|3:0,0:0:0:0:
20,320,35682,2,0,L|24:291,4,27.5000001490115
26,287,36229,5,0,0:0:0:0:
35,255,36339,1,0,0:0:0:0:
76,246,36448,1,0,0:0:0:0:
109,247,36558,1,0,0:0:0:0:
207,232,36887,1,0,0:0:0:0:
208,112,37160,2,0,B|224:112|232:16|248:384|328:-16|296:136|340:184,1,178.750000968575
368,229,38091,1,0,0:0:0:0:
375,294,38310,1,0,0:0:0:0:
325,337,38529,1,0,0:0:0:0:
258,337,38749,1,0,0:0:0:0:
192,341,38968,2,0,B|170:350|144:421|128:213|120:421|64:205|72:349,1,178.750000968575
38,229,40063,5,0,0:0:0:0:
141,281,40446,1,0,0:0:0:0:
138,198,40720,1,0,0:0:0:0:
214,157,40945,1,0,0:0:0:0:
220,69,41268,1,0,0:0:0:0:
317,93,41596,2,0,B|363:106|402:117|419:172|418:205|399:241|363:281|307:274,1,275.000001490115
182,281,43130,5,0,0:0:0:0:
119,259,43349,1,0,0:0:0:0:
103,194,43568,2,0,L|142:152,3,55.000000298023
222,91,44444,2,0,P|272:72|324:89,1,110.000000596046
424,160,45101,1,0,0:0:0:0:
361,180,45320,1,0,0:0:0:0:
294,185,45539,2,0,B|268:197|268:197|253:159,1,68.7500003725287
256,106,45977,1,0,0:0:0:0:
166,77,46196,1,0,0:0:0:0:
100,142,46415,1,0,0:0:0:0:
122,206,46525,1,0,0:0:0:0:
122,206,46635,1,0,0:0:0:0:
122,206,46744,1,0,0:0:0:0:
122,206,46854,1,0,0:0:0:0:
187,240,46963,1,0,0:0:0:0:
241,253,47073,1,0,0:0:0:0:
366,139,47401,1,0,0:0:0:0:
277,94,47730,1,0,0:0:0:0:
144,140,47949,1,0,0:0:0:0:
103,149,48168,1,0,0:0:0:0:
67,169,48387,1,0,0:0:0:0:
59,220,48606,1,0,0:0:0:0:
83,264,48825,1,0,0:0:0:0:
264,304,49190,1,0,0:0:0:0:
322,168,49482,2,0,B|327:195|329:203|332:213|336:228|336:229,2,55.000000298023
401,275,50139,1,0,0:0:0:0:
431,158,50578,1,0,0:0:0:0:
234,99,50797,1,0,0:0:0:0:
350,78,51016,1,0,0:0:0:0:
339,171,51235,6,0,B|265:170|236:185|220:197|193:221|183:242|183:231,1,165.000000894069
161,244,52111,2,0,P|151:253|142:300,4,55.000000298023
135,148,53203,1,0,0:0:0:0:
54,202,53535,1,0,0:0:0:0:
69,290,53863,2,0,B|90:288|105:296|116:309|200:283,1,123.750000670552
228,262,54527,1,0,0:0:0:0:
289,295,54968,1,0,0:0:0:0:
356,321,55409,2,0,B|395:304|397:288|401:280|400:277,1,55.000000298023
418,247,55835,2,0,B|417:245|420:231|424:221|416:198|408:186|394:165|362:148,2,110.000000596046
279,265,57149,2,0,B|245:244|231:234|225:210|234:191|246:174,1,110.000000596046
170,137,58025,5,0,0:0:0:0:
80,232,58464,1,0,0:0:0:0:
336,184,59340,1,0,0:0:0:0:
384,304,59778,1,0,0:0:0:0:
256,344,60216,1,0,0:0:0:0:
353,278,60435,1,0,0:0:0:0:
408,259,60654,1,0,0:0:0:0:
374,236,60873,2,0,B|341:222|307:220|290:206|284:190|267:180,1,110.000000596046
256,128,61530,1,0,0:0:0:0:
328,120,61749,1,0,0:0:0:0:
382,188,61968,5,0,0:0:0:0:
123,223,62407,5,0,0:0:0:0:
179,59,62845,1,0,0:0:0:0:
100,95,63064,1,0,0:0:0:0:
67,177,63283,2,0,B|46:216|42:247|51:268|65:279,2,110.000000596046
160,77,64597,1,0,0:0:0:0:
217,136,65035,1,0,0:0:0:0:
264,58,65473,2,0,B|306:53|333:69|345:93|343:116,2,110.000000596046
180,83,66569,1,0,0:0:0:0:
128,227,67007,1,0,0:0:0:0:
76,323,67226,6,0,B|89:342|181:278|181:278|475:328|475:328|471:302|471:302,1,440.000002384184
401,91,70293,1,0,0:0:0:0:
336,208,70731,1,0,0:0:0:0:
280,88,71169,1,0,0:0:0:0:
224,120,71388,1,0,0:0:0:0:
256,192,71826,6,0,B|207:221|207:221|251:259,1,110.000000596046
312,280,72483,5,0,0:0:0:0:
408,256,72921,1,0,0:0:0:0:
453,172,73140,1,0,0:0:0:0:
320,176,73578,1,0,0:0:0:0:
360,120,73797,1,0,0:0:0:0:
336,56,74017,1,0,0:0:0:0:
272,40,74236,1,0,0:0:0:0:
144,80,74674,1,0,0:0:0:0:
152,137,74893,2,0,P|159:177|220:181,1,110.000000596046,0|0,2:0|1:0,0:0:0:0:
283,182,75550,2,0,B|298:166|291:132|276:119,2,55.000000298023
221,205,76207,5,0,0:0:0:0:
171,235,76426,1,0,0:0:0:0:
141,294,76645,1,0,0:0:0:0:
195,331,76864,1,0,0:0:0:0:
259,342,77083,1,0,0:0:0:0:
314,306,77302,1,0,0:0:0:0:
352,252,77521,1,0,0:0:0:0:
395,202,77740,1,0,0:0:0:0:
309,267,78179,5,0,0:0:0:0:
273,211,78398,1,0,0:0:0:0:
344,104,78836,1,0,0:0:0:0:
392,152,79055,1,0,0:0:0:0:
391,257,79493,1,0,0:0:0:0:
447,189,79931,1,0,0:0:0:0:
400,128,80150,1,0,0:0:0:0:
264,88,80806,1,0,0:0:0:0:
184,96,81026,2,0,B|152:104|136:112|160:128|168:152|152:160|120:168|128:240,1,165.000000894069
170,305,81903,1,0,0:0:0:0:
304,288,82341,5,0,0:0:0:0:
336,232,82560,1,0,0:0:0:0:
328,168,82779,1,0,0:0:0:0:
296,112,82998,1,0,0:0:0:0:
232,120,83217,2,0,L|200:128,1,27.5000001490115
192,192,83545,2,0,L|216:216,1,27.5000001490115
294,247,83874,2,0,L|347:234,3,55.000000298023
392,176,84750,1,0,0:0:0:0:
360,80,85042,1,0,0:0:0:0:
272,56,85407,1,0,0:0:0:0:
400,72,85846,5,0,0:0:0:0:
432,144,86065,1,0,0:0:0:0:
408,224,86284,1,0,0:0:0:0:
352,264,86503,1,0,0:0:0:0:
312,160,86795,1,0,0:0:0:0:
224,112,87160,2,0,B|192:96|192:96|168:112,1,55.000000298023
104,176,87598,1,0,0:0:0:0:
136,288,87817,1,0,0:0:0:0:
240,304,88036,1,0,0:0:0:0:
240,224,88255,1,0,0:0:0:0:
304,272,88693,1,0,0:0:0:0:
360,328,88912,1,0,0:0:0:0:
392,280,89350,1,0,0:0:0:0:
344,192,89569,1,0,0:0:0:0:
248,176,89789,1,0,0:0:0:0:
216,256,90008,1,0,0:0:0:0:
152,192,90373,1,0,0:0:0:0:
176,112,90665,2,0,B|192:96|192:96|208:120|208:120|232:120|240:104|272:128,1,110.000000596046
288,184,91322,1,0,0:0:0:0:
344,152,91541,1,0,0:0:0:0:
280,152,91760,1,0,0:0:0:0:
144,96,92125,1,0,0:0:0:0:
168,88,92198,1,0,0:0:0:0:
248,56,92490,1,0,0:0:0:0:
336,120,92855,1,0,0:0:0:0:
336,184,93074,1,0,0:0:0:0:
376,192,93293,1,0,0:0:0:0:
192,192,93512,1,0,0:0:0:0:
200,256,93732,1,0,0:0:0:0:
176,320,93951,1,0,0:0:0:0:
112,304,94170,1,0,0:0:0:0:
80,248,94389,1,0,0:0:0:0:
72,160,94681,1,0,0:0:0:0:
256,192,94973,12,0,97894,0:0:0:0:
160,248,98113,5,0,0:0:0:0:
208,240,98332,1,0,0:0:0:0:
226,231,98441,1,0,0:0:0:0:
256,216,98551,1,0,0:0:0:0:
280,208,98660,1,0,0:0:0:0:
313,154,98770,2,0,B|297:130|297:130|306:103|306:103|336:85,2,82.5000035941599
327,231,99427,1,0,0:0:0:0:
376,206,99537,1,0,0:0:0:0:
434,192,99756,1,0,0:0:0:0:
437,229,99865,1,0,0:0:0:0:
416,292,100084,5,0,0:0:0:0:
369,307,100303,1,0,0:0:0:0:
296,307,100522,1,0,0:0:0:0:
235,309,100741,1,0,0:0:0:0:
171,307,100851,1,0,0:0:0:0:
193,215,101070,1,0,0:0:0:0:
234,218,101289,1,0,0:0:0:0:
288,221,101508,1,0,0:0:0:0:
346,220,101618,1,0,0:0:0:0:
335,140,101837,1,0,0:0:0:0:
311,81,102056,1,0,0:0:0:0:
249,36,102275,5,0,0:0:0:0:
215,35,102384,1,0,0:0:0:0:
215,35,102494,1,0,0:0:0:0:
179,40,102603,1,0,0:0:0:0:
96,96,102822,1,0,0:0:0:0:
88,192,103041,1,0,0:0:0:0:
96,288,103260,1,0,0:0:0:0:
128,328,103370,1,0,0:0:0:0:
168,352,103589,1,0,0:0:0:0:
264,352,103808,1,0,0:0:0:0:
352,312,104027,5,0,0:0:0:0:
440,264,104246,1,0,0:0:0:0:
456,216,104356,1,0,0:0:0:0:
472,168,104575,1,0,0:0:0:0:
464,120,104684,1,0,0:0:0:0:
408,40,104903,1,0,0:0:0:0:
360,48,105013,1,0,0:0:0:0:
264,56,105232,1,0,0:0:0:0:
264,56,105342,1,0,0:0:0:0:
216,56,105561,1,0,0:0:0:0:
128,96,105780,5,0,0:0:0:0:
192,136,105889,1,0,0:0:0:0:
256,168,105999,1,0,0:0:0:0:
192,128,106108,1,0,0:0:0:0:
152,216,106218,1,0,0:0:0:0:
192,240,106327,1,0,0:0:0:0:
232,264,106546,1,0,0:0:0:0:
272,288,106765,1,0,0:0:0:0:
320,304,106875,1,0,0:0:0:0:
368,312,107094,1,0,0:0:0:0:
408,224,107313,1,0,0:0:0:0:
416,128,107532,5,0,0:0:0:0:
344,64,107751,1,0,0:0:0:0:
296,64,107861,1,0,0:0:0:0:
200,64,108080,1,0,0:0:0:0:
200,64,108299,1,0,0:0:0:0:
152,64,108518,1,0,0:0:0:0:
104,64,108627,1,0,0:0:0:0:
80,160,108846,1,0,0:0:0:0:
96,256,109065,1,0,0:0:0:0:
176,320,109285,1,0,0:0:0:0:
176,320,109394,5,0,0:0:0:0:
176,320,109504,1,0,0:0:0:0:
176,320,109613,1,0,0:0:0:0:
176,320,109723,1,0,0:0:0:0:
176,320,109832,1,0,0:0:0:0:
272,288,110051,1,0,0:0:0:0:
344,280,110270,1,0,0:0:0:0:
376,240,110380,1,0,0:0:0:0:
408,144,110599,1,0,0:0:0:0:
376,48,110818,1,0,0:0:0:0:
360,144,111037,5,0,0:0:0:0:
360,216,111256,1,0,0:0:0:0:
360,264,111366,1,0,0:0:0:0:
264,272,111585,1,0,0:0:0:0:
264,224,111694,1,0,0:0:0:0:
168,216,111913,1,0,0:0:0:0:
168,264,112023,1,0,0:0:0:0:
72,264,112242,1,0,0:0:0:0:
72,216,112351,1,0,0:0:0:0:
72,168,112570,1,0,0:0:0:0:
72,72,112789,6,0,B|136:64|136:64|144:112|144:112|216:80,1,165.00000718832
232,104,113342,1,0,0:0:0:0:
232,104,113451,1,0,0:0:0:0:
232,104,113560,1,0,0:0:0:0:
232,104,113669,1,0,0:0:0:0:
232,104,113778,1,0,0:0:0:0:
232,104,113887,1,0,0:0:0:0:
232,104,113996,1,0,0:0:0:0:
229,171,114105,6,0,L|189:198,1,41.2500017970799
127,241,114432,1,0,0:0:0:0:
127,241,114541,1,0,0:0:0:0:
127,241,114650,1,0,0:0:0:0:
127,241,114759,1,0,0:0:0:0:
127,241,114868,1,0,0:0:0:0:
60,184,114977,6,0,L|68:137,1,41.2500017970799
99,69,115304,1,0,0:0:0:0:
99,69,115413,1,0,0:0:0:0:
99,69,115522,1,0,0:0:0:0:
99,69,115631,1,0,0:0:0:0:
99,69,115740,1,0,0:0:0:0:
169,65,115850,6,0,L|221:76,1,41.2500017970799
248,132,116286,2,0,B|262:149|262:149|282:127,1,41.2500017970799
322,80,116613,1,0,0:0:0:0:
361,152,116722,1,0,0:0:0:0:
361,152,116831,1,0,0:0:0:0:
361,152,116940,1,0,0:0:0:0:
361,152,117049,1,0,0:0:0:0:
361,152,117158,1,0,0:0:0:0:
361,152,117267,1,0,0:0:0:0:
361,152,117376,1,0,0:0:0:0:
361,152,117485,1,0,0:0:0:0:
341,219,117594,2,0,L|285:221,1,41.2500017970799
241,267,117921,1,0,0:0:0:0:
241,267,118030,1,0,0:0:0:0:
241,267,118139,1,0,0:0:0:0:
149,285,118358,1,0,0:0:0:0:
81,234,118573,1,0,0:0:0:0:
81,234,118683,1,0,0:0:0:0:
81,234,118794,1,0,0:0:0:0:
81,234,118904,1,0,0:0:0:0:
81,234,119013,1,0,0:0:0:0:
96,152,119230,5,0,0:0:0:0:
96,152,119339,1,0,0:0:0:0:
96,152,119448,1,0,0:0:0:0:
96,152,119557,1,0,0:0:0:0:
96,152,119666,1,0,0:0:0:0:
177,141,119813,2,0,L|208:140,4,27.5000001490115
240,159,120470,1,0,0:0:0:0:
289,202,120689,1,0,0:0:0:0:
296,300,121017,1,0,0:0:0:0:
392,276,121346,2,0,B|454:276|454:276|468:225,1,110.000000596046
448,152,121894,2,0,L|412:155,5,27.5000001490115
344,168,122660,1,0,0:0:0:0:
280,216,122879,1,0,0:0:0:0:
296,312,123208,2,0,B|327:335|343:329|374:318,1,82.5000004470345
432,280,123646,2,0,L|460:266,3,27.5000001490115
464,200,124194,1,0,0:0:0:0:
440,120,124467,1,0,0:0:0:0:
336,64,124851,1,0,0:0:0:0:
280,32,125070,1,0,0:0:0:0:
391,203,125508,1,0,0:0:0:0:
408,98,125946,1,0,0:0:0:0:
268,132,126275,1,0,0:0:0:0:
346,212,126548,1,0,0:0:0:0:
165,291,126822,2,0,L|196:292,8,27.5000001490115
115,262,127972,1,0,0:0:0:0:
260,170,128246,2,0,B|309:179|309:179|264:219|264:219|324:240,1,165.000000894069
312,48,129451,1,0,0:0:0:0:
215,87,129725,1,0,0:0:0:0:
386,237,130081,1,0,0:0:0:0:
416,104,130546,1,0,0:0:0:0:
368,64,130765,1,0,0:0:0:0:
304,40,130984,1,0,0:0:0:0:
240,40,131203,1,0,0:0:0:0:
120,96,131642,1,0,0:0:0:0:
96,160,131861,1,0,0:0:0:0:
128,232,132080,1,0,0:0:0:0:
208,256,132299,1,0,0:0:0:0:
288,256,132518,1,0,0:0:0:0:
360,224,132737,2,0,B|383:222|416:200|430:183|396:143,1,110.000000596046
328,88,133284,2,0,L|291:83,2,27.5000001490115
392,120,133613,2,0,L|376:151,1,27.5000001490115
320,176,133832,2,0,P|272:176|224:216,1,110.000000596046
