osu file format v14

[General]
AudioFilename: audio.mp3
AudioLeadIn: 0
PreviewTime: -1
Countdown: 0
SampleSet: Soft
StackLeniency: 0.4
Mode: 0
LetterboxInBreaks: 0
WidescreenStoryboard: 0

[Editor]
Bookmarks: 11499,22851,39067,40689,64202,90959,94202,116905
DistanceSpacing: 1.2
BeatDivisor: 8
GridSize: 8
TimelineZoom: 1.9

[Metadata]
Title:The Top
TitleUnicode:The Top
Artist:Ghost
ArtistUnicode:Ghost
Creator:SnowyLilac
Version:Seeking
Source:
Tags:
BeatmapID:1329366
BeatmapSetID:629720

[Difficulty]
HPDrainRate:5
CircleSize:4.5
OverallDifficulty:7
ApproachRate:9.5
SliderMultiplier:2.5
SliderTickRate:1

[Events]
//Background and Video events
0,0,"oh yeah.jpg",0,0
//Break Periods
//Storyboard Layer 0 (Background)
//Storyboard Layer 1 (Fail)
//Storyboard Layer 2 (Pass)
//Storyboard Layer 3 (Foreground)
//Storyboard Sound Samples

[TimingPoints]
11500,810.810810810811,4,2,0,35,1,0
11500,-200,4,2,0,35,0,0
13121,-181.818181818182,4,2,0,35,0,0
14743,-166.666666666667,4,2,0,35,0,0
16364,-153.846153846154,4,2,0,35,0,0
17986,-142.857142857143,4,2,0,35,0,0
19608,-133.333333333333,4,2,0,35,0,0
21229,-125,4,2,0,35,0,0
22851,-117.647058823529,4,2,0,35,0,0
24472,-111.111111111111,4,2,0,35,0,0
26094,-105.263157894737,4,2,0,35,0,0
27716,-100,4,2,0,35,0,0
29337,-95.2380952380952,4,2,0,35,0,0
30959,-90.9090909090909,4,2,0,35,0,0
32581,-86.9565217391304,4,2,0,35,0,0
34202,-83.3333333333333,4,2,0,35,0,0
35824,-80,4,2,0,35,0,0
37445,-76.9230769230769,4,2,0,35,0,0
39067,-133.333333333333,4,2,0,35,0,0
43932,-100,4,2,0,35,0,0
50418,-80,4,2,0,35,0,0
56905,-66.6666666666667,4,2,0,35,0,0
63391,-133.333333333333,4,2,0,35,0,0
64202,-200,4,2,0,35,0,0
64608,-66.6666666666667,4,2,0,35,0,0

[Colours]
Combo1 : 0,0,160
Combo2 : 128,255,255
Combo3 : 18,124,255
Combo4 : 0,0,255

[HitObjects]
200,142,11500,6,0,B|171:155|150:135|150:135|75:204|11:140|46:77,1,218.75
307,113,13121,2,0,B|319:149|304:185|304:185|283:177|242:195|227:240|255:301|294:318,1,240.625007343292
429,337,14743,2,0,B|407:301|407:301|471:282|488:148|435:83,1,262.499991989136
269,169,16364,2,0,B|273:204|252:216|252:216|290:248|252:330|252:330|185:336|147:247,1,284.374986982346
384,135,17986,6,0,B|334:106|382:33|382:33|417:95|479:61|445:215,1,306.249990653992
304,297,19608,2,0,B|262:306|236:344|236:344|231:239|213:195|121:131,1,328.125012516976
280,87,21229,2,0,B|343:19|436:39|436:39|472:152|380:231,1,350
143,252,22851,2,0,B|83:270|82:350|160:374|191:313|191:313|194:363|281:380|350:309,1,371.875007092953
345,201,24472,6,0,B|316:190|282:219|282:219|250:177|255:109|255:109|264:52|210:-7|112:44|137:111|142:143,1,393.749987983704
154,347,26094,2,0,B|177:341|177:341|175:324|175:324|186:336|186:336|189:318|189:318|197:332|197:332|292:269|348:358|348:358|361:253|443:227,1,415.624988901615
446,127,27716,2,0,B|409:102|448:70|448:70|405:64|397:8|397:8|360:45|360:45|302:20|251:60|251:60|194:28|142:60,1,437.5
137,188,29337,2,0,B|96:173|96:173|92:219|39:230|39:230|110:262|119:336|119:336|174:281|237:299|237:299|237:265|287:225,1,459.374985980988
353,343,30959,6,0,B|366:279|458:284|458:284|493:202|455:127|455:127|384:139|341:95|341:95|311:111|267:109,1,481.250014686585
265,271,32581,2,0,B|241:232|180:259|180:259|203:194|139:182|139:182|140:266|100:298|31:244|11:121|109:61,1,503.125009596348
253,46,34202,2,0,B|290:63|314:19|314:19|321:74|360:104|360:104|449:57|507:120|451:223|451:223|519:216|432:265|461:317,1,524.999983978272
258,282,35824,2,0,B|199:263|117:207|160:132|160:132|217:200|137:300|82:338|82:338|103:245|39:183,1,546.875
59,131,37445,2,0,B|49:57|136:-10|136:-10|260:23|250:103|250:103|305:66|355:78|355:78|356:164|451:192,1,568.749973964692
111,311,39067,6,0,L|81:235,1,46.8750017881394
221,338,39472,2,0,L|218:277,1,46.8750017881394
332,311,39878,2,0,L|362:235,1,46.8750017881394
452,169,40283,2,0,L|376:199,1,46.8750017881394
264,70,40689,6,0,L|283:109,15,23.4375008940697
178,107,42310,6,0,L|207:126,1,23.4375008940697
132,184,42513,2,0,L|168:193,1,23.4375008940697
116,272,42716,2,0,L|149:266,1,23.4375008940697
179,347,42918,2,0,L|200:318,1,23.4375008940697
271,359,43121,2,0,L|265:322,1,23.4375008940697
351,314,43324,2,0,L|325:291,1,23.4375008940697
403,246,43527,2,0,L|371:227,1,23.4375008940697
430,156,43729,2,0,L|386:155,1,23.4375008940697
481,238,43932,6,0,L|437:273,15,31.25
463,336,45554,6,0,L|412:324,1,31.25
359,353,45756,2,0,L|389:332,1,31.25
305,316,45959,2,0,L|317:275,1,31.25
241,323,46162,2,0,L|210:292,1,31.25
176,358,46364,2,0,L|133:330,1,31.25
77,361,46567,2,0,L|85:324,1,31.25
25,303,46770,2,0,L|39:272,1,31.25
6,226,46972,2,0,L|5:182,1,31.25
141,205,47175,6,0,L|125:158,15,31.25
206,152,48797,6,0,L|189:103,1,31.25
270,136,49000,2,0,L|284:178,1,31.25
337,117,49202,2,0,L|350:152,1,31.25
403,99,49405,2,0,L|380:50,1,31.25
476,110,49608,2,0,L|479:158,1,31.25
417,199,49810,2,0,L|417:237,1,31.25
475,277,50013,2,0,L|474:317,1,31.25
394,344,50216,2,0,L|393:303,1,31.25
320,236,50418,6,0,L|276:193,15,39.0625
380,163,52040,6,0,L|331:161,1,39.0625
366,78,52243,2,0,L|320:96,1,39.0625
289,27,52445,2,0,L|266:73,1,39.0625
196,33,52648,2,0,L|209:79,1,39.0625
125,74,52851,2,0,L|162:119,1,39.0625
87,141,53054,2,0,L|135:163,1,39.0625
81,220,53256,2,0,L|132:209,1,39.0625
116,291,53459,2,0,L|147:256,1,39.0625
257,314,53662,6,0,L|242:250,15,39.0625
310,189,55283,6,0,L|264:169,1,39.0625
336,244,55486,2,0,L|312:283,1,39.0625
398,218,55689,2,0,L|442:238,1,39.0625
350,117,55891,2,0,L|353:70,1,39.0625
288,157,56093,2,0,L|242:140,1,39.0625
248,232,56296,2,0,L|213:200,1,39.0625
164,269,56499,2,0,L|157:223,1,39.0625
85,275,56702,2,0,L|93:224,1,39.0625
80,136,56905,6,0,L|121:68,15,46.8750017881394
183,151,58527,6,0,L|176:86,1,46.8750017881394
268,139,58729,2,0,L|246:88,1,46.8750017881394
350,119,58932,2,0,L|318:66,1,46.8750017881394
428,110,59135,2,0,L|451:54,1,46.8750017881394
493,152,59337,2,0,L|535:110,1,46.8750017881394
489,229,59540,2,0,L|550:200,1,46.8750017881394
483,308,59743,2,0,L|551:279,1,46.8750017881394
488,377,59945,2,0,L|555:347,1,46.8750017881394
369,312,60148,6,0,L|336:226,15,46.8750017881394
263,195,61770,6,0,L|219:237,1,46.8750017881394
200,174,61972,2,0,L|143:184,1,46.8750017881394
159,119,62175,2,0,L|82:124,1,46.8750017881394
131,66,62378,2,0,L|73:40,1,46.8750017881394
83,125,62581,2,0,L|9:107,1,46.8750017881394
84,195,62783,2,0,L|13:201,1,46.8750017881394
104,266,62986,2,0,L|47:290,1,46.8750017881394
123,334,63189,2,0,L|76:372,1,46.8750017881394
240,252,63391,6,0,P|220:185|193:249,1,164.062506258488
345,343,64202,6,0,P|383:338|400:328,1,46.875
414,205,64608,6,0,P|352:195|271:253,1,140.625005364418
163,346,65013,5,0,0:0:0:0:
57,249,65216,1,0,0:0:0:0:
194,205,65418,1,0,0:0:0:0:
392,251,65621,2,0,P|393:295|374:317,1,46.8750017881394
469,165,65824,6,0,P|407:135|317:173,1,140.625005364418
171,136,66229,5,0,0:0:0:0:
277,233,66432,1,0,0:0:0:0:
140,277,66635,2,0,P|69:245|80:219,1,93.7500035762788
111,137,67040,2,0,P|138:134|154:156,1,46.8750017881394
121,210,67243,1,0,0:0:0:0:
390,204,67445,6,0,P|385:262|323:320,1,140.625005364418
292,208,67851,6,0,P|283:215|304:222,1,46.8750017881394
200,244,68054,6,0,P|205:186|222:168,1,46.8750017881394
304,221,68256,5,0,0:0:0:0:
448,138,68459,1,0,0:0:0:0:
308,54,68662,1,0,0:0:0:0:
166,123,68864,2,0,P|156:152|184:143,1,46.8750017881394
105,267,69067,6,0,P|162:291|256:274,1,140.625005364418
337,211,69472,5,0,0:0:0:0:
246,88,69675,1,0,0:0:0:0:
186,226,69878,6,0,P|138:197|148:117,1,140.625005364418
279,246,70283,2,0,P|327:275|317:355,1,140.625005364418
246,163,70689,2,0,P|275:115|355:125,1,140.625005364418
224,236,71094,2,0,P|245:244|285:230,1,46.8750017881394
122,183,71297,1,0,0:0:0:0:
328,89,71500,6,0,P|360:131|368:200,1,93.7500035762788
216,39,71905,1,0,0:0:0:0:
157,163,72108,1,0,0:0:0:0:
289,261,72310,6,0,P|247:293|178:301,1,93.7500035762788
213,218,72716,1,0,0:0:0:0:
310,140,72918,1,0,0:0:0:0:
388,237,73121,1,0,0:0:0:0:
318,79,73324,1,0,0:0:0:0:
213,218,73527,2,0,L|162:283,1,46.8750017881394
325,41,73729,1,0,0:0:0:0:
388,237,73932,2,0,L|423:345,1,93.7500035762788
325,41,74337,6,0,P|326:61|335:40,1,46.8750017881394
308,228,74540,2,0,P|307:208|298:229,1,46.8750017881394
196,84,74743,6,0,P|180:105|172:131,1,46.8750017881394
313,134,74945,1,0,0:0:0:0:
212,211,75148,1,0,0:0:0:0:
330,260,75351,1,0,0:0:0:0:
419,151,75554,6,0,P|431:172|411:175,1,46.8750017881394
427,310,75756,1,0,0:0:0:0:
313,134,75959,1,0,0:0:0:0:
465,276,76162,1,0,0:0:0:0:
419,151,76364,6,0,P|431:172|411:175,1,46.8750017881394
309,159,76567,6,0,P|297:138|317:135,1,46.8750017881394
465,276,76770,2,0,P|423:304|392:295,1,46.8750017881394
496,188,76972,2,0,P|507:167|509:144,1,46.8750017881394
432,59,77175,6,0,P|355:42|338:64,1,93.7500035762788
345,177,77581,6,0,P|359:193|385:185,1,46.8750017881394
356,331,77783,6,0,P|342:315|316:323,1,46.8750017881394
199,325,77986,6,0,L|131:309,1,46.8750017881394
68,295,78189,1,0,0:0:0:0:
235,230,78391,5,0,0:0:0:0:
68,295,78594,2,0,L|141:266,1,46.8750017881394
288,352,78797,2,0,L|180:319,1,93.7500035762788
196,233,79202,5,0,0:0:0:0:
317,155,79405,1,0,0:0:0:0:
196,233,79608,1,0,0:0:0:0:
188,89,79810,1,0,0:0:0:0:
292,47,80013,2,0,P|319:38|346:41,1,46.8750017881394
317,155,80216,1,0,0:0:0:0:
292,47,80418,6,0,P|344:38|396:41,1,93.7500035762788
466,173,80824,2,0,P|439:182|412:179,1,46.8750017881394
268,249,81027,2,0,P|289:240|313:240,1,46.8750017881394
151,179,81229,6,0,P|127:179|105:187,1,46.8750017881394
153,304,81432,1,0,0:0:0:0:
268,249,81635,1,0,0:0:0:0:
151,179,81837,2,0,P|172:170|196:170,1,46.8750017881394
196,55,82040,6,0,P|144:57|97:82,1,93.7500035762788
294,176,82445,1,0,0:0:0:0:
373,74,82648,1,0,0:0:0:0:
421,193,82851,2,0,P|441:209|423:250,1,46.8750017881394
351,240,83054,1,0,0:0:0:0:
373,74,83256,2,0,P|393:90|375:131,1,46.8750017881394
303,121,83459,1,0,0:0:0:0:
442,228,83662,6,0,P|462:252|444:313,1,93.7500035762788
309,255,84067,6,0,P|307:229|349:214,1,46.8750017881394
442,229,84270,1,0,0:0:0:0:
311,77,84472,6,0,L|275:23,1,46.8750017881394
108,68,84675,1,0,0:0:0:0:
210,194,84878,1,0,0:0:0:0:
311,77,85081,2,0,L|275:23,1,46.8750017881394
49,219,85283,6,0,L|92:113,1,93.7500035762788
108,68,85689,1,0,0:0:0:0:
236,33,85891,1,0,0:0:0:0:
202,161,86094,1,0,0:0:0:0:
330,127,86297,1,0,0:0:0:0:
295,254,86500,2,0,L|278:192,1,46.8750017881394
330,127,86702,1,0,0:0:0:0:
410,338,86905,6,0,L|430:236,1,93.7500035762788
295,254,87310,6,0,L|278:192,1,46.8750017881394
410,338,87513,6,0,L|421:281,1,46.8750017881394
