osu file format v14

[General]
AudioFilename: audio.mp3
AudioLeadIn: 0
PreviewTime: -1
Countdown: 0
SampleSet: Soft
StackLeniency: 0.7
Mode: 0
LetterboxInBreaks: 0
WidescreenStoryboard: 0

[Editor]
DistanceSpacing: 0.8
BeatDivisor: 16
GridSize: 4
TimelineZoom: 2

[Metadata]
Title:Space Combat
TitleUnicode:Space Combat
Artist:Ghost
ArtistUnicode:Ghost
Creator:Rehokun
Version:Overrated
Source:
Tags:
BeatmapID:1726803
BeatmapSetID:824092

[Difficulty]
HPDrainRate:7
CircleSize:4
OverallDifficulty:8
ApproachRate:9.4
SliderMultiplier:1.8
SliderTickRate:1

[Events]
//Background and Video events
//Break Periods
2,89652,96912
//Storyboard Layer 0 (Background)
//Storyboard Layer 1 (Fail)
//Storyboard Layer 2 (Pass)
//Storyboard Layer 3 (Foreground)
//Storyboard Sound Samples

[TimingPoints]
1453,333.333333333333,4,2,0,100,1,0
12119,-133.333333333333,4,2,0,100,0,0
22786,-100,4,2,0,100,0,0
44119,-133.333333333333,4,2,0,100,0,0
48119,-100,4,2,0,100,0,0
54786,-50,4,2,0,100,0,1
55119,-66.6666666666667,4,2,0,100,0,1
55452,-100,4,2,0,100,0,1
57452,-50,4,2,0,100,0,1
57786,-100,4,2,0,100,0,1
60119,-50,4,2,0,100,0,1
60786,-100,4,2,0,100,0,1
65119,-333.333333333333,4,2,0,100,0,1
65452,-50,4,2,0,100,0,1
66119,-100,4,2,0,100,0,1
66786,-50,4,2,0,100,0,1
67119,-66.6666666666667,4,2,0,100,0,1
67452,-100,4,2,0,100,0,1
68119,-50,4,2,0,100,0,1
68786,-100,4,2,0,100,0,1
69452,-66.6666666666667,4,2,0,100,0,1
70786,-50,4,2,0,100,0,1
71452,-100,4,2,0,100,0,1
76119,-83.3333333333333,4,2,0,100,0,0
97452,-133.333333333333,4,2,0,20,0,0
100119,-100,4,2,0,40,0,0
102786,-83.3333333333333,4,2,0,70,0,0
108119,-50,4,2,0,100,0,1
108619,-66.6666666666667,4,2,0,100,0,1
109452,-333.333333333333,4,2,0,100,0,1
109952,-100,4,2,0,100,0,1
110786,-50,4,2,0,100,0,1
111452,-100,4,2,0,100,0,1
112452,-66.6666666666667,4,2,0,100,0,1
113119,-50,4,2,0,100,0,1
113786,-66.6666666666667,4,2,0,100,0,1
114786,-333.333333333333,4,2,0,100,0,1
115286,-66.6666666666667,4,2,0,100,0,1
115786,-50,4,2,0,100,0,1
116619,-66.6666666666667,4,2,0,100,0,1
121452,-40,4,2,0,100,0,1
121952,-66.6666666666667,4,2,0,100,0,1
123786,-50,4,2,0,100,0,1
124119,-40,4,2,0,100,0,1
124452,-50,4,2,0,100,0,1
125452,-166.666666666667,4,2,0,100,0,1
125952,-66.6666666666667,4,2,0,100,0,1
126452,-33.3333333333333,4,2,0,100,0,1
126786,-66.6666666666667,4,2,0,100,0,1
129452,-83.3333333333333,4,2,0,100,0,0
141452,-66.6666666666667,4,2,0,100,0,0
142786,-83.3333333333333,4,2,0,100,0,0
143119,-66.6666666666667,4,2,0,100,0,0
144119,-83.3333333333333,4,2,0,100,0,0
150952,-33.3333333333333,4,2,0,100,0,0
151286,-100,4,2,0,100,0,0
153119,-50,4,2,0,100,0,0
153452,-100,4,2,0,100,0,0
154119,-83.3333333333333,4,2,0,100,0,0
154786,-50,4,2,0,100,0,0
155119,-83.3333333333333,4,2,0,100,0,0
155452,-50,4,2,0,100,0,0
155786,-133.333333333333,4,2,0,100,0,0
156119,-83.3333333333333,4,2,0,100,0,0
156452,-33.3333333333333,4,2,0,100,0,0
156786,-83.3333333333333,4,2,0,100,0,0

[HitObjects]
368,120,12119,6,0,P|368:160|360:188,1,67.5000025749208
125,163,12453,2,0,P|154:135|179:121,1,67.5000025749208
328,304,12786,1,0,0:0:0:0:
294,304,12869,1,0,0:0:0:0:
262,295,12952,1,0,0:0:0:0:
234,276,13036,1,0,0:0:0:0:
213,250,13119,1,0,0:0:0:0:
272,104,13286,5,0,0:0:0:0:
272,104,13369,1,0,0:0:0:0:
272,104,13453,2,0,L|344:92,1,67.5000025749208
440,212,13786,1,0,0:0:0:0:
440,212,13953,2,0,L|373:200,1,67.5000025749208
220,180,14286,5,0,0:0:0:0:
220,180,14453,1,0,0:0:0:0:
308,136,14619,1,0,0:0:0:0:
308,136,14786,6,0,P|312:160|312:208,1,67.5000025749208
372,56,15119,2,0,P|383:77|400:122,2,67.5000025749208
220,80,15619,1,0,0:0:0:0:
220,80,15786,5,0,0:0:0:0:
203,109,15869,1,0,0:0:0:0:
191,140,15952,1,0,0:0:0:0:
185,174,16036,1,0,0:0:0:0:
183,207,16119,1,0,0:0:0:0:
288,264,16286,1,0,0:0:0:0:
276,172,16452,1,0,0:0:0:0:
132,228,16619,5,0,0:0:0:0:
260,316,16786,1,0,0:0:0:0:
220,236,16952,1,0,0:0:0:0:
220,236,17119,1,0,0:0:0:0:
76,296,17286,1,0,0:0:0:0:
76,296,17452,6,0,P|52:264|44:232,1,67.5000025749208
76,164,17702,1,0,0:0:0:0:
76,164,17786,2,0,L|143:158,1,67.5000025749208
276,240,18119,1,0,0:0:0:0:
276,240,18202,1,0,0:0:0:0:
276,240,18286,1,0,0:0:0:0:
320,152,18452,5,0,0:0:0:0:
345,173,18535,1,0,0:0:0:0:
362,202,18618,1,0,0:0:0:0:
369,235,18701,1,0,0:0:0:0:
364,268,18785,1,0,0:0:0:0:
296,328,18952,5,0,0:0:0:0:
276,240,19119,1,0,0:0:0:0:
184,320,19286,1,0,0:0:0:0:
152,196,19452,1,0,0:0:0:0:
256,352,19619,1,0,0:0:0:0:
256,352,19786,1,0,0:0:0:0:
360,204,19952,1,0,0:0:0:0:
360,204,20119,6,0,P|352:172|332:144,1,67.5000025749208
420,260,20452,6,0,P|436:231|442:197,1,67.5000025749208
220,236,20786,6,0,P|251:227|279:208,1,67.5000025749208
164,300,21119,6,0,P|192:316|226:322,1,67.5000025749208
132,204,21452,5,0,0:0:0:0:
127,170,21535,1,0,0:0:0:0:
131,137,21618,1,0,0:0:0:0:
143,105,21701,1,0,0:0:0:0:
163,78,21785,1,0,0:0:0:0:
188,55,21868,1,0,0:0:0:0:
218,40,21951,1,0,0:0:0:0:
250,32,22035,1,0,0:0:0:0:
284,32,22119,6,0,L|300:68,3,33.7500012874604
240,108,22452,2,0,L|224:144,3,33.7500012874604
312,191,22786,6,0,P|353:191|400:164,1,90
336,96,23119,1,0,0:0:0:0:
212,180,23286,2,0,L|192:220,1,45
260,292,23452,6,0,P|298:306|351:296,1,90
352,184,23786,1,0,0:0:0:0:
352,184,23952,2,0,L|343:84,1,90
380,200,24286,6,0,L|371:100,1,90
232,128,24619,1,0,0:0:0:0:
260,256,24786,6,0,L|267:345,1,90
164,212,25119,1,0,0:0:0:0:
292,60,25286,1,0,0:0:0:0:
204,288,25452,6,0,P|168:296|116:280,1,90
52,196,25786,1,0,0:0:0:0:
188,136,25952,5,0,0:0:0:0:
188,136,26036,1,0,0:0:0:0:
188,136,26119,2,0,P|230:121|274:129,1,90
236,228,26452,1,0,0:0:0:0:
96,120,26619,2,0,P|115:80|152:54,1,90
20,172,26952,6,0,P|5:129|13:85,1,90
13,85,27286,1,0,0:0:0:0:
116,224,27452,6,0,L|107:323,1,90
20,248,27786,1,0,0:0:0:0:
188,160,27952,1,0,0:0:0:0:
220,252,28119,5,0,0:0:0:0:
100,296,28286,1,0,0:0:0:0:
216,120,28452,1,0,0:0:0:0:
220,320,28619,5,0,0:0:0:0:
176,200,28786,1,0,0:0:0:0:
308,220,28952,1,0,0:0:0:0:
144,280,29119,6,0,P|116:268|88:212,1,90
236,272,29452,1,0,0:0:0:0:
236,272,29619,6,0,P|239:302|205:354,1,90
96,356,29952,1,0,0:0:0:0:
88,256,30119,5,0,0:0:0:0:
284,280,30286,1,0,0:0:0:0:
192,24,30452,5,0,0:0:0:0:
168,220,30619,1,0,0:0:0:0:
96,160,30786,5,0,0:0:0:0:
160,312,30952,1,0,0:0:0:0:
252,176,31119,1,0,0:0:0:0:
56,156,31286,5,0,0:0:0:0:
164,320,31452,1,0,0:0:0:0:
152,212,31619,1,0,0:0:0:0:
72,272,31786,1,0,0:0:0:0:
252,312,31952,6,0,L|347:303,1,90
212,268,32286,6,0,L|307:259,1,90
301,260,32619,1,0,0:0:0:0:
192,92,32786,5,0,0:0:0:0:
148,168,32952,1,0,0:0:0:0:
232,24,33119,5,0,0:0:0:0:
108,236,33286,1,0,0:0:0:0:
100,88,33452,6,0,P|104:72|116:44,4,45
252,216,33952,1,0,0:0:0:0:
252,216,34036,1,0,0:0:0:0:
252,216,34119,2,0,P|248:232|236:260,4,45
56,232,34619,5,0,0:0:0:0:
56,232,34702,1,0,0:0:0:0:
56,232,34786,2,0,L|76:272,1,45
128,136,34952,2,0,L|84:120,1,45
168,216,35119,6,0,L|188:256,1,45
240,120,35285,2,0,L|196:104,1,45
272,220,35452,5,0,0:0:0:0:
306,228,35535,1,0,0:0:0:0:
342,227,35618,1,0,0:0:0:0:
377,217,35702,1,0,0:0:0:0:
408,199,35785,1,0,0:0:0:0:
324,36,35952,6,0,P|320:68|320:88,1,45
488,232,36119,2,0,P|492:200|492:180,1,45
388,84,36286,6,0,P|384:116|384:136,1,45
428,184,36452,2,0,P|432:152|432:132,1,45
364,224,36619,1,0,0:0:0:0:
240,136,36786,6,0,L|231:40,1,90
340,124,37119,1,0,0:0:0:0:
200,212,37286,2,0,P|176:196|152:136,1,90
228,296,37619,6,0,P|199:301|140:276,1,90
100,176,37952,1,0,0:0:0:0:
252,152,38119,1,0,0:0:0:0:
60,264,38286,5,0,0:0:0:0:
140,84,38452,1,0,0:0:0:0:
184,220,38619,1,0,0:0:0:0:
48,100,38786,6,0,P|48:68|120:-4,1,135
228,40,39119,2,0,L|236:139,1,90
140,84,39452,5,0,0:0:0:0:
280,44,39619,1,0,0:0:0:0:
248,200,39786,1,0,0:0:0:0:
160,156,39952,5,0,0:0:0:0:
160,156,40119,1,0,0:0:0:0:
328,112,40286,1,0,0:0:0:0:
328,112,40452,2,0,P|352:136|368:236,1,135
276,328,40786,2,0,L|184:319,1,90
186,320,41119,5,0,0:0:0:0:
328,260,41286,1,0,0:0:0:0:
124,368,41452,1,0,0:0:0:0:
109,335,41535,1,0,0:0:0:0:
111,299,41618,1,0,0:0:0:0:
128,267,41702,1,0,0:0:0:0:
156,246,41786,2,0,L|204:240,1,45
140,160,41952,1,0,0:0:0:0:
140,160,42119,6,0,B|116:136|116:136|64:176,1,90
216,292,42452,1,0,0:0:0:0:
208,92,42619,1,0,0:0:0:0:
88,248,42786,6,0,B|72:272|72:272|64:292,1,45
193,331,42952,2,0,B|209:307|209:307|217:287,1,45
97,112,43119,2,0,B|69:118|69:118|49:126,1,45
113,245,43286,1,0,0:0:0:0:
236,156,43452,6,0,L|227:60,1,90
292,208,43786,6,0,L|283:112,1,90
224,224,44119,6,0,P|236:252|332:268,1,135.000005149842
436,168,44619,2,0,L|424:32,1,135.000005149842
276,60,45119,6,0,L|269:131,1,67.5000025749208
384,220,45452,2,0,B|392:172|392:172|439:220|439:220|432:264|388:292,1,202.500007724762
296,272,46119,5,0,0:0:0:0:
280,172,46286,1,0,0:0:0:0:
196,236,46452,1,0,0:0:0:0:
180,136,46619,5,0,0:0:0:0:
180,136,46702,1,0,0:0:0:0:
180,136,46786,2,0,P|196:100|284:68,1,135.000005149842
408,148,47286,2,0,L|414:219,2,67.5000025749208
272,212,47786,6,0,L|265:283,1,67.5000025749208
68,292,48119,2,0,L|76:200,1,90
75,202,48452,1,0,0:0:0:0:
160,384,48619,2,0,L|168:292,1,90
172,196,48869,6,0,P|196:208|264:208,1,90
228,116,49119,2,0,L|136:107,1,90
75,202,49369,5,0,0:0:0:0:
75,202,49452,2,0,P|84:236|124:280,1,90
320,288,49786,2,0,L|415:279,1,90
352,160,50119,1,0,0:0:0:0:
280,216,50286,1,0,0:0:0:0:
264,124,50452,2,0,P|284:96|332:68,1,90
180,160,50786,6,0,P|174:126|188:72,1,90
256,212,51119,1,0,0:0:0:0:
168,252,51286,1,0,0:0:0:0:
92,188,51452,2,0,L|104:88,1,90
16,236,51786,2,0,L|28:136,1,90
88,272,52119,5,0,0:0:0:0:
192,196,52286,1,0,0:0:0:0:
88,356,52452,5,0,0:0:0:0:
272,216,52619,1,0,0:0:0:0:
104,188,52786,5,0,0:0:0:0:
106,147,52869,1,0,0:0:0:0:
120,109,52952,1,0,0:0:0:0:
143,76,53036,1,0,0:0:0:0:
174,50,53119,1,0,0:0:0:0:
211,34,53202,1,0,0:0:0:0:
251,28,53286,2,0,P|284:40|296:48,1,45
300,116,53452,6,0,B|280:144|280:144|228:196|312:244|312:244|348:192|420:236|420:236|416:312|416:312|320:356|256:336|256:336|228:316|228:316|196:320|196:320|188:280,1,630
146,138,54786,6,0,L|270:-2,1,180
36,92,55119,6,0,B|13:120|13:120|9:221,1,135.000005149842
184,236,55452,5,0,0:0:0:0:
168,52,55619,2,0,P|164:32|152:8,1,45
280,96,55786,2,0,P|283:75|280:49,1,45
364,180,55952,2,0,P|373:162|380:136,1,45
284,204,56119,6,0,B|296:228|336:300|432:240|432:240|468:328,1,270
352,364,56786,1,0,0:0:0:0:
336,124,56952,6,0,L|384:124,1,45
268,64,57119,2,0,L|313:47,1,45
252,148,57286,2,0,L|209:163,1,45
68,72,57452,6,0,L|243:8,1,180
24,228,57786,6,0,L|114:195,1,90
56,356,58119,5,0,0:0:0:0:
248,188,58286,2,0,P|224:184|200:168,1,45
260,104,58452,2,0,P|245:84|240:55,1,45
328,48,58619,2,0,P|332:23|348:0,1,45
360,148,58786,6,0,L|356:176,4,22.5
436,84,59119,1,0,0:0:0:0:
300,200,59286,1,0,0:0:0:0:
360,148,59452,6,0,L|356:176,4,22.5
432,244,59786,6,0,L|428:272,2,22.5
340,276,59952,6,0,L|336:304,2,22.5
264,96,60119,6,0,P|288:56|424:52,1,180
368,176,60452,6,0,B|308:200|280:216|280:216|264:196|264:196|240:216|240:216|220:196,1,180
144,88,60786,5,0,0:0:0:0:
264,288,60952,2,0,L|308:268,1,45
168,150,61119,2,0,L|164:199,1,45
335,137,61286,2,0,L|295:108,1,45
252,312,61452,5,0,0:0:0:0:
160,132,61619,1,0,0:0:0:0:
360,140,61786,1,0,0:0:0:0:
240,336,61952,1,0,0:0:0:0:
240,336,62119,5,0,0:0:0:0:
244,160,62286,2,0,B|248:136|248:136|260:112,1,45
289,197,62452,2,0,B|308:213|308:213|323:235,1,45
234,218,62619,2,0,B|211:226|211:226|184:228,1,45
128,108,62786,6,0,P|140:72|184:32,1,90
400,144,63119,2,0,L|391:235,1,90
136,256,63452,5,0,0:0:0:0:
64,180,63619,1,0,0:0:0:0:
216,136,63786,1,0,0:0:0:0:
204,320,63952,5,0,0:0:0:0:
148,184,64119,1,0,0:0:0:0:
256,336,64286,5,0,0:0:0:0:
200,200,64453,1,0,0:0:0:0:
124,292,64619,5,0,0:0:0:0:
320,308,64786,1,0,0:0:0:0:
220,140,64952,1,0,0:0:0:0:
200,260,65119,2,0,L|200:288,1,26.9999991760254
320,168,65452,6,0,P|324:112|228:32,1,180
68,196,65786,6,0,L|68:384,1,180
300,276,66119,5,0,0:0:0:0:
300,276,66202,1,0,0:0:0:0:
300,276,66286,2,0,L|272:240,1,45
164,252,66452,2,0,L|192:288,1,45
412,268,66619,2,0,L|384:232,1,45
160,168,66786,6,0,P|112:180|96:308,1,180
228,100,67119,2,0,P|204:80|96:100,1,135.000005149842
256,196,67452,5,0,0:0:0:0:
376,56,67619,1,0,0:0:0:0:
224,236,67786,1,0,0:0:0:0:
452,276,67952,1,0,0:0:0:0:
316,32,68119,6,0,B|264:32|264:32|236:72|192:48|192:48|152:80,1,180
176,308,68452,6,0,B|232:336|268:312|268:312|299:323|299:323|328:264,1,180
216,188,68786,5,0,0:0:0:0:
80,328,68952,2,0,P|88:356|104:376,1,45
35,163,69119,2,0,P|21:189|18:214,1,45
120,16,69286,2,0,P|92:24|72:40,1,45
128,200,69452,6,0,P|136:236|228:280,1,135.000005149842
200,128,69786,1,0,0:0:0:0:
156,316,69952,1,0,0:0:0:0:
64,144,70119,6,0,P|44:175|78:271,1,135.000005149842
294,124,70452,2,0,L|288:56,1,67.5000025749208
384,256,70619,2,0,L|389:188,1,67.5000025749208
304,296,70786,6,0,P|324:324|456:320,1,180
156,104,71119,6,0,B|136:144|136:144|160:184|88:208|88:208|48:176,1,180
56,48,71452,5,0,0:0:0:0:
304,48,71619,2,0,P|332:56|352:68,1,45
389,264,71786,2,0,P|376:290|361:308,1,45
161,310,71952,2,0,P|138:293|123:275,1,45
122,119,72119,6,0,P|135:93|150:75,1,45
350,73,72286,2,0,P|373:90|388:108,1,45
356,305,72452,2,0,P|335:325|315:337,1,45
232,256,72619,1,0,0:0:0:0:
232,256,72786,5,0,0:0:0:0:
240,64,72952,2,0,P|264:40|280:32,1,45
312,124,73119,2,0,P|345:124|362:129,1,45
332,220,73286,2,0,P|356:244|364:260,1,45
260,368,73452,5,0,0:0:0:0:
132,248,73619,1,0,0:0:0:0:
132,248,73702,1,0,0:0:0:0:
132,248,73786,2,0,L|140:152,1,90
232,280,74119,2,0,P|216:312|168:344,1,90
172,342,74452,1,0,0:0:0:0:
56,216,74619,1,0,0:0:0:0:
216,120,74786,5,0,0:0:0:0:
255,112,74869,1,0,0:0:0:0:
295,117,74952,1,0,0:0:0:0:
330,137,75035,1,0,0:0:0:0:
357,167,75119,1,0,0:0:0:0:
176,276,75286,5,0,0:0:0:0:
176,276,75369,1,0,0:0:0:0:
176,276,75452,1,0,0:0:0:0:
92,104,75619,1,0,0:0:0:0:
293,42,75786,2,0,L|340:46,3,45
440,88,76119,6,0,P|448:124|448:200,1,107.999996704102
183,288,76452,1,0,0:0:0:0:
183,288,76619,2,0,P|175:252|175:176,1,107.999996704102
469,65,76952,1,0,0:0:0:0:
469,65,77119,2,0,P|477:101|477:177,1,107.999996704102
334,276,77452,5,0,0:0:0:0:
334,276,77619,2,0,P|315:256|305:229,2,53.9999983520508
378,159,77952,2,0,P|357:135|337:123,1,53.9999983520508
206,174,78119,2,0,L|215:283,1,107.999996704102
459,189,78452,2,0,P|468:155|436:88,1,107.999996704102
228,88,78786,5,0,0:0:0:0:
304,224,78952,1,0,0:0:0:0:
356,112,79119,1,0,0:0:0:0:
156,136,79286,1,0,0:0:0:0:
272,312,79452,5,0,0:0:0:0:
312,208,79619,1,0,0:0:0:0:
196,200,79786,1,0,0:0:0:0:
348,212,79952,1,0,0:0:0:0:
348,212,80036,1,0,0:0:0:0:
348,212,80119,1,0,0:0:0:0:
168,288,80286,6,0,P|144:280|120:256,1,53.9999983520508
196,200,80452,2,0,P|199:174|219:147,1,53.9999983520508
296,201,80619,2,0,P|321:200|352:214,1,53.9999983520508
300,296,80786,1,0,0:0:0:0:
108,216,81119,6,0,P|104:184|192:104,1,161.999995056153
200,232,81452,2,0,L|190:339,1,107.999996704102
88,320,81786,1,0,0:0:0:0:
260,184,81952,6,0,L|250:291,1,107.999996704102
148,272,82286,1,0,0:0:0:0:
316,140,82452,6,0,L|306:247,1,107.999996704102
204,228,82786,1,0,0:0:0:0:
248,72,82952,2,0,P|276:48|296:44,2,53.9999983520508
400,200,83286,6,0,L|410:93,2,107.999996704102
176,172,83786,2,0,P|152:156|124:80,1,107.999996704102
216,92,84119,5,0,0:0:0:0:
272,172,84286,1,0,0:0:0:0:
104,220,84452,1,0,0:0:0:0:
144,40,84619,1,0,0:0:0:0:
340,128,84786,6,0,P|352:152|328:232,1,107.999996704102
232,168,85119,1,0,0:0:0:0:
368,36,85286,2,0,P|393:44|433:118,1,107.999996704102
388,256,85619,5,0,0:0:0:0:
320,148,85786,1,0,0:0:0:0:
440,152,85952,1,0,0:0:0:0:
276,224,86119,6,0,P|248:208|232:184,1,53.9999983520508
360,60,86286,2,0,P|388:76|404:100,1,53.9999983520508
368,264,86452,2,0,P|356:288|280:324,1,107.999996704102
256,192,86786,12,0,89452,0:0:0:0:
325,73,97452,6,0,L|332:145,1,67.5000025749208
176,56,97786,2,0,L|169:127,1,67.5000025749208
256,276,98119,2,0,L|261:208,1,67.5000025749208
160,312,98452,2,0,P|172:344|200:368,1,67.5000025749208
332,252,98786,6,0,L|337:184,1,67.5000025749208
252,44,99119,2,0,L|257:111,2,67.5000025749208
408,80,99619,1,0,0:0:0:0:
408,80,99786,2,0,L|413:147,1,67.5000025749208
256,224,100119,6,0,P|220:216|172:184,1,90
252,44,100452,2,0,P|288:52|336:84,1,90
324,280,100786,2,0,P|292:299|236:311,1,90
72,184,101119,2,0,L|80:92,1,90
308,48,101452,6,0,L|316:139,1,90
184,96,101786,1,0,0:0:0:0:
400,16,101952,1,0,0:0:0:0:
400,16,102119,2,0,L|408:107,1,90
216,244,102452,2,0,L|223:154,1,90
392,240,102786,5,0,0:0:0:0:
308,340,102952,1,0,0:0:0:0:
264,224,103119,1,0,0:0:0:0:
376,276,103286,5,0,0:0:0:0:
245,287,103452,1,0,0:0:0:0:
296,174,103619,1,0,0:0:0:0:
316,336,103786,2,0,P|296:360|216:368,1,107.999996704102
192,196,104119,5,0,0:0:0:0:
344,112,104286,1,0,0:0:0:0:
352,280,104452,1,0,0:0:0:0:
160,292,104619,1,0,0:0:0:0:
152,124,104785,5,0,0:0:0:0:
312,300,104952,1,0,0:0:0:0:
80,248,105119,1,0,0:0:0:0:
296,152,105286,1,0,0:0:0:0:
180,360,105452,2,0,P|128:368|72:356,2,107.999996704102
148,192,105952,5,0,0:0:0:0:
48,252,106119,1,0,0:0:0:0:
220,284,106286,1,0,0:0:0:0:
220,84,106452,5,0,0:0:0:0:
186,66,106535,1,0,0:0:0:0:
149,58,106618,1,0,0:0:0:0:
112,61,106701,1,0,0:0:0:0:
77,74,106785,1,0,0:0:0:0:
47,97,106868,1,0,0:0:0:0:
25,128,106951,1,0,0:0:0:0:
12,163,107035,1,0,0:0:0:0:
10,201,107119,2,0,L|24:232,6,26.9999991760254
44,272,107452,6,0,B|92:308|92:308|136:224|208:320|208:320|264:276|264:224,1,323.999990112305
236,56,108119,6,0,B|200:63|126:99|193:168|193:168|249:111|331:157|331:157|349:208,1,360
332,336,108619,6,0,P|304:352|256:360,1,67.5000025749208
93,185,108786,2,0,P|93:153|110:108,1,67.5000025749208
244,172,108952,5,0,0:0:0:0:
56,268,109119,1,0,0:0:0:0:
56,52,109286,1,0,0:0:0:0:
244,132,109452,6,0,L|244:188,1,53.9999983520508
320,64,109952,6,0,L|320:160,1,90
192,248,110286,5,0,0:0:0:0:
180,100,110452,1,0,0:0:0:0:
396,192,110619,1,0,0:0:0:0:
204,336,110786,6,0,B|128:356|96:268|96:268|62:309|62:309|24:272|16:244|16:244|8:272|8:272|-12:216,1,360
176,72,111286,5,0,0:0:0:0:
176,72,111452,2,0,L|176:172,1,90
60,72,111786,1,0,0:0:0:0:
336,12,111952,1,0,0:0:0:0:
344,108,112119,1,0,0:0:0:0:
136,68,112286,6,0,L|136:24,1,45
312,60,112452,2,0,L|312:200,1,135.000005149842
164,184,112786,1,0,0:0:0:0:
224,16,112952,6,0,L|288:48,1,67.5000025749208
260,200,113119,2,0,B|200:316|96:248|96:248|56:284|56:284|60:344|140:348,1,360
432,208,113786,5,0,0:0:0:0:
432,208,113869,1,0,0:0:0:0:
432,208,113952,2,0,P|428:168|352:108,1,135.000005149842
324,212,114286,5,0,0:0:0:0:
400,328,114452,2,0,L|471:321,1,67.5000025749208
312,248,114619,2,0,L|240:241,1,67.5000025749208
330,379,114786,6,0,L|386:374,1,53.9999983520508
140,292,115286,6,0,L|280:292,1,135.000005149842
140,176,115619,5,0,0:0:0:0:
64,240,115786,2,0,P|52:264|120:384,1,180
236,160,116119,6,0,B|196:64|104:88|104:88|163:20|241:15|241:15|280:52,1,360
356,192,116619,5,0,0:0:0:0:
198,251,116786,2,0,L|58:238,1,135.000005149842
144,116,117119,1,0,0:0:0:0:
144,116,117286,1,0,0:0:0:0:
304,148,117452,5,0,0:0:0:0:
216,160,117619,1,0,0:0:0:0:
164,16,117786,1,0,0:0:0:0:
384,48,117952,1,0,0:0:0:0:
272,236,118119,5,0,0:0:0:0:
164,88,118286,1,0,0:0:0:0:
356,160,118452,1,0,0:0:0:0:
385,212,118535,1,0,0:0:0:0:
384,272,118618,1,0,0:0:0:0:
353,323,118701,1,0,0:0:0:0:
300,352,118786,6,0,P|260:356|172:316,1,135.000005149842
260,240,119036,1,0,0:0:0:0:
260,240,119119,2,0,P|280:220|304:120,1,135.000005149842
168,144,119452,1,0,0:0:0:0:
120,264,119619,6,0,L|126:339,1,67.5000025749208
224,156,119786,2,0,L|217:231,1,67.5000025749208
68,120,119952,2,0,L|-8:126,1,67.5000025749208
236,64,120119,6,0,P|272:72|320:152,1,135.000005149842
176,208,120452,1,0,0:0:0:0:
400,152,120619,6,0,P|392:187|312:236,1,135.000005149842
176,208,120952,1,0,0:0:0:0:
392,64,121119,6,0,P|424:64|460:84,1,67.5000025749208
404,328,121286,2,0,L|324:334,1,67.5000025749208
84,224,121452,6,0,B|76:136|160:116|160:116|132:64|132:64|252:76|256:136|256:136|316:136|336:180,1,450
172,360,121952,5,0,0:0:0:0:
0,136,122119,2,0,L|0:-4,1,135.000005149842
200,136,122452,5,0,0:0:0:0:
108,368,122619,2,0,P|76:372|36:360,1,67.5000025749208
100,96,122786,1,0,0:0:0:0:
316,156,122952,5,0,0:0:0:0:
168,228,123119,1,0,0:0:0:0:
361,84,123286,2,0,L|429:90,1,67.5000025749208
296,288,123452,2,0,L|228:293,1,67.5000025749208
228,293,123619,1,0,0:0:0:0:
88,104,123786,6,0,B|100:44|100:44|176:56|192:16|192:16|252:48|256:100,1,270
120,200,124119,6,0,P|92:208|-12:72,1,225
192,120,124452,1,0,0:0:0:0:
172,296,124619,6,0,P|160:328|112:360,1,90
260,252,124786,2,0,P|274:283|262:339,1,90
168,196,124952,6,0,P|180:164|227:132,1,90
80,252,125119,2,0,B|40:200|36:128|36:128|84:104,1,180
328,144,125452,6,0,L|328:256,1,107.999996704102
408,64,125952,6,0,L|408:204,1,135.000005149842
300,48,126286,5,0,0:0:0:0:
484,136,126452,2,0,P|484:224|456:132,1,270.000010299683
312,244,126786,5,0,0:0:0:0:
312,244,126869,1,0,0:0:0:0:
312,244,126952,2,0,P|288:228|256:132,1,135.000005149842
380,148,127286,5,0,0:0:0:0:
232,296,127452,1,0,0:0:0:0:
176,72,127619,1,0,0:0:0:0:
404,236,127786,1,0,0:0:0:0:
188,344,127952,1,0,0:0:0:0:
84,144,128119,5,0,0:0:0:0:
94,85,128202,1,0,0:0:0:0:
139,46,128285,1,0,0:0:0:0:
199,43,128368,1,0,0:0:0:0:
247,78,128452,1,0,0:0:0:0:
116,248,128619,2,0,P|88:264|-12:244,1,135.000005149842
148,236,128869,6,0,P|139:267|54:323,1,135.000005149842
168,200,129119,6,0,P|184:228|164:328,1,135.000005149842
84,144,129452,6,0,L|93:32,1,107.999996704102
324,96,129786,2,0,L|332:203,1,107.999996704102
196,236,130119,1,0,0:0:0:0:
196,236,130286,1,0,0:0:0:0:
368,76,130452,2,0,L|376:183,1,107.999996704102
180,48,130786,6,0,L|292:57,1,107.999996704102
228,288,131120,2,0,L|120:296,1,107.999996704102
88,160,131453,1,0,0:0:0:0:
88,160,131620,1,0,0:0:0:0:
248,332,131786,2,0,L|140:340,1,107.999996704102
280,240,132119,6,0,P|316:264|340:324,1,107.999996704102
188,260,132452,1,0,0:0:0:0:
312,156,132619,1,0,0:0:0:0:
380,216,132786,1,0,0:0:0:0:
380,216,132952,1,0,0:0:0:0:
228,148,133119,2,0,P|236:112|300:68,1,107.999996704102
312,156,133452,5,0,0:0:0:0:
140,296,133786,1,0,0:0:0:0:
140,296,133869,1,0,0:0:0:0:
140,296,133952,1,0,0:0:0:0:
84,88,134119,1,0,0:0:0:0:
84,88,134286,1,0,0:0:0:0:
251,199,134452,2,0,L|241:307,1,107.999996704102
112,216,134786,5,0,0:0:0:0:
288,76,134952,1,0,0:0:0:0:
372,272,135119,1,0,0:0:0:0:
307,55,135286,5,0,0:0:0:0:
340,277,135452,1,0,0:0:0:0:
128,252,135619,1,0,0:0:0:0:
276,132,135786,5,0,0:0:0:0:
308,280,135952,1,0,0:0:0:0:
192,112,136119,6,0,P|204:76|272:40,1,107.999996704102
376,96,136369,2,0,L|365:215,1,107.999996704102
240,228,136619,1,0,0:0:0:0:
240,228,136786,1,0,0:0:0:0:
276,132,136952,5,0,0:0:0:0:
276,132,137036,1,0,0:0:0:0:
276,132,137119,1,0,0:0:0:0:
332,288,137286,1,0,0:0:0:0:
120,272,137452,5,0,0:0:0:0:
122,250,137535,1,0,0:0:0:0:
124,229,137618,1,0,0:0:0:0:
126,207,137702,1,0,0:0:0:0:
127,186,137785,1,0,0:0:0:0:
129,164,137868,1,0,0:0:0:0:
131,143,137952,1,0,0:0:0:0:
133,121,138035,1,0,0:0:0:0:
135,100,138118,1,0,0:0:0:0:
137,78,138202,1,0,0:0:0:0:
139,57,138285,1,0,0:0:0:0:
141,35,138368,1,0,0:0:0:0:
144,16,138452,2,0,P|176:24|252:12,1,107.999996704102
276,160,138786,6,0,L|236:204,1,53.9999983520508
364,144,138952,2,0,P|364:176|356:208,1,53.9999983520508
412,68,139119,2,0,P|434:90|451:118,1,53.9999983520508
440,264,139286,6,0,L|400:308,4,53.9999983520508
224,284,139786,2,0,P|192:272|148:208,1,107.999996704102
320,260,140119,6,0,L|309:375,1,107.999996704102
267,133,140452,2,0,L|278:248,1,107.999996704102
403,157,140786,1,0,0:0:0:0:
403,157,140952,1,0,0:0:0:0:
184,48,141119,2,0,P|160:72|152:152,1,107.999996704102
364,280,141452,6,0,L|507:267,1,135.000005149842
384,64,141786,2,0,B|332:16|332:16|272:64,1,135.000005149842
486,71,142119,2,0,B|434:23|434:23|374:71,1,135.000005149842
300,368,142452,2,0,L|156:355,1,135.000005149842
112,128,142786,6,0,P|120:104|188:52,1,107.999996704102
192,220,143119,2,0,P|148:240|56:232,1,135.000005149842
196,136,143452,1,0,0:0:0:0:
196,136,143619,1,0,0:0:0:0:
312,236,143786,2,0,P|295:281|224:340,1,135.000005149842
112,128,144119,6,0,P|120:104|188:52,1,107.999996704102
424,248,144452,2,0,L|414:359,1,107.999996704102
36,184,144786,2,0,P|24:161|36:76,1,107.999996704102
400,112,145119,2,0,L|409:223,1,107.999996704102
116,208,145452,6,0,L|116:148,3,53.9999983520508
220,212,145786,2,0,L|220:266,3,53.9999983520508
316,336,146119,5,0,0:0:0:0:
357,324,146202,1,0,0:0:0:0:
390,296,146285,1,0,0:0:0:0:
403,256,146369,1,0,0:0:0:0:
388,216,146452,1,0,0:0:0:0:
360,184,146535,1,0,0:0:0:0:
330,152,146619,1,0,0:0:0:0:
313,113,146702,1,0,0:0:0:0:
319,71,146786,5,0,0:0:0:0:
353,30,146869,1,0,0:0:0:0:
404,17,146952,1,0,0:0:0:0:
453,38,147036,1,0,0:0:0:0:
482,82,147119,1,0,0:0:0:0:
489,136,147202,1,0,0:0:0:0:
480,189,147286,1,0,0:0:0:0:
470,242,147369,1,0,0:0:0:0:
460,295,147452,5,0,0:0:0:0:
407,304,147535,1,0,0:0:0:0:
356,286,147618,1,0,0:0:0:0:
307,264,147702,1,0,0:0:0:0:
254,258,147785,1,0,0:0:0:0:
202,272,147868,1,0,0:0:0:0:
152,291,147952,1,0,0:0:0:0:
98,294,148035,1,0,0:0:0:0:
52,268,148119,6,0,L|46:204,3,53.9999983520508
144,144,148452,2,0,L|149:80,3,53.9999983520508
236,172,148786,6,0,P|228:200|208:220,1,53.9999983520508
308,124,148952,2,0,P|322:149|322:177,1,53.9999983520508
328,44,149119,2,0,P|356:51|376:71,3,53.9999983520508
408,184,149452,5,0,0:0:0:0:
404,228,149535,1,0,0:0:0:0:
380,264,149618,1,0,0:0:0:0:
344,288,149702,1,0,0:0:0:0:
300,280,149785,1,0,0:0:0:0:
264,256,149868,1,0,0:0:0:0:
220,248,149952,1,0,0:0:0:0:
180,260,150035,1,0,0:0:0:0:
144,284,150118,1,0,0:0:0:0:
116,316,150202,1,0,0:0:0:0:
112,360,150285,5,0,0:0:0:0:
160,120,150452,1,0,0:0:0:0:
252,208,150619,1,0,0:0:0:0:
87,155,150786,5,0,0:0:0:0:
87,155,150952,2,0,P|55:129|146:140,1,270.000010299683
88,244,151286,1,0,0:0:0:0:
88,244,151452,2,0,P|56:240|12:204,1,90
12,204,151786,1,0,0:0:0:0:
180,264,151952,5,0,0:0:0:0:
180,264,152036,1,0,0:0:0:0:
180,264,152119,2,0,P|170:294|127:331,1,90
88,244,152369,1,0,0:0:0:0:
88,244,152452,2,0,L|96:152,1,90
288,204,152786,2,0,L|295:293,1,90
136,76,153119,6,0,B|180:36|180:36|236:96|292:28,1,180
176,160,153452,6,0,P|144:172|64:8,1,270
281,129,154119,6,0,L|271:245,1,107.999996704102
168,272,154452,1,0,0:0:0:0:
176,160,154619,1,0,0:0:0:0:
304,40,154786,6,0,B|400:40|400:40|352:40|352:40|352:96,1,180
352,208,155119,1,0,0:0:0:0:
280,136,155286,1,0,0:0:0:0:
408,116,155452,6,0,P|432:132|428:280,1,180
264,296,155786,2,0,L|257:224,1,67.5000025749208
386,28,156119,6,0,P|417:22|488:60,1,107.999996704102
340,120,156369,1,0,0:0:0:0:
340,120,156452,2,0,P|288:116|360:100,1,270.000010299683
392,208,156786,5,0,0:0:0:0:
280,208,156952,1,0,0:0:0:0:
428,100,157119,1,0,0:0:0:0:
404,316,157286,1,0,0:0:0:0:
192,276,157452,5,0,0:0:0:0:
280,208,157619,1,0,0:0:0:0:
240,372,157786,2,0,L|252:320,1,53.9999983520508
296,148,157952,1,0,0:0:0:0:
92,216,158119,1,0,0:0:0:0:
192,276,158286,1,0,0:0:0:0:
220,96,158452,2,0,P|244:68|316:56,1,107.999996704102
412,248,158786,6,0,L|401:363,1,107.999996704102
284,220,159119,1,0,0:0:0:0:
488,148,159286,1,0,0:0:0:0:
360,172,159452,1,0,0:0:0:0:
464,56,159619,1,0,0:0:0:0:
496,252,159786,1,0,0:0:0:0:
300,140,159952,5,0,0:0:0:0:
428,160,160119,1,0,0:0:0:0:
132,216,160286,5,0,0:0:0:0:
260,236,160453,1,0,0:0:0:0:
216,76,160619,5,0,0:0:0:0:
92,284,160786,1,0,0:0:0:0:
356,288,160952,1,0,0:0:0:0:
180,24,161119,1,0,0:0:0:0:
184,340,161286,1,0,0:0:0:0:
448,168,161452,1,0,0:0:0:0:
