osu file format v14

[General]
AudioFilename: audio.mp3
AudioLeadIn: 0
PreviewTime: 69936
Countdown: 0
SampleSet: Normal
StackLeniency: 0.7
Mode: 1
LetterboxInBreaks: 0
WidescreenStoryboard: 0

[Editor]
Bookmarks: 1628,11475,21321,31167,41013,50859,60705,70552,79167,80398,89013,90244,100090,109936
DistanceSpacing: 0.8
BeatDivisor: 4
GridSize: 32
TimelineZoom: 3.199999

[Metadata]
Title:Ops:Code-Rapture-
TitleUnicode:Ops:Code-Rapture-
Artist:Getty vs. DJ DiA
ArtistUnicode:Getty vs. DJ DiA
Creator:eiri-
Version:Outer Oni
Source:SOUND VOLTEX III GRAVITY WARS
Tags:Ayyri _DUSK_ DUSK SDVX KONAMI BEMANI The 4th KAC Original Song Contest KACオリジナル楽曲コンテスト
BeatmapID:1593442
BeatmapSetID:757450

[Difficulty]
HPDrainRate:7
CircleSize:2
OverallDifficulty:7
ApproachRate:10
SliderMultiplier:1.4
SliderTickRate:1

[Events]
//Background and Video events
0,0,"Rapture.png",0,-90
//Break Periods
//Storyboard Layer 0 (Background)
//Storyboard Layer 1 (Fail)
//Storyboard Layer 2 (Pass)
//Storyboard Layer 3 (Foreground)
//Storyboard Sound Samples

[TimingPoints]
1628,307.692307692308,4,1,0,50,1,0
1628,-125,4,1,0,50,0,8
9320,-121.951219512195,4,1,0,50,0,8
9474,-119.047619047619,4,1,0,50,0,8
9628,-116.279069767442,4,1,0,50,0,8
9935,-113.636363636364,4,1,0,50,0,8
10243,-111.111111111111,4,1,0,75,0,8
11166,-105.263157894737,4,1,0,75,0,8
11320,-103.092783505155,4,1,0,75,0,8
11474,-100,4,1,0,75,0,8
18551,-99.009900990099,4,1,0,75,0,8
18704,-98.0392156862745,4,1,0,75,0,8
18858,-97.0873786407767,4,1,0,75,0,8
19012,-95.2380952380952,4,1,0,75,0,8
19320,-93.4579439252336,4,1,0,75,0,8
19474,-90.9090909090909,4,1,0,75,0,8
21012,-95.2380952380952,4,1,0,75,0,8
21166,-90.9090909090909,4,1,0,75,0,8
21320,-86.9565217391304,4,1,0,75,0,8
21474,-90.9090909090909,4,1,0,75,0,8
21628,-95.2380952380952,4,1,0,75,0,8
21781,-100,4,1,0,75,0,8
26089,-97.0873786407767,4,1,0,75,0,8
26243,-95.2380952380952,4,1,0,75,0,8
26858,-93.4579439252336,4,1,0,75,0,8
27474,-90.9090909090909,4,1,0,75,0,8
28089,-88.4955752212389,4,1,0,75,0,8
28704,-86.9565217391304,4,1,0,75,0,8
30858,-90.9090909090909,4,1,0,75,0,8
31012,-83.3333333333333,4,1,0,75,0,8
31166,-76.9230769230769,4,1,0,75,0,8
31781,-90.9090909090909,4,1,0,75,0,8
32012,-93.4579439252336,4,1,0,75,0,8
32243,-95.2380952380952,4,1,0,75,0,8
32397,-97.0873786407767,4,1,0,75,0,8
32551,-100,4,1,0,75,0,8
33474,-95.2380952380952,4,1,0,75,0,8
33628,-86.9565217391304,4,1,0,75,0,8
34243,-95.2380952380952,4,1,0,75,0,8
34474,-97.0873786407767,4,1,0,75,0,8
34858,-100,4,1,0,75,0,8
35935,-95.2380952380952,4,1,0,75,0,8
36089,-86.9565217391304,4,1,0,75,0,8
36295,-90.9090909090909,4,1,0,75,0,8
36551,-93.4579439252336,4,1,0,75,0,8
36704,-95.2380952380952,4,1,0,75,0,8
36858,-97.0873786407767,4,1,0,75,0,8
37166,-100,4,1,0,75,0,8
38397,-97.0873786407767,4,1,0,75,0,8
38551,-95.2380952380952,4,1,0,75,0,8
38704,-93.4579439252336,4,1,0,75,0,8
38858,-90.9090909090909,4,1,0,75,0,8
39935,-88.4955752212389,4,1,0,75,0,8
40089,-86.9565217391304,4,1,0,75,0,8
40243,-85.4700854700855,4,1,0,75,0,8
40397,-83.3333333333333,4,1,0,75,0,8
40704,-80,4,1,0,75,0,8
41012,-76.9230769230769,4,1,0,75,0,8
41320,-86.9565217391304,4,1,0,75,0,8
41474,-90.9090909090909,4,1,0,75,0,8
41628,-95.2380952380952,4,1,0,75,0,8
41781,-100,4,1,0,75,0,8
43320,-97.0873786407767,4,1,0,75,0,8
43474,-86.9565217391304,4,1,0,75,0,8
43781,-80,4,1,0,75,0,8
44089,-86.9565217391304,4,1,0,75,0,8
44243,-90.9090909090909,4,1,0,75,0,8
44551,-95.2380952380952,4,1,0,75,0,8
44858,-100,4,1,0,75,0,8
45781,-97.0873786407767,4,1,0,75,0,8
45935,-86.9565217391304,4,1,0,75,0,8
46089,-83.3333333333333,4,1,0,75,0,8
46243,-80,4,1,0,75,0,8
46551,-86.9565217391304,4,1,0,75,0,8
46704,-90.9090909090909,4,1,0,75,0,8
47012,-95.2380952380952,4,1,0,75,0,8
47320,-100,4,1,0,75,0,8
48243,-97.0873786407767,4,1,0,75,0,8
48397,-86.9565217391304,4,1,0,75,0,8
48704,-83.3333333333333,4,1,0,75,0,8
49012,-80,4,1,0,75,0,8
49166,-83.3333333333333,4,1,0,75,0,8
49243,-84.0336134453781,4,1,0,75,0,8
49320,-84.7457627118644,4,1,0,75,0,8
49397,-85.4700854700855,4,1,0,75,0,8
49474,-86.2068965517241,4,1,0,75,0,8
49551,-86.9565217391304,4,1,0,75,0,8
49628,-87.719298245614,4,1,0,75,0,8
49781,-89.2857142857143,4,1,0,75,0,8
49858,-90.0900900900901,4,1,0,75,0,8
49935,-90.9090909090909,4,1,0,75,0,8
50012,-91.743119266055,4,1,0,75,0,8
50089,-92.5925925925926,4,1,0,75,0,8
50166,-93.4579439252336,4,1,0,75,0,8
50243,-94.3396226415094,4,1,0,75,0,8
50320,-95.2380952380952,4,1,0,75,0,8
50397,-96.1538461538461,4,1,0,75,0,8
50474,-97.0873786407767,4,1,0,75,0,8
50551,-98.0392156862745,4,1,0,75,0,8
50704,-102.040816326531,4,1,0,75,0,8
50858,-106.382978723404,4,1,0,75,0,8
51012,-108.695652173913,4,1,0,75,0,8
51166,-111.111111111111,4,1,0,75,0,8
59781,-109.89010989011,4,1,0,75,0,8
60089,-108.695652173913,4,1,0,75,0,8
60243,-106.382978723404,4,1,0,75,0,8
60397,-104.166666666667,4,1,0,75,0,8
60551,-102.040816326531,4,1,0,75,0,8
60704,-100,4,1,0,75,0,8
61012,-99.009900990099,4,1,0,75,0,8
61320,-98.0392156862745,4,1,0,75,0,8
61628,-97.0873786407767,4,1,0,75,0,8
61935,-96.1538461538461,4,1,0,75,0,8
62243,-95.2380952380952,4,1,0,75,0,8
62551,-94.3396226415094,4,1,0,75,0,8
62858,-93.4579439252336,4,1,0,75,0,8
63166,-92.5925925925926,4,1,0,75,0,8
63474,-91.743119266055,4,1,0,75,0,8
63781,-90.9090909090909,4,1,0,75,0,8
64089,-90.0900900900901,4,1,0,75,0,8
64397,-89.2857142857143,4,1,0,75,0,8
64704,-88.4955752212389,4,1,0,75,0,8
65012,-87.719298245614,4,1,0,75,0,8
65320,-86.9565217391304,4,1,0,75,0,8
65628,-86.2068965517241,4,1,0,75,0,8
65781,-85.4700854700855,4,1,0,75,0,8
65935,-84.8896434634975,4,1,0,75,0,8
66089,-84.0336134453781,4,1,0,75,0,8
66243,-83.3333333333333,4,1,0,75,0,8
66397,-82.6446280991736,4,1,0,75,0,8
66551,-81.9672131147541,4,1,0,75,0,8
66704,-81.3008130081301,4,1,0,75,0,8
66858,-80.6451612903226,4,1,0,75,0,8
67012,-80,4,1,0,75,0,8
67166,-79.6178343949044,4,1,0,75,0,8
67320,-78.7401574803149,4,1,0,75,0,8
67474,-78.125,4,1,0,75,0,8
67628,-77.5193798449612,4,1,0,75,0,8
67781,-76.9230769230769,4,1,0,75,0,8
67935,-76.3358778625954,4,1,0,75,0,8
68089,-75.7575757575758,4,1,0,75,0,8
69935,-86.9565217391304,4,1,0,75,0,8
70166,-83.3333333333333,4,1,0,75,0,8
70397,-80,4,1,0,75,0,8
70551,-76.9230769230769,4,1,0,75,0,9
70704,-83.3333333333333,4,1,0,75,0,9
70781,-84.0336134453781,4,1,0,75,0,9
70858,-84.7457627118644,4,1,0,75,0,9
70935,-85.4700854700855,4,1,0,75,0,9
71012,-86.2068965517241,4,1,0,75,0,9
71089,-86.9565217391304,4,1,0,75,0,9
71166,-87.719298245614,4,1,0,75,0,9
71243,-88.4955752212389,4,1,0,75,0,9
71320,-89.2857142857143,4,1,0,75,0,9
71397,-90.0900900900901,4,1,0,75,0,9
71474,-90.9090909090909,4,1,0,75,0,9
71551,-91.743119266055,4,1,0,75,0,9
71628,-92.5925925925926,4,1,0,75,0,9
71704,-93.4579439252336,4,1,0,75,0,9
71781,-94.3396226415094,4,1,0,75,0,9
71858,-95.2380952380952,4,1,0,75,0,9
71935,-96.1538461538461,4,1,0,75,0,9
72012,-97.0873786407767,4,1,0,75,0,9
72089,-98.0392156862745,4,1,0,75,0,9
72166,-99.009900990099,4,1,0,75,0,9
72243,-100,4,1,0,75,0,9
78704,-97.0873786407767,4,1,0,75,0,9
78858,-95.2380952380952,4,1,0,75,0,9
79012,-93.4579439252336,4,1,0,75,0,9
79166,-90.9090909090909,4,1,0,75,0,8
79474,-86.9565217391304,4,1,0,75,0,8
79781,-83.3333333333333,4,1,0,75,0,8
79935,-86.9565217391304,4,1,0,75,0,8
80089,-90.9090909090909,4,1,0,75,0,8
80243,-95.2380952380952,4,1,0,75,0,8
80397,-100,4,1,0,75,0,9
89012,-100,4,1,0,75,0,8
89166,-97.0873786407767,4,1,0,75,0,8
89320,-95.2380952380952,4,1,0,75,0,8
89474,-93.4579439252336,4,1,0,75,0,8
89628,-90.9090909090909,4,1,0,75,0,8
89935,-86.9565217391304,4,1,0,75,0,8
90243,-83.3333333333333,4,1,0,75,0,8
90397,-86.9565217391304,4,1,0,75,0,8
90858,-90.9090909090909,4,1,0,75,0,8
91012,-95.2380952380952,4,1,0,75,0,8
91320,-100,4,1,0,75,0,8
98704,-97.0873786407767,4,1,0,75,0,8
98858,-90.9090909090909,4,1,0,75,0,8
99166,-86.9565217391304,4,1,0,75,0,8
99320,-85.4700854700855,4,1,0,75,0,8
99474,-83.3333333333333,4,1,0,75,0,8
99628,-81.3008130081301,4,1,0,75,0,8
99781,-80,4,1,0,75,0,8
99935,-78.7401574803149,4,1,0,75,0,8
100089,-76.9230769230769,4,1,0,75,0,8
100243,-80,4,1,0,75,0,8
100858,-83.3333333333333,4,1,0,75,0,8
101474,-86.9565217391304,4,1,0,75,0,8
102089,-90.9090909090909,4,1,0,75,0,8
102704,-95.2380952380952,4,1,0,75,0,8
103320,-100,4,1,0,75,0,8
108858,-95.2380952380952,4,1,0,75,0,8
109012,-90.9090909090909,4,1,0,75,0,8
109166,-86.9565217391304,4,1,0,75,0,8
109320,-83.3333333333333,4,1,0,75,0,8
109474,-80,4,1,0,75,0,8
109628,-76.9230769230769,4,1,0,75,0,8
109781,-74.0740740740741,4,1,0,75,0,8
109935,-71.4285714285714,4,1,0,75,0,8

[HitObjects]
256,192,1628,5,12,0:0:0:0:
256,192,2089,1,8,0:0:0:0:
256,192,2243,1,8,0:0:0:0:
256,192,2704,1,0,0:0:0:0:
256,192,2858,1,8,0:0:0:0:
256,192,3166,1,0,0:0:0:0:
256,192,3320,1,8,0:0:0:0:
256,192,3474,1,0,0:0:0:0:
256,192,3628,1,0,0:0:0:0:
256,192,3781,1,8,0:0:0:0:
256,192,3935,1,0,0:0:0:0:
256,192,4089,1,8,0:0:0:0:
256,192,4397,1,0,0:0:0:0:
256,192,4551,1,8,0:0:0:0:
256,192,4704,1,0,0:0:0:0:
256,192,4858,1,8,0:0:0:0:
256,192,5012,1,0,0:0:0:0:
256,192,5166,1,0,0:0:0:0:
256,192,5474,1,0,0:0:0:0:
256,192,5628,1,8,0:0:0:0:
256,192,5781,1,8,0:0:0:0:
256,192,5935,1,0,0:0:0:0:
256,192,6089,1,0,0:0:0:0:
256,192,6243,1,8,0:0:0:0:
256,192,6397,1,0,0:0:0:0:
256,192,6551,1,8,0:0:0:0:
256,192,7012,1,8,0:0:0:0:
256,192,7166,1,8,0:0:0:0:
256,192,7628,1,0,0:0:0:0:
256,192,7781,1,8,0:0:0:0:
256,192,8089,1,0,0:0:0:0:
256,192,8243,1,8,0:0:0:0:
256,192,8397,1,0,0:0:0:0:
256,192,8551,1,0,0:0:0:0:
256,192,8704,1,8,0:0:0:0:
256,192,8858,1,0,0:0:0:0:
256,192,9012,1,8,0:0:0:0:
256,192,9320,1,0,0:0:0:0:
256,192,9474,1,8,0:0:0:0:
256,192,9628,1,0,0:0:0:0:
256,192,9935,1,8,0:0:0:0:
256,192,10243,1,4,0:0:0:0:
256,192,11166,1,4,0:0:0:0:
256,192,11320,1,4,0:0:0:0:
256,192,11474,1,12,0:0:0:0:
256,192,11704,1,8,0:0:0:0:
256,192,11781,1,0,0:0:0:0:
256,192,11935,1,0,0:0:0:0:
256,192,12089,1,8,0:0:0:0:
256,192,12243,1,0,0:0:0:0:
256,192,12397,1,8,0:0:0:0:
256,192,12551,1,0,0:0:0:0:
256,192,12628,1,0,0:0:0:0:
256,192,12704,1,8,0:0:0:0:
256,192,12858,1,0,0:0:0:0:
256,192,13012,1,8,0:0:0:0:
256,192,13089,1,8,0:0:0:0:
256,192,13166,1,0,0:0:0:0:
256,192,13320,1,0,0:0:0:0:
256,192,13397,1,0,0:0:0:0:
256,192,13474,1,8,0:0:0:0:
256,192,13628,1,0,0:0:0:0:
256,192,13781,1,8,0:0:0:0:
256,192,13935,1,0,0:0:0:0:
256,192,14166,1,8,0:0:0:0:
256,192,14243,1,0,0:0:0:0:
256,192,14397,1,0,0:0:0:0:
256,192,14551,1,8,0:0:0:0:
256,192,14704,1,0,0:0:0:0:
256,192,14858,1,8,0:0:0:0:
256,192,15012,1,0,0:0:0:0:
256,192,15089,1,0,0:0:0:0:
256,192,15166,1,8,0:0:0:0:
256,192,15320,1,0,0:0:0:0:
256,192,15474,1,8,0:0:0:0:
256,192,15551,1,8,0:0:0:0:
256,192,15628,1,0,0:0:0:0:
256,192,15781,1,0,0:0:0:0:
256,192,15858,1,0,0:0:0:0:
256,192,15935,1,8,0:0:0:0:
256,192,16089,1,0,0:0:0:0:
256,192,16243,1,8,0:0:0:0:
256,192,16397,1,0,0:0:0:0:
256,192,16628,1,8,0:0:0:0:
256,192,16704,1,0,0:0:0:0:
256,192,16858,1,0,0:0:0:0:
256,192,17012,1,8,0:0:0:0:
256,192,17166,1,0,0:0:0:0:
256,192,17320,1,8,0:0:0:0:
256,192,17474,1,0,0:0:0:0:
256,192,17551,1,0,0:0:0:0:
256,192,17628,1,8,0:0:0:0:
256,192,17781,1,0,0:0:0:0:
256,192,17935,1,8,0:0:0:0:
256,192,18012,1,8,0:0:0:0:
256,192,18089,1,0,0:0:0:0:
256,192,18243,1,0,0:0:0:0:
256,192,18320,1,0,0:0:0:0:
256,192,18397,1,8,0:0:0:0:
256,192,18551,1,8,0:0:0:0:
256,192,18704,1,0,0:0:0:0:
256,192,18858,1,8,0:0:0:0:
256,192,19012,1,8,0:0:0:0:
256,192,19089,1,0,0:0:0:0:
256,192,19166,1,8,0:0:0:0:
256,192,19320,1,8,0:0:0:0:
256,192,19474,1,8,0:0:0:0:
256,192,19551,1,0,0:0:0:0:
256,192,19628,1,8,0:0:0:0:
256,192,19704,1,8,0:0:0:0:
256,192,19781,1,8,0:0:0:0:
256,192,19858,1,0,0:0:0:0:
256,192,19935,1,0,0:0:0:0:
256,192,20012,1,0,0:0:0:0:
256,192,20089,1,12,0:0:0:0:
256,192,21012,1,4,0:0:0:0:
256,192,21166,1,4,0:0:0:0:
256,192,21320,1,12,0:0:0:0:
256,192,21474,1,0,0:0:0:0:
256,192,21628,1,8,0:0:0:0:
256,192,21781,1,0,0:0:0:0:
256,192,21858,1,8,0:0:0:0:
256,192,21935,1,0,0:0:0:0:
256,192,22012,1,8,0:0:0:0:
256,192,22089,1,0,0:0:0:0:
256,192,22166,1,0,0:0:0:0:
256,192,22243,1,8,0:0:0:0:
256,192,22397,1,0,0:0:0:0:
256,192,22474,1,8,0:0:0:0:
256,192,22551,1,8,0:0:0:0:
256,192,22704,1,0,0:0:0:0:
256,192,22858,1,8,0:0:0:0:
256,192,23012,1,0,0:0:0:0:
256,192,23089,1,8,0:0:0:0:
256,192,23166,1,0,0:0:0:0:
256,192,23243,1,8,0:0:0:0:
256,192,23320,1,0,0:0:0:0:
256,192,23397,1,0,0:0:0:0:
256,192,23474,1,8,0:0:0:0:
256,192,23628,1,8,0:0:0:0:
256,192,23704,1,0,0:0:0:0:
256,192,23781,1,8,0:0:0:0:
256,192,23858,1,8,0:0:0:0:
256,192,23935,1,0,0:0:0:0:
256,192,24089,1,8,0:0:0:0:
256,192,24243,1,0,0:0:0:0:
256,192,24320,1,8,0:0:0:0:
256,192,24397,1,0,0:0:0:0:
256,192,24474,1,8,0:0:0:0:
256,192,24551,1,8,0:0:0:0:
256,192,24628,1,0,0:0:0:0:
256,192,24704,1,8,0:0:0:0:
256,192,24858,1,8,0:0:0:0:
256,192,25012,1,8,0:0:0:0:
256,192,25089,1,8,0:0:0:0:
256,192,25166,1,0,0:0:0:0:
256,192,25243,1,0,0:0:0:0:
256,192,25320,1,8,0:0:0:0:
256,192,25474,1,0,0:0:0:0:
256,192,25551,1,8,0:0:0:0:
256,192,25628,1,0,0:0:0:0:
256,192,25704,1,8,0:0:0:0:
256,192,25781,1,8,0:0:0:0:
256,192,25858,1,0,0:0:0:0:
256,192,25935,1,8,0:0:0:0:
256,192,26089,1,0,0:0:0:0:
256,192,26243,1,12,0:0:0:0:
256,192,26397,1,0,0:0:0:0:
256,192,26551,1,8,0:0:0:0:
256,192,26628,1,0,0:0:0:0:
256,192,26704,1,8,0:0:0:0:
256,192,26858,1,12,0:0:0:0:
256,192,27012,1,0,0:0:0:0:
256,192,27166,1,8,0:0:0:0:
256,192,27243,1,0,0:0:0:0:
256,192,27320,1,8,0:0:0:0:
256,192,27474,1,12,0:0:0:0:
256,192,27628,1,0,0:0:0:0:
256,192,27781,1,8,0:0:0:0:
256,192,27858,1,0,0:0:0:0:
256,192,27935,1,8,0:0:0:0:
256,192,28089,1,12,0:0:0:0:
256,192,28243,1,0,0:0:0:0:
256,192,28397,1,8,0:0:0:0:
256,192,28474,1,0,0:0:0:0:
256,192,28551,1,8,0:0:0:0:
256,192,28704,1,8,0:0:0:0:
256,192,28781,1,8,0:0:0:0:
256,192,28858,1,0,0:0:0:0:
256,192,28935,1,0,0:0:0:0:
256,192,29012,1,8,0:0:0:0:
256,192,29089,1,8,0:0:0:0:
256,192,29166,1,0,0:0:0:0:
256,192,29243,1,0,0:0:0:0:
256,192,29320,1,8,0:0:0:0:
256,192,29397,1,8,0:0:0:0:
256,192,29474,1,0,0:0:0:0:
256,192,29551,1,0,0:0:0:0:
256,192,29628,1,8,0:0:0:0:
256,192,29704,1,0,0:0:0:0:
256,192,29781,1,8,0:0:0:0:
256,192,29858,1,0,0:0:0:0:
256,192,29935,1,12,0:0:0:0:
256,192,30858,1,4,0:0:0:0:
256,192,31012,1,4,0:0:0:0:
256,192,31166,1,12,0:0:0:0:
256,192,31781,1,0,0:0:0:0:
256,192,32012,1,0,0:0:0:0:
256,192,32089,1,8,0:0:0:0:
256,192,32243,1,0,0:0:0:0:
256,192,32397,1,8,0:0:0:0:
256,192,32551,1,0,0:0:0:0:
256,192,32704,1,8,0:0:0:0:
256,192,32858,1,8,0:0:0:0:
256,192,33012,1,0,0:0:0:0:
256,192,33166,1,0,0:0:0:0:
256,192,33243,1,8,0:0:0:0:
256,192,33320,1,0,0:0:0:0:
256,192,33474,1,0,0:0:0:0:
256,192,33628,1,12,0:0:0:0:
256,192,34243,1,0,0:0:0:0:
256,192,34474,1,0,0:0:0:0:
256,192,34551,1,8,0:0:0:0:
256,192,34628,1,0,0:0:0:0:
256,192,34704,1,8,0:0:0:0:
256,192,34858,1,8,0:0:0:0:
256,192,35012,1,0,0:0:0:0:
256,192,35166,1,8,0:0:0:0:
256,192,35320,1,8,0:0:0:0:
256,192,35474,1,0,0:0:0:0:
256,192,35628,1,8,0:0:0:0:
256,192,35704,1,0,0:0:0:0:
256,192,35781,1,8,0:0:0:0:
256,192,35935,1,0,0:0:0:0:
256,192,36089,1,12,0:0:0:0:
256,192,36294,1,0,0:0:0:0:
256,192,36397,1,8,0:0:0:0:
256,192,36551,1,0,0:0:0:0:
256,192,36704,1,8,0:0:0:0:
256,192,36858,1,8,0:0:0:0:
256,192,36935,1,0,0:0:0:0:
256,192,37012,1,8,0:0:0:0:
256,192,37166,1,0,0:0:0:0:
256,192,37320,1,8,0:0:0:0:
256,192,37474,1,0,0:0:0:0:
256,192,37628,1,8,0:0:0:0:
256,192,37781,1,8,0:0:0:0:
256,192,37935,1,0,0:0:0:0:
256,192,38089,1,0,0:0:0:0:
256,192,38166,1,8,0:0:0:0:
256,192,38243,1,0,0:0:0:0:
256,192,38397,1,0,0:0:0:0:
256,192,38551,1,12,0:0:0:0:
256,192,38704,1,0,0:0:0:0:
256,192,38858,1,12,0:0:0:0:
256,192,39012,1,0,0:0:0:0:
256,192,39089,1,0,0:0:0:0:
256,192,39166,1,8,0:0:0:0:
256,192,39243,1,8,0:0:0:0:
256,192,39320,1,8,0:0:0:0:
256,192,39397,1,8,0:0:0:0:
256,192,39474,1,0,0:0:0:0:
256,192,39551,1,8,0:0:0:0:
256,192,39628,1,0,0:0:0:0:
256,192,39704,1,0,0:0:0:0:
256,192,39781,1,8,0:0:0:0:
256,192,39935,1,8,0:0:0:0:
256,192,40089,1,8,0:0:0:0:
256,192,40243,1,8,0:0:0:0:
256,192,40397,1,12,0:0:0:0:
256,192,40704,1,4,0:0:0:0:
256,192,41012,1,12,0:0:0:0:
256,192,41320,1,12,0:0:0:0:
256,192,41474,1,0,0:0:0:0:
256,192,41628,1,8,0:0:0:0:
256,192,41781,1,0,0:0:0:0:
256,192,41858,1,0,0:0:0:0:
256,192,41935,1,8,0:0:0:0:
256,192,42089,1,8,0:0:0:0:
256,192,42166,1,0,0:0:0:0:
256,192,42243,1,8,0:0:0:0:
256,192,42397,1,0,0:0:0:0:
256,192,42551,1,8,0:0:0:0:
256,192,42628,1,8,0:0:0:0:
256,192,42704,1,0,0:0:0:0:
256,192,42858,1,8,0:0:0:0:
256,192,43012,1,8,0:0:0:0:
256,192,43089,1,0,0:0:0:0:
256,192,43166,1,8,0:0:0:0:
256,192,43320,1,0,0:0:0:0:
256,192,43474,1,12,0:0:0:0:
256,192,43781,1,12,0:0:0:0:
256,192,44089,1,8,0:0:0:0:
256,192,44243,1,0,0:0:0:0:
256,192,44320,1,0,0:0:0:0:
256,192,44397,1,8,0:0:0:0:
256,192,44551,1,8,0:0:0:0:
256,192,44628,1,0,0:0:0:0:
256,192,44704,1,8,0:0:0:0:
256,192,44858,1,0,0:0:0:0:
256,192,45012,1,8,0:0:0:0:
256,192,45089,1,8,0:0:0:0:
256,192,45166,1,0,0:0:0:0:
256,192,45320,1,8,0:0:0:0:
256,192,45474,1,8,0:0:0:0:
256,192,45551,1,0,0:0:0:0:
256,192,45628,1,8,0:0:0:0:
256,192,45781,1,0,0:0:0:0:
256,192,45935,1,12,0:0:0:0:
256,192,46089,1,4,0:0:0:0:
256,192,46243,1,12,0:0:0:0:
256,192,46551,1,8,0:0:0:0:
256,192,46704,1,0,0:0:0:0:
256,192,46781,1,0,0:0:0:0:
256,192,46858,1,8,0:0:0:0:
256,192,47012,1,8,0:0:0:0:
256,192,47089,1,0,0:0:0:0:
256,192,47166,1,8,0:0:0:0:
256,192,47320,1,0,0:0:0:0:
256,192,47474,1,8,0:0:0:0:
256,192,47551,1,8,0:0:0:0:
256,192,47628,1,0,0:0:0:0:
256,192,47781,1,8,0:0:0:0:
256,192,47935,1,8,0:0:0:0:
256,192,48012,1,0,0:0:0:0:
256,192,48089,1,8,0:0:0:0:
256,192,48243,1,0,0:0:0:0:
256,192,48397,1,12,0:0:0:0:
256,192,48704,1,12,0:0:0:0:
256,192,49012,1,12,0:0:0:0:
256,192,49166,1,8,0:0:0:0:
256,192,49243,1,0,0:0:0:0:
256,192,49320,1,0,0:0:0:0:
256,192,49397,1,8,0:0:0:0:
256,192,49474,1,8,0:0:0:0:
256,192,49551,1,0,0:0:0:0:
256,192,49628,1,8,0:0:0:0:
256,192,49781,1,0,0:0:0:0:
256,192,49858,1,0,0:0:0:0:
256,192,49935,1,8,0:0:0:0:
256,192,50012,1,8,0:0:0:0:
256,192,50089,1,0,0:0:0:0:
256,192,50166,1,8,0:0:0:0:
256,192,50243,1,8,0:0:0:0:
256,192,50320,1,0,0:0:0:0:
256,192,50397,1,0,0:0:0:0:
256,192,50474,1,0,0:0:0:0:
256,192,50551,1,12,0:0:0:0:
256,192,50704,1,4,0:0:0:0:
256,192,50858,1,12,0:0:0:0:
256,192,51012,1,0,0:0:0:0:
256,192,51166,1,8,0:0:0:0:
256,192,51320,1,0,0:0:0:0:
256,192,51474,1,0,0:0:0:0:
256,192,51628,1,8,0:0:0:0:
256,192,51781,1,8,0:0:0:0:
256,192,51935,1,0,0:0:0:0:
256,192,52089,1,8,0:0:0:0:
256,192,52243,1,8,0:0:0:0:
256,192,52397,1,0,0:0:0:0:
256,192,52551,1,8,0:0:0:0:
256,192,52704,1,8,0:0:0:0:
256,192,52858,1,8,0:0:0:0:
256,192,53012,1,0,0:0:0:0:
256,192,53166,1,8,0:0:0:0:
256,192,53320,1,0,0:0:0:0:
256,192,53474,1,0,0:0:0:0:
256,192,53628,1,8,0:0:0:0:
256,192,53781,1,0,0:0:0:0:
256,192,53935,1,8,0:0:0:0:
256,192,54089,1,8,0:0:0:0:
256,192,54243,1,8,0:0:0:0:
256,192,54397,1,0,0:0:0:0:
256,192,54551,1,8,0:0:0:0:
256,192,54704,1,8,0:0:0:0:
256,192,54858,1,0,0:0:0:0:
256,192,55012,1,8,0:0:0:0:
256,192,55166,1,0,0:0:0:0:
256,192,55320,1,8,0:0:0:0:
256,192,55474,1,8,0:0:0:0:
256,192,55628,1,8,0:0:0:0:
256,192,55781,1,0,0:0:0:0:
256,192,55935,1,8,0:0:0:0:
256,192,56089,1,8,0:0:0:0:
256,192,56243,1,0,0:0:0:0:
256,192,56397,1,8,0:0:0:0:
256,192,56551,1,8,0:0:0:0:
256,192,56704,1,0,0:0:0:0:
256,192,56858,1,0,0:0:0:0:
256,192,57012,1,8,0:0:0:0:
256,192,57166,1,8,0:0:0:0:
256,192,57320,1,0,0:0:0:0:
256,192,57474,1,8,0:0:0:0:
256,192,57628,1,8,0:0:0:0:
256,192,57781,1,0,0:0:0:0:
256,192,57935,1,8,0:0:0:0:
256,192,58089,1,8,0:0:0:0:
256,192,58243,1,8,0:0:0:0:
256,192,58397,1,0,0:0:0:0:
256,192,58551,1,0,0:0:0:0:
256,192,58704,1,8,0:0:0:0:
256,192,58858,1,0,0:0:0:0:
256,192,59012,1,0,0:0:0:0:
256,192,59166,1,8,0:0:0:0:
256,192,59320,1,8,0:0:0:0:
256,192,59474,1,4,0:0:0:0:
256,192,59781,1,8,0:0:0:0:
256,192,60089,1,8,0:0:0:0:
256,192,60243,1,8,0:0:0:0:
256,192,60397,1,4,0:0:0:0:
256,192,60551,1,4,0:0:0:0:
256,192,60704,1,12,0:0:0:0:
256,192,61012,1,0,0:0:0:0:
256,192,61320,1,0,0:0:0:0:
256,192,61628,1,0,0:0:0:0:
256,192,61935,1,12,0:0:0:0:
256,192,62243,1,0,0:0:0:0:
256,192,62551,1,0,0:0:0:0:
256,192,62858,1,0,0:0:0:0:
256,192,63166,1,12,0:0:0:0:
256,192,63474,1,0,0:0:0:0:
256,192,63781,1,0,0:0:0:0:
256,192,64089,1,0,0:0:0:0:
256,192,64397,1,12,0:0:0:0:
256,192,64704,1,0,0:0:0:0:
256,192,65012,1,0,0:0:0:0:
256,192,65320,1,0,0:0:0:0:
256,192,65628,1,12,0:0:0:0:
256,192,65781,1,0,0:0:0:0:
256,192,65935,1,0,0:0:0:0:
256,192,66089,1,0,0:0:0:0:
256,192,66243,1,12,0:0:0:0:
256,192,66397,1,0,0:0:0:0:
256,192,66551,1,0,0:0:0:0:
256,192,66704,1,0,0:0:0:0:
256,192,66858,1,12,0:0:0:0:
256,192,67012,1,0,0:0:0:0:
256,192,67166,1,0,0:0:0:0:
256,192,67320,1,0,0:0:0:0:
256,192,67474,1,12,0:0:0:0:
256,192,67628,1,0,0:0:0:0:
256,192,67781,1,0,0:0:0:0:
256,192,67935,1,0,0:0:0:0:
256,192,68089,1,8,0:0:0:0:
256,192,68166,1,8,0:0:0:0:
256,192,68243,1,0,0:0:0:0:
256,192,68320,1,8,0:0:0:0:
256,192,68397,1,8,0:0:0:0:
256,192,68474,1,0,0:0:0:0:
256,192,68551,1,8,0:0:0:0:
256,192,68628,1,0,0:0:0:0:
256,192,68704,1,8,0:0:0:0:
256,192,68781,1,8,0:0:0:0:
256,192,68858,1,0,0:0:0:0:
256,192,68935,1,8,0:0:0:0:
256,192,69012,1,8,0:0:0:0:
256,192,69089,1,8,0:0:0:0:
256,192,69166,1,8,0:0:0:0:
256,192,69243,1,0,0:0:0:0:
256,192,69320,1,12,0:0:0:0:
256,192,69935,1,4,0:0:0:0:
256,192,70166,1,4,0:0:0:0:
256,192,70397,1,4,0:0:0:0:
256,192,70551,1,12,0:0:0:0:
256,192,70704,1,0,0:0:0:0:
256,192,70781,1,0,0:0:0:0:
256,192,70858,1,8,0:0:0:0:
256,192,70935,1,8,0:0:0:0:
256,192,71012,1,0,0:0:0:0:
256,192,71089,1,0,0:0:0:0:
256,192,71166,1,8,0:0:0:0:
256,192,71243,1,0,0:0:0:0:
256,192,71320,1,8,0:0:0:0:
256,192,71397,1,8,0:0:0:0:
256,192,71474,1,0,0:0:0:0:
256,192,71551,1,8,0:0:0:0:
256,192,71628,1,0,0:0:0:0:
256,192,71704,1,0,0:0:0:0:
256,192,71781,1,8,0:0:0:0:
256,192,71858,1,8,0:0:0:0:
256,192,71935,1,0,0:0:0:0:
256,192,72012,1,8,0:0:0:0:
256,192,72089,1,0,0:0:0:0:
256,192,72166,1,0,0:0:0:0:
256,192,72243,1,8,0:0:0:0:
256,192,72320,1,0,0:0:0:0:
256,192,72397,1,8,0:0:0:0:
256,192,72474,1,0,0:0:0:0:
256,192,72551,1,8,0:0:0:0:
256,192,72628,1,8,0:0:0:0:
256,192,72704,1,0,0:0:0:0:
256,192,72781,1,0,0:0:0:0:
256,192,72858,1,8,0:0:0:0:
256,192,72935,1,0,0:0:0:0:
256,192,73012,1,8,0:0:0:0:
256,192,73089,1,8,0:0:0:0:
256,192,73166,1,0,0:0:0:0:
256,192,73243,1,8,0:0:0:0:
256,192,73320,1,8,0:0:0:0:
256,192,73397,1,0,0:0:0:0:
256,192,73474,1,8,0:0:0:0:
256,192,73551,1,0,0:0:0:0:
256,192,73628,1,8,0:0:0:0:
256,192,73704,1,8,0:0:0:0:
256,192,73781,1,0,0:0:0:0:
256,192,73858,1,8,0:0:0:0:
256,192,73935,1,8,0:0:0:0:
256,192,74012,1,8,0:0:0:0:
256,192,74089,1,8,0:0:0:0:
256,192,74166,1,0,0:0:0:0:
256,192,74243,1,8,0:0:0:0:
256,192,74320,1,0,0:0:0:0:
256,192,74397,1,8,0:0:0:0:
256,192,74474,1,0,0:0:0:0:
256,192,74551,1,8,0:0:0:0:
256,192,74628,1,8,0:0:0:0:
256,192,74704,1,0,0:0:0:0:
256,192,74781,1,0,0:0:0:0:
256,192,74858,1,8,0:0:0:0:
256,192,74935,1,8,0:0:0:0:
256,192,75012,1,8,0:0:0:0:
256,192,75089,1,8,0:0:0:0:
256,192,75166,1,0,0:0:0:0:
256,192,75243,1,0,0:0:0:0:
256,192,75320,1,8,0:0:0:0:
256,192,75474,1,8,0:0:0:0:
256,192,75551,1,8,0:0:0:0:
256,192,75628,1,8,0:0:0:0:
256,192,75704,1,8,0:0:0:0:
256,192,75781,1,0,0:0:0:0:
256,192,75858,1,0,0:0:0:0:
256,192,75935,1,8,0:0:0:0:
256,192,76012,1,0,0:0:0:0:
256,192,76089,1,8,0:0:0:0:
256,192,76166,1,0,0:0:0:0:
256,192,76243,1,0,0:0:0:0:
256,192,76320,1,8,0:0:0:0:
256,192,76397,1,8,0:0:0:0:
256,192,76474,1,0,0:0:0:0:
256,192,76551,1,8,0:0:0:0:
256,192,76628,1,0,0:0:0:0:
256,192,76704,1,8,0:0:0:0:
256,192,76781,1,8,0:0:0:0:
256,192,76858,1,0,0:0:0:0:
256,192,76935,1,0,0:0:0:0:
256,192,77012,1,8,0:0:0:0:
256,192,77089,1,0,0:0:0:0:
256,192,77166,1,8,0:0:0:0:
256,192,77243,1,0,0:0:0:0:
256,192,77320,1,8,0:0:0:0:
256,192,77397,1,8,0:0:0:0:
256,192,77474,1,0,0:0:0:0:
256,192,77551,1,0,0:0:0:0:
256,192,77628,1,8,0:0:0:0:
256,192,77704,1,0,0:0:0:0:
256,192,77781,1,8,0:0:0:0:
256,192,77858,1,0,0:0:0:0:
256,192,77935,1,8,0:0:0:0:
256,192,78012,1,8,0:0:0:0:
256,192,78089,1,0,0:0:0:0:
256,192,78166,1,8,0:0:0:0:
256,192,78243,1,8,0:0:0:0:
256,192,78320,1,0,0:0:0:0:
256,192,78397,1,8,0:0:0:0:
256,192,78474,1,0,0:0:0:0:
256,192,78551,1,8,0:0:0:0:
256,192,78704,1,0,0:0:0:0:
256,192,78858,1,8,0:0:0:0:
256,192,79012,1,8,0:0:0:0:
256,192,79166,1,4,0:0:0:0:
256,192,79474,1,4,0:0:0:0:
256,192,79781,1,4,0:0:0:0:
256,192,79935,1,8,0:0:0:0:
256,192,80089,1,4,0:0:0:0:
256,192,80243,1,4,0:0:0:0:
256,192,80397,1,12,0:0:0:0:
256,192,80551,1,0,0:0:0:0:
256,192,80628,1,8,0:0:0:0:
256,192,80704,1,0,0:0:0:0:
256,192,80781,1,0,0:0:0:0:
256,192,80858,1,8,0:0:0:0:
256,192,80935,1,0,0:0:0:0:
256,192,81012,1,8,0:0:0:0:
256,192,81089,1,8,0:0:0:0:
256,192,81166,1,0,0:0:0:0:
256,192,81243,1,0,0:0:0:0:
256,192,81320,1,8,0:0:0:0:
256,192,81397,1,0,0:0:0:0:
256,192,81474,1,8,0:0:0:0:
256,192,81551,1,0,0:0:0:0:
256,192,81628,1,8,0:0:0:0:
256,192,81704,1,8,0:0:0:0:
256,192,81781,1,0,0:0:0:0:
256,192,81858,1,8,0:0:0:0:
256,192,81935,1,8,0:0:0:0:
256,192,82012,1,0,0:0:0:0:
256,192,82089,1,8,0:0:0:0:
256,192,82166,1,0,0:0:0:0:
256,192,82243,1,8,0:0:0:0:
256,192,82320,1,8,0:0:0:0:
256,192,82397,1,8,0:0:0:0:
256,192,82474,1,8,0:0:0:0:
256,192,82551,1,0,0:0:0:0:
256,192,82628,1,0,0:0:0:0:
256,192,82704,1,8,0:0:0:0:
256,192,82781,1,0,0:0:0:0:
256,192,82858,1,8,0:0:0:0:
256,192,82935,1,8,0:0:0:0:
256,192,83012,1,0,0:0:0:0:
256,192,83089,1,8,0:0:0:0:
256,192,83166,1,8,0:0:0:0:
256,192,83243,1,0,0:0:0:0:
256,192,83320,1,0,0:0:0:0:
256,192,83397,1,8,0:0:0:0:
256,192,83474,1,8,0:0:0:0:
256,192,83551,1,0,0:0:0:0:
256,192,83628,1,0,0:0:0:0:
256,192,83704,1,8,0:0:0:0:
256,192,83781,1,8,0:0:0:0:
256,192,83858,1,8,0:0:0:0:
256,192,83935,1,8,0:0:0:0:
256,192,84012,1,0,0:0:0:0:
256,192,84089,1,8,0:0:0:0:
256,192,84166,1,0,0:0:0:0:
256,192,84243,1,8,0:0:0:0:
256,192,84320,1,0,0:0:0:0:
256,192,84397,1,8,0:0:0:0:
256,192,84474,1,8,0:0:0:0:
256,192,84551,1,0,0:0:0:0:
256,192,84628,1,0,0:0:0:0:
256,192,84704,1,8,0:0:0:0:
256,192,84781,1,8,0:0:0:0:
256,192,84858,1,8,0:0:0:0:
256,192,84935,1,8,0:0:0:0:
256,192,85012,1,0,0:0:0:0:
256,192,85089,1,0,0:0:0:0:
256,192,85166,1,8,0:0:0:0:
256,192,85320,1,8,0:0:0:0:
256,192,85397,1,8,0:0:0:0:
256,192,85474,1,0,0:0:0:0:
256,192,85551,1,0,0:0:0:0:
256,192,85628,1,8,0:0:0:0:
256,192,85704,1,0,0:0:0:0:
256,192,85781,1,8,0:0:0:0:
256,192,85858,1,0,0:0:0:0:
256,192,85935,1,8,0:0:0:0:
256,192,86012,1,8,0:0:0:0:
256,192,86089,1,0,0:0:0:0:
256,192,86166,1,0,0:0:0:0:
256,192,86243,1,8,0:0:0:0:
256,192,86320,1,0,0:0:0:0:
256,192,86397,1,8,0:0:0:0:
256,192,86474,1,0,0:0:0:0:
256,192,86551,1,8,0:0:0:0:
256,192,86628,1,8,0:0:0:0:
256,192,86704,1,0,0:0:0:0:
256,192,86781,1,8,0:0:0:0:
256,192,86858,1,8,0:0:0:0:
256,192,86935,1,0,0:0:0:0:
256,192,87012,1,8,0:0:0:0:
256,192,87089,1,0,0:0:0:0:
256,192,87166,1,8,0:0:0:0:
256,192,87243,1,8,0:0:0:0:
256,192,87320,1,0,0:0:0:0:
256,192,87397,1,8,0:0:0:0:
256,192,87474,1,8,0:0:0:0:
256,192,87551,1,0,0:0:0:0:
256,192,87628,1,8,0:0:0:0:
256,192,87704,1,0,0:0:0:0:
256,192,87781,1,8,0:0:0:0:
256,192,87858,1,8,0:0:0:0:
256,192,87935,1,0,0:0:0:0:
256,192,88012,1,0,0:0:0:0:
256,192,88089,1,8,0:0:0:0:
256,192,88166,1,0,0:0:0:0:
256,192,88243,1,8,0:0:0:0:
256,192,88320,1,0,0:0:0:0:
256,192,88397,1,8,0:0:0:0:
256,192,88474,1,8,0:0:0:0:
256,192,88551,1,0,0:0:0:0:
256,192,88628,1,8,0:0:0:0:
256,192,88704,1,8,0:0:0:0:
256,192,88781,1,0,0:0:0:0:
256,192,88858,1,8,0:0:0:0:
256,192,88935,1,0,0:0:0:0:
256,192,89012,1,8,0:0:0:0:
256,192,89166,1,8,0:0:0:0:
256,192,89320,1,8,0:0:0:0:
256,192,89474,1,8,0:0:0:0:
256,192,89628,1,4,0:0:0:0:
256,192,89935,1,4,0:0:0:0:
256,192,90243,1,12,0:0:0:0:
256,192,90397,1,0,0:0:0:0:
256,192,90474,1,8,0:0:0:0:
256,192,90551,1,0,0:0:0:0:
256,192,90628,1,8,0:0:0:0:
256,192,90704,1,8,0:0:0:0:
256,192,90858,1,8,0:0:0:0:
256,192,91012,1,0,0:0:0:0:
256,192,91089,1,8,0:0:0:0:
256,192,91166,1,0,0:0:0:0:
256,192,91320,1,0,0:0:0:0:
256,192,91474,1,8,0:0:0:0:
256,192,91628,1,8,0:0:0:0:
256,192,91704,1,8,0:0:0:0:
256,192,91781,1,0,0:0:0:0:
256,192,91858,1,0,0:0:0:0:
256,192,91935,1,8,0:0:0:0:
256,192,92089,1,8,0:0:0:0:
256,192,92243,1,0,0:0:0:0:
256,192,92320,1,8,0:0:0:0:
256,192,92397,1,0,0:0:0:0:
256,192,92551,1,0,0:0:0:0:
256,192,92628,1,0,0:0:0:0:
256,192,92704,1,8,0:0:0:0:
256,192,92858,1,0,0:0:0:0:
256,192,92935,1,8,0:0:0:0:
256,192,93012,1,0,0:0:0:0:
256,192,93089,1,8,0:0:0:0:
256,192,93166,1,8,0:0:0:0:
256,192,93320,1,8,0:0:0:0:
256,192,93474,1,0,0:0:0:0:
256,192,93551,1,8,0:0:0:0:
256,192,93628,1,0,0:0:0:0:
256,192,93781,1,0,0:0:0:0:
256,192,93935,1,8,0:0:0:0:
256,192,94089,1,8,0:0:0:0:
256,192,94166,1,8,0:0:0:0:
256,192,94243,1,0,0:0:0:0:
256,192,94320,1,0,0:0:0:0:
256,192,94397,1,8,0:0:0:0:
256,192,94551,1,8,0:0:0:0:
256,192,94704,1,0,0:0:0:0:
256,192,94781,1,8,0:0:0:0:
256,192,94858,1,0,0:0:0:0:
256,192,95012,1,0,0:0:0:0:
256,192,95089,1,0,0:0:0:0:
256,192,95166,1,8,0:0:0:0:
256,192,95320,1,0,0:0:0:0:
256,192,95397,1,8,0:0:0:0:
256,192,95474,1,0,0:0:0:0:
256,192,95551,1,8,0:0:0:0:
256,192,95628,1,8,0:0:0:0:
256,192,95781,1,8,0:0:0:0:
256,192,95935,1,0,0:0:0:0:
256,192,96012,1,8,0:0:0:0:
256,192,96089,1,0,0:0:0:0:
256,192,96243,1,0,0:0:0:0:
256,192,96397,1,8,0:0:0:0:
256,192,96551,1,8,0:0:0:0:
256,192,96628,1,8,0:0:0:0:
256,192,96704,1,0,0:0:0:0:
256,192,96781,1,0,0:0:0:0:
256,192,96858,1,8,0:0:0:0:
256,192,97012,1,8,0:0:0:0:
256,192,97166,1,0,0:0:0:0:
256,192,97243,1,8,0:0:0:0:
256,192,97320,1,0,0:0:0:0:
256,192,97474,1,0,0:0:0:0:
256,192,97551,1,0,0:0:0:0:
256,192,97628,1,8,0:0:0:0:
256,192,97781,1,0,0:0:0:0:
256,192,97858,1,8,0:0:0:0:
256,192,97935,1,0,0:0:0:0:
256,192,98012,1,8,0:0:0:0:
256,192,98089,1,8,0:0:0:0:
256,192,98243,1,8,0:0:0:0:
256,192,98397,1,0,0:0:0:0:
256,192,98474,1,8,0:0:0:0:
256,192,98551,1,0,0:0:0:0:
256,192,98704,1,0,0:0:0:0:
256,192,98858,1,12,0:0:0:0:
256,192,99166,1,4,0:0:0:0:
256,192,99320,1,4,0:0:0:0:
256,192,99474,1,12,0:0:0:0:
256,192,99628,1,4,0:0:0:0:
256,192,99781,1,12,0:0:0:0:
256,192,99935,1,4,0:0:0:0:
256,192,100089,1,12,0:0:0:0:
256,192,100243,1,0,0:0:0:0:
256,192,100320,1,8,0:0:0:0:
256,192,100397,1,0,0:0:0:0:
256,192,100474,1,8,0:0:0:0:
256,192,100551,1,8,0:0:0:0:
256,192,100628,1,0,0:0:0:0:
256,192,100704,1,8,0:0:0:0:
256,192,100858,1,0,0:0:0:0:
256,192,100935,1,8,0:0:0:0:
256,192,101012,1,0,0:0:0:0:
256,192,101089,1,0,0:0:0:0:
256,192,101166,1,8,0:0:0:0:
256,192,101243,1,0,0:0:0:0:
256,192,101320,1,8,0:0:0:0:
256,192,101474,1,8,0:0:0:0:
256,192,101551,1,8,0:0:0:0:
256,192,101628,1,0,0:0:0:0:
256,192,101704,1,8,0:0:0:0:
256,192,101781,1,0,0:0:0:0:
256,192,101858,1,0,0:0:0:0:
256,192,101935,1,8,0:0:0:0:
256,192,102089,1,0,0:0:0:0:
256,192,102166,1,8,0:0:0:0:
256,192,102243,1,0,0:0:0:0:
256,192,102320,1,0,0:0:0:0:
256,192,102397,1,8,0:0:0:0:
256,192,102474,1,0,0:0:0:0:
256,192,102551,1,8,0:0:0:0:
256,192,102704,1,0,0:0:0:0:
256,192,102781,1,8,0:0:0:0:
256,192,102858,1,0,0:0:0:0:
256,192,102935,1,8,0:0:0:0:
256,192,103012,1,8,0:0:0:0:
256,192,103089,1,0,0:0:0:0:
256,192,103166,1,8,0:0:0:0:
256,192,103320,1,0,0:0:0:0:
256,192,103397,1,8,0:0:0:0:
256,192,103474,1,8,0:0:0:0:
256,192,103551,1,0,0:0:0:0:
256,192,103628,1,8,0:0:0:0:
256,192,103704,1,0,0:0:0:0:
256,192,103781,1,8,0:0:0:0:
256,192,103935,1,8,0:0:0:0:
256,192,104012,1,8,0:0:0:0:
256,192,104089,1,0,0:0:0:0:
256,192,104166,1,0,0:0:0:0:
256,192,104243,1,8,0:0:0:0:
256,192,104320,1,0,0:0:0:0:
256,192,104397,1,8,0:0:0:0:
256,192,104551,1,0,0:0:0:0:
256,192,104628,1,8,0:0:0:0:
256,192,104704,1,0,0:0:0:0:
256,192,104781,1,0,0:0:0:0:
256,192,104858,1,0,0:0:0:0:
256,192,104935,1,0,0:0:0:0:
256,192,105012,1,8,0:0:0:0:
256,192,105166,1,0,0:0:0:0:
256,192,105243,1,8,0:0:0:0:
256,192,105320,1,0,0:0:0:0:
256,192,105397,1,8,0:0:0:0:
256,192,105474,1,8,0:0:0:0:
256,192,105551,1,0,0:0:0:0:
256,192,105628,1,8,0:0:0:0:
256,192,105781,1,8,0:0:0:0:
256,192,105858,1,0,0:0:0:0:
256,192,105935,1,8,0:0:0:0:
256,192,106012,1,8,0:0:0:0:
256,192,106089,1,0,0:0:0:0:
256,192,106166,1,0,0:0:0:0:
256,192,106243,1,8,0:0:0:0:
256,192,106397,1,8,0:0:0:0:
256,192,106474,1,8,0:0:0:0:
256,192,106551,1,0,0:0:0:0:
256,192,106628,1,8,0:0:0:0:
256,192,106704,1,0,0:0:0:0:
256,192,106781,1,0,0:0:0:0:
256,192,106858,1,8,0:0:0:0:
256,192,107012,1,0,0:0:0:0:
256,192,107089,1,8,0:0:0:0:
256,192,107166,1,8,0:0:0:0:
256,192,107243,1,0,0:0:0:0:
256,192,107320,1,8,0:0:0:0:
256,192,107397,1,0,0:0:0:0:
256,192,107474,1,8,0:0:0:0:
256,192,107628,1,0,0:0:0:0:
256,192,107704,1,8,0:0:0:0:
256,192,107781,1,0,0:0:0:0:
256,192,107858,1,8,0:0:0:0:
256,192,107935,1,8,0:0:0:0:
256,192,108089,1,8,0:0:0:0:
256,192,108166,1,0,0:0:0:0:
256,192,108243,1,8,0:0:0:0:
256,192,108320,1,0,0:0:0:0:
256,192,108397,1,8,0:0:0:0:
256,192,108474,1,8,0:0:0:0:
256,192,108551,1,0,0:0:0:0:
256,192,108628,1,0,0:0:0:0:
256,192,108704,1,12,0:0:0:0:
256,192,108858,1,4,0:0:0:0:
256,192,109012,1,12,0:0:0:0:
256,192,109166,1,12,0:0:0:0:
256,192,109320,1,4,0:0:0:0:
256,192,109474,1,4,0:0:0:0:
256,192,109628,1,12,0:0:0:0:
256,192,109781,1,4,0:0:0:0:
256,192,109935,1,12,0:0:0:0:
