osu file format v14

[General]
AudioFilename: audio.mp3
AudioLeadIn: 0
PreviewTime: 69936
Countdown: 0
SampleSet: Normal
StackLeniency: 0.7
Mode: 1
LetterboxInBreaks: 0
WidescreenStoryboard: 0

[Editor]
Bookmarks: 1628,11475,21321,31167,41013,50859,60705,70552,79167,80398,89013,90244,100090,109936
DistanceSpacing: 0.8
BeatDivisor: 4
GridSize: 32
TimelineZoom: 1.9

[Metadata]
Title:Ops:Code-Rapture-
TitleUnicode:Ops:Code-Rapture-
Artist:Getty vs. DJ DiA
ArtistUnicode:Getty vs. DJ DiA
Creator:eiri-
Version:Muzukashii
Source:SOUND VOLTEX III GRAVITY WARS
Tags:Ayyri _DUSK_ DUSK SDVX KONAMI BEMANI The 4th KAC Original Song Contest KACオリジナル楽曲コンテスト
BeatmapID:1593440
BeatmapSetID:757450

[Difficulty]
HPDrainRate:6
CircleSize:2
OverallDifficulty:5
ApproachRate:10
SliderMultiplier:1.4
SliderTickRate:1

[Events]
//Background and Video events
0,0,"Rapture.png",0,-90
//Break Periods
//Storyboard Layer 0 (Background)
//Storyboard Layer 1 (Fail)
//Storyboard Layer 2 (Pass)
//Storyboard Layer 3 (Foreground)
//Storyboard Sound Samples

[TimingPoints]
1628,307.692307692308,4,1,0,50,1,0
10243,-100,4,1,0,75,0,8
70551,-100,4,1,0,75,0,9
79166,-100,4,1,0,75,0,8
80397,-100,4,1,0,75,0,9
89012,-100,4,1,0,75,0,8

[HitObjects]
256,192,1628,5,12,0:0:0:0:
256,192,2089,1,8,0:0:0:0:
256,192,2243,1,8,0:0:0:0:
256,192,2704,1,0,0:0:0:0:
256,192,2858,1,8,0:0:0:0:
256,192,3166,1,0,0:0:0:0:
256,192,3474,1,8,0:0:0:0:
256,192,3781,1,8,0:0:0:0:
256,192,3935,1,8,0:0:0:0:
256,192,4089,1,0,0:0:0:0:
256,192,4397,1,0,0:0:0:0:
256,192,4551,1,8,0:0:0:0:
256,192,4704,1,0,0:0:0:0:
256,192,5012,1,8,0:0:0:0:
256,192,5166,1,8,0:0:0:0:
256,192,5474,1,0,0:0:0:0:
256,192,5628,1,8,0:0:0:0:
256,192,5781,1,8,0:0:0:0:
256,192,5935,1,0,0:0:0:0:
256,192,6243,1,8,0:0:0:0:
256,192,6551,1,0,0:0:0:0:
256,192,7012,1,8,0:0:0:0:
256,192,7166,1,8,0:0:0:0:
256,192,7628,1,0,0:0:0:0:
256,192,7781,1,8,0:0:0:0:
256,192,8089,1,0,0:0:0:0:
256,192,8243,1,0,0:0:0:0:
256,192,8397,1,8,0:0:0:0:
256,192,8704,1,8,0:0:0:0:
256,192,9012,1,0,0:0:0:0:
256,192,9474,1,0,0:0:0:0:
256,192,9628,1,8,0:0:0:0:
256,192,9935,1,8,0:0:0:0:
256,192,10243,1,4,0:0:0:0:
256,192,11166,1,4,0:0:0:0:
256,192,11320,1,4,0:0:0:0:
256,192,11474,1,12,0:0:0:0:
256,192,11704,1,8,0:0:0:0:
256,192,11781,1,8,0:0:0:0:
256,192,11935,1,0,0:0:0:0:
256,192,12089,1,8,0:0:0:0:
256,192,12243,1,0,0:0:0:0:
256,192,12397,1,8,0:0:0:0:
256,192,12704,1,8,0:0:0:0:
256,192,13320,1,0,0:0:0:0:
256,192,13628,1,8,0:0:0:0:
256,192,13781,1,0,0:0:0:0:
256,192,13935,1,8,0:0:0:0:
256,192,14166,1,8,0:0:0:0:
256,192,14243,1,8,0:0:0:0:
256,192,14397,1,0,0:0:0:0:
256,192,14551,1,8,0:0:0:0:
256,192,14704,1,0,0:0:0:0:
256,192,14858,1,8,0:0:0:0:
256,192,15166,1,8,0:0:0:0:
256,192,15474,1,0,0:0:0:0:
256,192,15628,1,0,0:0:0:0:
256,192,15781,1,8,0:0:0:0:
256,192,16089,1,8,0:0:0:0:
256,192,16243,1,0,0:0:0:0:
256,192,16397,1,8,0:0:0:0:
256,192,16628,1,8,0:0:0:0:
256,192,16704,1,8,0:0:0:0:
256,192,16858,1,0,0:0:0:0:
256,192,17012,1,8,0:0:0:0:
256,192,17166,1,0,0:0:0:0:
256,192,17320,1,8,0:0:0:0:
256,192,17628,1,8,0:0:0:0:
256,192,18243,1,0,0:0:0:0:
256,192,18397,1,0,0:0:0:0:
256,192,18551,1,8,0:0:0:0:
256,192,18858,1,8,0:0:0:0:
256,192,19166,1,8,0:0:0:0:
256,192,19320,1,0,0:0:0:0:
256,192,19474,1,8,0:0:0:0:
256,192,19551,1,8,0:0:0:0:
256,192,19628,1,8,0:0:0:0:
256,192,19781,1,8,0:0:0:0:
256,192,19935,1,0,0:0:0:0:
256,192,20089,1,12,0:0:0:0:
256,192,21012,1,4,0:0:0:0:
256,192,21166,1,4,0:0:0:0:
256,192,21320,1,12,0:0:0:0:
256,192,21474,1,0,0:0:0:0:
256,192,21551,1,0,0:0:0:0:
256,192,21628,1,0,0:0:0:0:
256,192,21781,1,0,0:0:0:0:
256,192,21935,1,8,0:0:0:0:
256,192,22243,1,0,0:0:0:0:
256,192,22551,1,12,0:0:0:0:
256,192,22704,1,0,0:0:0:0:
256,192,22858,1,8,0:0:0:0:
256,192,23012,1,0,0:0:0:0:
256,192,23089,1,0,0:0:0:0:
256,192,23166,1,0,0:0:0:0:
256,192,23320,1,0,0:0:0:0:
256,192,23474,1,8,0:0:0:0:
256,192,23781,1,12,0:0:0:0:
256,192,24089,1,8,0:0:0:0:
256,192,24243,1,0,0:0:0:0:
256,192,24320,1,0,0:0:0:0:
256,192,24397,1,0,0:0:0:0:
256,192,24551,1,8,0:0:0:0:
256,192,24704,1,0,0:0:0:0:
256,192,25012,1,12,0:0:0:0:
256,192,25166,1,0,0:0:0:0:
256,192,25320,1,8,0:0:0:0:
256,192,25474,1,0,0:0:0:0:
256,192,25551,1,0,0:0:0:0:
256,192,25628,1,0,0:0:0:0:
256,192,25781,1,0,0:0:0:0:
256,192,25935,1,8,0:0:0:0:
256,192,26243,1,12,0:0:0:0:
256,192,26858,1,12,0:0:0:0:
256,192,27474,1,12,0:0:0:0:
256,192,27781,1,0,0:0:0:0:
256,192,28089,1,12,0:0:0:0:
256,192,28397,1,0,0:0:0:0:
256,192,28704,1,12,0:0:0:0:
256,192,28858,1,0,0:0:0:0:
256,192,29012,1,12,0:0:0:0:
256,192,29166,1,0,0:0:0:0:
256,192,29320,1,12,0:0:0:0:
256,192,29474,1,0,0:0:0:0:
256,192,29628,1,0,0:0:0:0:
256,192,29704,1,0,0:0:0:0:
256,192,29781,1,0,0:0:0:0:
256,192,29935,1,12,0:0:0:0:
256,192,30858,1,4,0:0:0:0:
256,192,31012,1,4,0:0:0:0:
256,192,31166,1,12,0:0:0:0:
256,192,31781,1,0,0:0:0:0:
256,192,32012,1,0,0:0:0:0:
256,192,32089,1,0,0:0:0:0:
256,192,32243,1,0,0:0:0:0:
256,192,32397,1,8,0:0:0:0:
256,192,32704,1,0,0:0:0:0:
256,192,33012,1,8,0:0:0:0:
256,192,33243,1,0,0:0:0:0:
256,192,33320,1,0,0:0:0:0:
256,192,33474,1,0,0:0:0:0:
256,192,33628,1,12,0:0:0:0:
256,192,34243,1,0,0:0:0:0:
256,192,34474,1,0,0:0:0:0:
256,192,34551,1,0,0:0:0:0:
256,192,34704,1,0,0:0:0:0:
256,192,34858,1,8,0:0:0:0:
256,192,35166,1,0,0:0:0:0:
256,192,35474,1,8,0:0:0:0:
256,192,35628,1,8,0:0:0:0:
256,192,35781,1,0,0:0:0:0:
256,192,35935,1,0,0:0:0:0:
256,192,36089,1,12,0:0:0:0:
256,192,36397,1,0,0:0:0:0:
256,192,36704,1,8,0:0:0:0:
256,192,36935,1,0,0:0:0:0:
256,192,37012,1,0,0:0:0:0:
256,192,37166,1,0,0:0:0:0:
256,192,37320,1,8,0:0:0:0:
256,192,37628,1,8,0:0:0:0:
256,192,37935,1,0,0:0:0:0:
256,192,38166,1,0,0:0:0:0:
256,192,38243,1,0,0:0:0:0:
256,192,38397,1,0,0:0:0:0:
256,192,38551,1,12,0:0:0:0:
256,192,38858,1,12,0:0:0:0:
256,192,39166,1,12,0:0:0:0:
256,192,39320,1,0,0:0:0:0:
256,192,39474,1,0,0:0:0:0:
256,192,39551,1,0,0:0:0:0:
256,192,39628,1,0,0:0:0:0:
256,192,39781,1,8,0:0:0:0:
256,192,40397,1,12,0:0:0:0:
256,192,40704,1,4,0:0:0:0:
256,192,41012,1,12,0:0:0:0:
256,192,41320,1,0,0:0:0:0:
256,192,41628,1,0,0:0:0:0:
256,192,41858,1,0,0:0:0:0:
256,192,41935,1,0,0:0:0:0:
256,192,42089,1,0,0:0:0:0:
256,192,42243,1,8,0:0:0:0:
256,192,42858,1,8,0:0:0:0:
256,192,43089,1,0,0:0:0:0:
256,192,43166,1,0,0:0:0:0:
256,192,43320,1,0,0:0:0:0:
256,192,43474,1,12,0:0:0:0:
256,192,43781,1,12,0:0:0:0:
256,192,44089,1,0,0:0:0:0:
256,192,44320,1,0,0:0:0:0:
256,192,44397,1,0,0:0:0:0:
256,192,44551,1,0,0:0:0:0:
256,192,44704,1,8,0:0:0:0:
256,192,45320,1,8,0:0:0:0:
256,192,45474,1,8,0:0:0:0:
256,192,45628,1,0,0:0:0:0:
256,192,45781,1,0,0:0:0:0:
256,192,45935,1,12,0:0:0:0:
256,192,46089,1,4,0:0:0:0:
256,192,46243,1,12,0:0:0:0:
256,192,46551,1,8,0:0:0:0:
256,192,46781,1,0,0:0:0:0:
256,192,46858,1,0,0:0:0:0:
256,192,47012,1,0,0:0:0:0:
256,192,47166,1,8,0:0:0:0:
256,192,47474,1,8,0:0:0:0:
256,192,47781,1,0,0:0:0:0:
256,192,48012,1,0,0:0:0:0:
256,192,48089,1,0,0:0:0:0:
256,192,48243,1,0,0:0:0:0:
256,192,48397,1,12,0:0:0:0:
256,192,48704,1,12,0:0:0:0:
256,192,49012,1,12,0:0:0:0:
256,192,49166,1,0,0:0:0:0:
256,192,49320,1,0,0:0:0:0:
256,192,49397,1,0,0:0:0:0:
256,192,49474,1,0,0:0:0:0:
256,192,49628,1,12,0:0:0:0:
256,192,49935,1,0,0:0:0:0:
256,192,50089,1,8,0:0:0:0:
256,192,50243,1,0,0:0:0:0:
256,192,50551,1,4,0:0:0:0:
256,192,50704,1,4,0:0:0:0:
256,192,50858,1,12,0:0:0:0:
256,192,51166,1,8,0:0:0:0:
256,192,51781,1,0,0:0:0:0:
256,192,51935,1,0,0:0:0:0:
256,192,52089,1,8,0:0:0:0:
256,192,52243,1,8,0:0:0:0:
256,192,52551,1,0,0:0:0:0:
256,192,52704,1,8,0:0:0:0:
256,192,53012,1,8,0:0:0:0:
256,192,53320,1,0,0:0:0:0:
256,192,53474,1,0,0:0:0:0:
256,192,53628,1,8,0:0:0:0:
256,192,53935,1,0,0:0:0:0:
256,192,54243,1,8,0:0:0:0:
256,192,54397,1,8,0:0:0:0:
256,192,54551,1,0,0:0:0:0:
256,192,54704,1,0,0:0:0:0:
256,192,55012,1,0,0:0:0:0:
256,192,55166,1,8,0:0:0:0:
256,192,55474,1,8,0:0:0:0:
256,192,55628,1,8,0:0:0:0:
256,192,55781,1,0,0:0:0:0:
256,192,56243,1,0,0:0:0:0:
256,192,56397,1,8,0:0:0:0:
256,192,56704,1,0,0:0:0:0:
256,192,56858,1,0,0:0:0:0:
256,192,57012,1,8,0:0:0:0:
256,192,57166,1,8,0:0:0:0:
256,192,57474,1,8,0:0:0:0:
256,192,57628,1,0,0:0:0:0:
256,192,57781,1,0,0:0:0:0:
256,192,57935,1,8,0:0:0:0:
256,192,58243,1,8,0:0:0:0:
256,192,58397,1,0,0:0:0:0:
256,192,58704,1,8,0:0:0:0:
256,192,58858,1,0,0:0:0:0:
256,192,59166,1,8,0:0:0:0:
256,192,59320,1,8,0:0:0:0:
256,192,59474,1,4,0:0:0:0:
256,192,59781,1,0,0:0:0:0:
256,192,60089,1,8,0:0:0:0:
256,192,60397,1,4,0:0:0:0:
256,192,60551,1,4,0:0:0:0:
256,192,60704,1,12,0:0:0:0:
256,192,61012,1,0,0:0:0:0:
256,192,61320,1,0,0:0:0:0:
256,192,61628,1,0,0:0:0:0:
256,192,61935,1,12,0:0:0:0:
256,192,62243,1,0,0:0:0:0:
256,192,62551,1,0,0:0:0:0:
256,192,62858,1,0,0:0:0:0:
256,192,63166,1,12,0:0:0:0:
256,192,63474,1,0,0:0:0:0:
256,192,63781,1,0,0:0:0:0:
256,192,64089,1,0,0:0:0:0:
256,192,64397,1,12,0:0:0:0:
256,192,64704,1,0,0:0:0:0:
256,192,65012,1,0,0:0:0:0:
256,192,65320,1,0,0:0:0:0:
256,192,65628,1,12,0:0:0:0:
256,192,65781,1,0,0:0:0:0:
256,192,65935,1,0,0:0:0:0:
256,192,66089,1,0,0:0:0:0:
256,192,66243,1,12,0:0:0:0:
256,192,66551,1,0,0:0:0:0:
256,192,66704,1,0,0:0:0:0:
256,192,66858,1,12,0:0:0:0:
256,192,67012,1,0,0:0:0:0:
256,192,67166,1,0,0:0:0:0:
256,192,67320,1,0,0:0:0:0:
256,192,67474,1,12,0:0:0:0:
256,192,67781,1,0,0:0:0:0:
256,192,67935,1,0,0:0:0:0:
256,192,68089,1,8,0:0:0:0:
256,192,68166,1,8,0:0:0:0:
256,192,68243,1,8,0:0:0:0:
256,192,68397,1,0,0:0:0:0:
256,192,68551,1,0,0:0:0:0:
256,192,68704,1,8,0:0:0:0:
256,192,68781,1,8,0:0:0:0:
256,192,68858,1,8,0:0:0:0:
256,192,69012,1,0,0:0:0:0:
256,192,69089,1,0,0:0:0:0:
256,192,69166,1,0,0:0:0:0:
256,192,69320,1,12,0:0:0:0:
256,192,69935,1,4,0:0:0:0:
256,192,70166,1,4,0:0:0:0:
256,192,70397,1,4,0:0:0:0:
256,192,70551,1,12,0:0:0:0:
256,192,70704,1,0,0:0:0:0:
256,192,70858,1,8,0:0:0:0:
256,192,70935,1,8,0:0:0:0:
256,192,71012,1,8,0:0:0:0:
256,192,71166,1,0,0:0:0:0:
256,192,71474,1,0,0:0:0:0:
256,192,71628,1,0,0:0:0:0:
256,192,71781,1,8,0:0:0:0:
256,192,71935,1,0,0:0:0:0:
256,192,72089,1,8,0:0:0:0:
256,192,72243,1,0,0:0:0:0:
256,192,72320,1,0,0:0:0:0:
256,192,72397,1,0,0:0:0:0:
256,192,72551,1,0,0:0:0:0:
256,192,72704,1,8,0:0:0:0:
256,192,73012,1,8,0:0:0:0:
256,192,73320,1,8,0:0:0:0:
256,192,73474,1,0,0:0:0:0:
256,192,73628,1,8,0:0:0:0:
256,192,73935,1,0,0:0:0:0:
256,192,74012,1,0,0:0:0:0:
256,192,74089,1,0,0:0:0:0:
256,192,74243,1,8,0:0:0:0:
256,192,74397,1,0,0:0:0:0:
256,192,74551,1,8,0:0:0:0:
256,192,74858,1,8,0:0:0:0:
256,192,75012,1,0,0:0:0:0:
256,192,75166,1,0,0:0:0:0:
256,192,75243,1,0,0:0:0:0:
256,192,75320,1,0,0:0:0:0:
256,192,75474,1,8,0:0:0:0:
256,192,75781,1,0,0:0:0:0:
256,192,75935,1,8,0:0:0:0:
256,192,76089,1,8,0:0:0:0:
256,192,76551,1,0,0:0:0:0:
256,192,76704,1,8,0:0:0:0:
256,192,76858,1,0,0:0:0:0:
256,192,76935,1,0,0:0:0:0:
256,192,77012,1,0,0:0:0:0:
256,192,77166,1,0,0:0:0:0:
256,192,77320,1,8,0:0:0:0:
256,192,77628,1,0,0:0:0:0:
256,192,77704,1,0,0:0:0:0:
256,192,77781,1,0,0:0:0:0:
256,192,77935,1,8,0:0:0:0:
256,192,78243,1,0,0:0:0:0:
256,192,78397,1,8,0:0:0:0:
256,192,78551,1,0,0:0:0:0:
256,192,78704,1,0,0:0:0:0:
256,192,78858,1,0,0:0:0:0:
256,192,79012,1,0,0:0:0:0:
256,192,79166,1,12,0:0:0:0:
256,192,79474,1,12,0:0:0:0:
256,192,79781,1,12,0:0:0:0:
256,192,80089,1,4,0:0:0:0:
256,192,80243,1,4,0:0:0:0:
256,192,80397,1,12,0:0:0:0:
256,192,80551,1,0,0:0:0:0:
256,192,80704,1,8,0:0:0:0:
256,192,80781,1,8,0:0:0:0:
256,192,80858,1,8,0:0:0:0:
256,192,81012,1,0,0:0:0:0:
256,192,81320,1,0,0:0:0:0:
256,192,81474,1,0,0:0:0:0:
256,192,81628,1,8,0:0:0:0:
256,192,81781,1,8,0:0:0:0:
256,192,81935,1,0,0:0:0:0:
256,192,82089,1,8,0:0:0:0:
256,192,82166,1,8,0:0:0:0:
256,192,82243,1,8,0:0:0:0:
256,192,82397,1,0,0:0:0:0:
256,192,82551,1,8,0:0:0:0:
256,192,82858,1,0,0:0:0:0:
256,192,83012,1,0,0:0:0:0:
256,192,83166,1,8,0:0:0:0:
256,192,83320,1,0,0:0:0:0:
256,192,83474,1,8,0:0:0:0:
256,192,83781,1,0,0:0:0:0:
256,192,83858,1,0,0:0:0:0:
256,192,83935,1,0,0:0:0:0:
256,192,84089,1,8,0:0:0:0:
256,192,84243,1,0,0:0:0:0:
256,192,84397,1,8,0:0:0:0:
256,192,84704,1,0,0:0:0:0:
256,192,84858,1,0,0:0:0:0:
256,192,85012,1,0,0:0:0:0:
256,192,85089,1,0,0:0:0:0:
256,192,85166,1,0,0:0:0:0:
256,192,85320,1,8,0:0:0:0:
256,192,85628,1,0,0:0:0:0:
256,192,85781,1,8,0:0:0:0:
256,192,85935,1,8,0:0:0:0:
256,192,86397,1,0,0:0:0:0:
256,192,86551,1,8,0:0:0:0:
256,192,86704,1,0,0:0:0:0:
256,192,86781,1,0,0:0:0:0:
256,192,86858,1,0,0:0:0:0:
256,192,87012,1,0,0:0:0:0:
256,192,87166,1,8,0:0:0:0:
256,192,87474,1,0,0:0:0:0:
256,192,87551,1,0,0:0:0:0:
256,192,87628,1,0,0:0:0:0:
256,192,87781,1,8,0:0:0:0:
256,192,88089,1,0,0:0:0:0:
256,192,88243,1,8,0:0:0:0:
256,192,88397,1,0,0:0:0:0:
256,192,88551,1,0,0:0:0:0:
256,192,88628,1,0,0:0:0:0:
256,192,88704,1,0,0:0:0:0:
256,192,88858,1,0,0:0:0:0:
256,192,89012,1,8,0:0:0:0:
256,192,89628,1,4,0:0:0:0:
256,192,89935,1,4,0:0:0:0:
256,192,90243,1,12,0:0:0:0:
256,192,90474,1,8,0:0:0:0:
256,192,90551,1,8,0:0:0:0:
256,192,90704,1,0,0:0:0:0:
256,192,90858,1,8,0:0:0:0:
256,192,91166,1,0,0:0:0:0:
256,192,91474,1,8,0:0:0:0:
256,192,92089,1,0,0:0:0:0:
256,192,92397,1,8,0:0:0:0:
256,192,92551,1,0,0:0:0:0:
256,192,92704,1,8,0:0:0:0:
256,192,92935,1,8,0:0:0:0:
256,192,93012,1,8,0:0:0:0:
256,192,93166,1,0,0:0:0:0:
256,192,93320,1,8,0:0:0:0:
256,192,93628,1,0,0:0:0:0:
256,192,93935,1,8,0:0:0:0:
256,192,94243,1,0,0:0:0:0:
256,192,94397,1,0,0:0:0:0:
256,192,94551,1,8,0:0:0:0:
256,192,94858,1,8,0:0:0:0:
256,192,95012,1,0,0:0:0:0:
256,192,95166,1,8,0:0:0:0:
256,192,95397,1,8,0:0:0:0:
256,192,95474,1,8,0:0:0:0:
256,192,95628,1,0,0:0:0:0:
256,192,95781,1,8,0:0:0:0:
256,192,96089,1,0,0:0:0:0:
256,192,96397,1,8,0:0:0:0:
256,192,97012,1,0,0:0:0:0:
256,192,97320,1,8,0:0:0:0:
256,192,97474,1,0,0:0:0:0:
256,192,97628,1,8,0:0:0:0:
256,192,97858,1,8,0:0:0:0:
256,192,97935,1,8,0:0:0:0:
256,192,98089,1,0,0:0:0:0:
256,192,98243,1,8,0:0:0:0:
256,192,98551,1,0,0:0:0:0:
256,192,98858,1,12,0:0:0:0:
256,192,99166,1,4,0:0:0:0:
256,192,99320,1,4,0:0:0:0:
256,192,99474,1,12,0:0:0:0:
256,192,99781,1,4,0:0:0:0:
256,192,100089,1,12,0:0:0:0:
256,192,100320,1,8,0:0:0:0:
256,192,100397,1,8,0:0:0:0:
256,192,100551,1,0,0:0:0:0:
256,192,100704,1,8,0:0:0:0:
256,192,100858,1,0,0:0:0:0:
256,192,101012,1,8,0:0:0:0:
256,192,101320,1,8,0:0:0:0:
256,192,101935,1,0,0:0:0:0:
256,192,102243,1,8,0:0:0:0:
256,192,102397,1,0,0:0:0:0:
256,192,102551,1,8,0:0:0:0:
256,192,102781,1,8,0:0:0:0:
256,192,102858,1,8,0:0:0:0:
256,192,103012,1,0,0:0:0:0:
256,192,103166,1,8,0:0:0:0:
256,192,103320,1,0,0:0:0:0:
256,192,103474,1,8,0:0:0:0:
256,192,103781,1,8,0:0:0:0:
256,192,104089,1,0,0:0:0:0:
256,192,104243,1,0,0:0:0:0:
256,192,104397,1,8,0:0:0:0:
256,192,104704,1,8,0:0:0:0:
256,192,104858,1,0,0:0:0:0:
256,192,105012,1,8,0:0:0:0:
256,192,105243,1,8,0:0:0:0:
256,192,105320,1,8,0:0:0:0:
256,192,105474,1,0,0:0:0:0:
256,192,105628,1,8,0:0:0:0:
256,192,105781,1,0,0:0:0:0:
256,192,105935,1,8,0:0:0:0:
256,192,106243,1,8,0:0:0:0:
256,192,106858,1,0,0:0:0:0:
256,192,107166,1,8,0:0:0:0:
256,192,107320,1,0,0:0:0:0:
256,192,107474,1,8,0:0:0:0:
256,192,107704,1,8,0:0:0:0:
256,192,107781,1,8,0:0:0:0:
256,192,107935,1,0,0:0:0:0:
256,192,108089,1,8,0:0:0:0:
256,192,108243,1,8,0:0:0:0:
256,192,108397,1,0,0:0:0:0:
256,192,108704,1,12,0:0:0:0:
256,192,108858,1,12,0:0:0:0:
256,192,109012,1,4,0:0:0:0:
256,192,109166,1,4,0:0:0:0:
256,192,109320,1,12,0:0:0:0:
256,192,109628,1,12,0:0:0:0:
256,192,109781,1,4,0:0:0:0:
256,192,109935,1,12,0:0:0:0:
