osu file format v14

[General]
AudioFilename: audio.mp3
AudioLeadIn: 0
PreviewTime: 69936
Countdown: 0
SampleSet: Normal
StackLeniency: 0.7
Mode: 1
LetterboxInBreaks: 0
WidescreenStoryboard: 0

[Editor]
Bookmarks: 1628,11475,21321,31167,41013,50859,60705,70552,79167,80398,89013,90244,100090,109936
DistanceSpacing: 0.8
BeatDivisor: 4
GridSize: 32
TimelineZoom: 1.9

[Metadata]
Title:Ops:Code-Rapture-
TitleUnicode:Ops:Code-Rapture-
Artist:Getty vs. DJ DiA
ArtistUnicode:Getty vs. DJ DiA
Creator:eiri-
Version:Kantan
Source:SOUND VOLTEX III GRAVITY WARS
Tags:Ayyri _DUSK_ DUSK SDVX KONAMI BEMANI The 4th KAC Original Song Contest KACオリジナル楽曲コンテスト
BeatmapID:1593439
BeatmapSetID:757450

[Difficulty]
HPDrainRate:8
CircleSize:2
OverallDifficulty:3
ApproachRate:10
SliderMultiplier:1.4
SliderTickRate:1

[Events]
//Background and Video events
0,0,"Rapture.png",0,-90
//Break Periods
//Storyboard Layer 0 (Background)
//Storyboard Layer 1 (Fail)
//Storyboard Layer 2 (Pass)
//Storyboard Layer 3 (Foreground)
//Storyboard Sound Samples

[TimingPoints]
1628,307.692307692308,4,1,0,50,1,0
10243,-100,4,1,0,75,0,8
70551,-100,4,1,0,75,0,9
79166,-100,4,1,0,75,0,8
80397,-100,4,1,0,75,0,9
89012,-100,4,1,0,75,0,8

[HitObjects]
256,192,1628,5,12,0:0:0:0:
256,192,2243,1,8,0:0:0:0:
256,192,2858,1,0,0:0:0:0:
256,192,4089,1,0,0:0:0:0:
256,192,4704,1,8,0:0:0:0:
256,192,5166,1,0,0:0:0:0:
256,192,5628,1,8,0:0:0:0:
256,192,6551,1,0,0:0:0:0:
256,192,7166,1,8,0:0:0:0:
256,192,7781,1,0,0:0:0:0:
256,192,8704,1,0,0:0:0:0:
256,192,9012,1,8,0:0:0:0:
256,192,10243,1,4,0:0:0:0:
256,192,11166,1,4,0:0:0:0:
256,192,11474,1,12,0:0:0:0:
256,192,12089,1,0,0:0:0:0:
256,192,12397,1,8,0:0:0:0:
256,192,12704,1,0,0:0:0:0:
256,192,13935,1,0,0:0:0:0:
256,192,14243,1,0,0:0:0:0:
256,192,14551,1,0,0:0:0:0:
256,192,15166,1,0,0:0:0:0:
256,192,15781,1,8,0:0:0:0:
256,192,16089,1,8,0:0:0:0:
256,192,16397,1,0,0:0:0:0:
256,192,17012,1,0,0:0:0:0:
256,192,17628,1,0,0:0:0:0:
256,192,18858,1,0,0:0:0:0:
256,192,19474,1,0,0:0:0:0:
256,192,19781,1,0,0:0:0:0:
256,192,20089,1,12,0:0:0:0:
256,192,21012,1,4,0:0:0:0:
256,192,21320,1,12,0:0:0:0:
256,192,22551,1,12,0:0:0:0:
256,192,23781,1,12,0:0:0:0:
256,192,25012,1,12,0:0:0:0:
256,192,26243,1,12,0:0:0:0:
256,192,26858,1,12,0:0:0:0:
256,192,27474,1,12,0:0:0:0:
256,192,28089,1,12,0:0:0:0:
256,192,28704,1,12,0:0:0:0:
256,192,29320,1,12,0:0:0:0:
256,192,29628,1,12,0:0:0:0:
256,192,29935,1,12,0:0:0:0:
256,192,30858,1,4,0:0:0:0:
256,192,31166,1,12,0:0:0:0:
256,192,31781,1,0,0:0:0:0:
256,192,32397,1,8,0:0:0:0:
256,192,33012,1,8,0:0:0:0:
256,192,33320,1,0,0:0:0:0:
256,192,33628,1,12,0:0:0:0:
256,192,34243,1,0,0:0:0:0:
256,192,34551,1,0,0:0:0:0:
256,192,34858,1,8,0:0:0:0:
256,192,35474,1,8,0:0:0:0:
256,192,36089,1,12,0:0:0:0:
256,192,36397,1,8,0:0:0:0:
256,192,36704,1,0,0:0:0:0:
256,192,37320,1,0,0:0:0:0:
256,192,37935,1,0,0:0:0:0:
256,192,38243,1,0,0:0:0:0:
256,192,38551,1,12,0:0:0:0:
256,192,39781,1,8,0:0:0:0:
256,192,40397,1,12,0:0:0:0:
256,192,40704,1,4,0:0:0:0:
256,192,41012,1,12,0:0:0:0:
256,192,41628,1,0,0:0:0:0:
256,192,41935,1,8,0:0:0:0:
256,192,42243,1,0,0:0:0:0:
256,192,42858,1,8,0:0:0:0:
256,192,43166,1,0,0:0:0:0:
256,192,43474,1,12,0:0:0:0:
256,192,43781,1,12,0:0:0:0:
256,192,44089,1,0,0:0:0:0:
256,192,44704,1,8,0:0:0:0:
256,192,45320,1,8,0:0:0:0:
256,192,45935,1,12,0:0:0:0:
256,192,46243,1,12,0:0:0:0:
256,192,46551,1,0,0:0:0:0:
256,192,47166,1,0,0:0:0:0:
256,192,47781,1,0,0:0:0:0:
256,192,48089,1,0,0:0:0:0:
256,192,48397,1,12,0:0:0:0:
256,192,49628,1,8,0:0:0:0:
256,192,50551,1,4,0:0:0:0:
256,192,50858,1,12,0:0:0:0:
256,192,52089,1,8,0:0:0:0:
256,192,53320,1,0,0:0:0:0:
256,192,54551,1,8,0:0:0:0:
256,192,55781,1,0,0:0:0:0:
256,192,57012,1,8,0:0:0:0:
256,192,58243,1,8,0:0:0:0:
256,192,59474,1,4,0:0:0:0:
256,192,60397,1,4,0:0:0:0:
256,192,60704,1,12,0:0:0:0:
256,192,61320,1,0,0:0:0:0:
256,192,61935,1,12,0:0:0:0:
256,192,62551,1,0,0:0:0:0:
256,192,63166,1,12,0:0:0:0:
256,192,63781,1,0,0:0:0:0:
256,192,64397,1,12,0:0:0:0:
256,192,65012,1,0,0:0:0:0:
256,192,65628,1,12,0:0:0:0:
256,192,65935,1,0,0:0:0:0:
256,192,66243,1,12,0:0:0:0:
256,192,66858,1,12,0:0:0:0:
256,192,67166,1,0,0:0:0:0:
256,192,67474,1,12,0:0:0:0:
256,192,68089,1,12,0:0:0:0:
256,192,69320,1,12,0:0:0:0:
256,192,69935,1,4,0:0:0:0:
256,192,70551,1,12,0:0:0:0:
256,192,71166,1,8,0:0:0:0:
256,192,71781,1,8,0:0:0:0:
256,192,72089,1,0,0:0:0:0:
256,192,72397,1,0,0:0:0:0:
256,192,72704,1,0,0:0:0:0:
256,192,73012,1,8,0:0:0:0:
256,192,73628,1,8,0:0:0:0:
256,192,73935,1,0,0:0:0:0:
256,192,74243,1,8,0:0:0:0:
256,192,75474,1,8,0:0:0:0:
256,192,76089,1,0,0:0:0:0:
256,192,76704,1,8,0:0:0:0:
256,192,77320,1,8,0:0:0:0:
256,192,77935,1,0,0:0:0:0:
256,192,78243,1,8,0:0:0:0:
256,192,78551,1,8,0:0:0:0:
256,192,78858,1,0,0:0:0:0:
256,192,79166,1,12,0:0:0:0:
256,192,80089,1,4,0:0:0:0:
256,192,80397,1,12,0:0:0:0:
256,192,81012,1,8,0:0:0:0:
256,192,81628,1,8,0:0:0:0:
256,192,81935,1,0,0:0:0:0:
256,192,82243,1,0,0:0:0:0:
256,192,82551,1,0,0:0:0:0:
256,192,82858,1,8,0:0:0:0:
256,192,83474,1,8,0:0:0:0:
256,192,83781,1,0,0:0:0:0:
256,192,84089,1,8,0:0:0:0:
256,192,85320,1,8,0:0:0:0:
256,192,85935,1,0,0:0:0:0:
256,192,86551,1,8,0:0:0:0:
256,192,87166,1,8,0:0:0:0:
256,192,87781,1,0,0:0:0:0:
256,192,88089,1,8,0:0:0:0:
256,192,88397,1,8,0:0:0:0:
256,192,88704,1,0,0:0:0:0:
256,192,89012,1,8,0:0:0:0:
256,192,89628,1,4,0:0:0:0:
256,192,89935,1,4,0:0:0:0:
256,192,90243,1,12,0:0:0:0:
256,192,91474,1,8,0:0:0:0:
256,192,92089,1,8,0:0:0:0:
256,192,92397,1,0,0:0:0:0:
256,192,92704,1,8,0:0:0:0:
256,192,93935,1,8,0:0:0:0:
256,192,94551,1,8,0:0:0:0:
256,192,94858,1,0,0:0:0:0:
256,192,95166,1,8,0:0:0:0:
256,192,95781,1,8,0:0:0:0:
256,192,96397,1,8,0:0:0:0:
256,192,97012,1,8,0:0:0:0:
256,192,97320,1,0,0:0:0:0:
256,192,97628,1,8,0:0:0:0:
256,192,98858,1,12,0:0:0:0:
256,192,99474,1,4,0:0:0:0:
256,192,99781,1,4,0:0:0:0:
256,192,100089,1,12,0:0:0:0:
256,192,100704,1,8,0:0:0:0:
256,192,101012,1,0,0:0:0:0:
256,192,101320,1,8,0:0:0:0:
256,192,101935,1,0,0:0:0:0:
256,192,102551,1,8,0:0:0:0:
256,192,103166,1,0,0:0:0:0:
256,192,103781,1,8,0:0:0:0:
256,192,105012,1,8,0:0:0:0:
256,192,105628,1,8,0:0:0:0:
256,192,106243,1,8,0:0:0:0:
256,192,106551,1,0,0:0:0:0:
256,192,106858,1,8,0:0:0:0:
256,192,107474,1,8,0:0:0:0:
256,192,107781,1,8,0:0:0:0:
256,192,108089,1,0,0:0:0:0:
256,192,108704,1,12,0:0:0:0:
256,192,109012,1,12,0:0:0:0:
256,192,109320,1,4,0:0:0:0:
256,192,109628,1,4,0:0:0:0:
256,192,109935,1,12,0:0:0:0:
