osu file format v14

[General]
AudioFilename: audio.mp3
AudioLeadIn: 0
PreviewTime: -1
Countdown: 0
SampleSet: Normal
StackLeniency: 0.2
Mode: 0
LetterboxInBreaks: 1
WidescreenStoryboard: 1

[Editor]
DistanceSpacing: 1
BeatDivisor: 4
GridSize: 4
TimelineZoom: 4.599998

[Metadata]
Title:Ops:Code -Rapture-
TitleUnicode:Ops:Code -Rapture-
Artist:Getty vs. DJ DiA
ArtistUnicode:Getty vs. DJ DiA
Creator:selcYc
Version:GRV
Source:SOUND VOLTEX iii Gravity War
Tags:GW pumpcore sdvx
BeatmapID:1152971
BeatmapSetID:544055

[Difficulty]
HPDrainRate:6.7
CircleSize:4.4
OverallDifficulty:7.5
ApproachRate:9.7
SliderMultiplier:1.92
SliderTickRate:2

[Events]
//Background and Video events
0,0,"443432432432.png",0,0
//Break Periods
//Storyboard Layer 0 (Background)
//Storyboard Layer 1 (Fail)
//Storyboard Layer 2 (Pass)
//Storyboard Layer 3 (Foreground)
//Storyboard Sound Samples

[TimingPoints]
1410,615.384615384615,4,2,0,80,1,0
10948,-25,4,2,0,80,0,0
11256,307.692307692308,4,1,0,80,1,0
19871,-200,4,2,0,80,0,0
20794,-50,4,1,0,80,0,0
21102,-100,4,2,0,80,0,0
26025,-100,4,1,0,80,0,0
27102,-90.9090909090909,4,1,0,80,0,0
27717,-83.3333333333333,4,1,0,80,0,0
28332,-76.9230769230769,4,1,0,80,0,0
30640,-50,4,2,0,80,0,0
30948,-200,4,1,0,80,0,0
31563,-100,4,1,0,80,0,0
33409,-200,4,1,0,80,0,0
34025,-100,4,1,0,80,0,0
40179,-133.333333333333,4,1,0,80,0,0
40794,-200,4,1,0,80,0,0
41409,-100,4,1,0,80,0,0
43256,-200,4,1,0,80,0,0
43871,-100,4,1,0,80,0,0
48179,-153.846153846153,4,1,0,80,0,0
50332,-31,4,1,0,80,0,0
50640,-133.333333333333,4,2,0,60,0,0
59256,-200,4,1,0,60,0,0
60179,-50,4,1,0,80,0,0
60486,-100,4,1,0,80,0,0
70332,-83.3333333333333,4,1,0,80,0,1
79871,-50,4,1,0,80,0,0
80179,-83.3333333333333,4,1,0,80,0,1
88794,-83.3333333333333,4,1,0,80,0,0
90025,-83.3333333333333,4,1,0,80,0,1
99871,-83.3333333333333,4,1,0,80,0,0
108486,-66.6666666666667,4,1,0,80,0,0

[Colours]
Combo1 : 255,194,166
Combo2 : 255,255,159
Combo3 : 176,255,255
Combo4 : 255,181,255

[HitObjects]
376,144,1410,6,0,P|444:144|496:28,1,192,4|2,0:0|0:0,0:0:0:0:
308,0,2486,1,2,0:0:0:0:
308,0,2563,1,2,0:0:0:0:
308,0,2640,2,0,P|296:32|312:104,1,96,0|2,0:0|0:0,0:0:0:0:
216,152,3256,6,0,P|188:150|156:160,1,48,2|2,0:0|0:0,0:0:0:0:
4,212,3563,2,0,P|27:216|51:214,1,48,2|0,0:0|0:0,0:0:0:0:
132,232,3871,2,0,P|140:280|128:332,1,96,2|2,0:0|0:0,0:0:0:0:
44,360,4333,1,2,0:0:0:0:
44,360,4486,6,0,L|28:308,1,48,0|2,0:0|0:0,0:0:0:0:
256,312,4794,2,0,L|256:264,1,48,2|0,0:0|0:0,0:0:0:0:
468,360,5102,2,0,L|500:260,1,96,2|2,0:0|0:0,0:0:0:0:
336,256,5563,2,0,P|380:296|424:288,1,96,0|2,0:0|0:0,0:0:0:0:
440,220,6025,2,0,P|432:188|436:164,1,48,2|0,0:0|0:0,0:0:0:0:
362,121,6333,6,0,P|294:121|242:237,1,192,4|2,0:0|0:0,0:0:0:0:
430,265,7410,1,2,0:0:0:0:
430,265,7486,1,2,0:0:0:0:
430,265,7563,2,0,P|442:233|426:161,1,96,2|2,0:0|0:0,0:0:0:0:
268,184,8025,2,0,P|257:230|271:275,1,96,2|2,0:0|0:0,0:0:0:0:
356,320,8486,1,0,0:0:0:0:
356,320,8794,6,0,B|164:256|220:412|32:356,1,336,2|2,0:0|0:0,0:0:0:0:
104,300,10025,6,0,P|213:274|269:371,1,240,4|0,1:0|0:0,0:0:0:0:
252,352,10948,6,0,P|244:320|108:324,1,192,4|4,1:2|1:2,0:0:0:0:
16,192,11256,6,0,B|7:81|7:81|32:108,1,144,0|0,0:0|2:0,0:0:0:0:
196,204,11563,6,0,L|100:92,1,144,2|0,1:3|2:2,0:0:0:0:
232,24,11871,6,0,B|116:4|116:4|136:28,1,144,0|0,0:0|1:1,0:0:0:0:
256,92,12179,5,2,0:3:0:0:
256,292,12332,1,0,0:0:0:0:
496,192,12486,6,0,B|504:302|504:302|480:276,1,144,0|0,0:0|2:0,0:0:0:0:
316,180,12793,6,0,L|412:292,1,144,2|0,0:3|2:2,0:0:0:0:
280,360,13101,6,0,B|396:380|396:380|376:356,1,144,0|0,0:0|1:0,0:0:0:0:
256,292,13409,5,2,0:3:0:0:
256,92,13562,1,0,0:0:0:0:
160,268,13717,6,0,P|88:280|28:220,1,144,0|0,0:0|2:0,0:0:0:0:
160,116,14025,6,0,P|88:104|28:164,1,144,2|0,0:3|2:0,0:0:0:0:
356,192,14332,6,0,B|404:196|404:196|452:188|452:188|504:196,1,144,0|0,0:0|1:0,0:0:0:0:
256,192,14640,5,2,0:3:0:0:
112,192,14794,1,0,0:0:0:0:
352,116,14948,6,0,P|424:104|484:164,1,144,0|0,0:0|2:0,0:0:0:0:
352,268,15256,6,0,P|424:280|484:220,1,144,2|0,0:3|2:0,0:0:0:0:
256,192,15563,6,0,P|240:144|252:84,1,96,0|2,0:0|0:3,0:0:0:0:
487,52,15871,2,0,P|491:99|476:144,1,96
216,300,16179,5,0,0:0:0:0:
444,328,16332,1,2,2:0:0:0:
216,308,16486,5,2,0:3:0:0:
444,328,16640,1,2,2:0:0:0:
216,316,16794,5,0,0:0:0:0:
444,328,16948,1,2,2:0:0:0:
284,272,17102,6,2,L|276:188,1,72,2|0,1:3|2:0,0:0:0:0:
396,152,17256,2,0,L|404:68,1,72,2|0,1:2|2:0,0:0:0:0:
304,72,17409,5,0,0:0:0:0:
76,44,17562,1,2,2:0:0:0:
304,64,17716,5,2,0:3:0:0:
76,44,17870,1,2,2:0:0:0:
304,56,18024,5,0,0:0:0:0:
76,44,18178,1,2,2:0:0:0:
228,28,18332,6,2,L|220:104,1,72,2|0,0:3|2:0,0:0:0:0:
8,88,18486,2,0,L|16:164,1,72,2|0,1:2|2:0,0:0:0:0:
80,272,18640,5,2,0:3:0:0:
84,276,18794,1,0,0:0:0:0:
12,348,18948,5,2,0:3:0:0:
16,352,19102,1,0,0:0:0:0:
176,308,19256,5,2,0:3:0:0:
172,284,19332,1,0,0:0:0:0:
252,276,19409,5,2,0:3:0:0:
256,252,19485,1,0,0:0:0:0:
320,316,19563,5,2,0:3:0:0:
368,336,19640,1,0,0:0:0:0:
420,324,19717,1,0,0:0:0:0:
448,280,19794,1,0,0:0:0:0:
488,360,19871,6,0,B|424:232|544:264|484:128,1,240,4|0,1:1|0:0,0:0:0:0:
484,336,20794,6,0,B|534:234|439:259|487:152,1,192,4|4,0:2|0:2,0:0:0:0:
420,40,21102,5,4,1:0:0:0:
328,152,21256,1,0,0:0:0:0:
272,20,21409,1,8,0:0:0:0:
420,40,21563,1,0,3:0:0:0:
420,40,21640,1,0,3:0:0:0:
336,72,21717,5,0,1:2:0:0:
148,84,21871,1,2,3:2:0:0:
336,72,22025,1,0,1:2:0:0:
148,84,22179,1,2,3:2:0:0:
80,144,22332,5,4,1:0:0:0:
172,256,22486,1,0,0:0:0:0:
228,124,22639,1,8,0:0:0:0:
80,144,22793,1,0,3:0:0:0:
80,144,22870,1,0,3:0:0:0:
164,176,22947,5,0,1:2:0:0:
496,200,23101,1,2,3:2:0:0:
164,176,23255,1,0,1:2:0:0:
496,200,23409,1,2,3:2:0:0:
420,248,23563,5,4,1:0:0:0:
328,360,23717,1,0,0:0:0:0:
272,228,23870,1,8,0:0:0:0:
420,248,24024,1,0,3:0:0:0:
420,248,24101,1,0,3:0:0:0:
336,280,24178,5,0,1:2:0:0:
148,292,24332,1,2,1:2:0:0:
336,280,24486,1,0,1:2:0:0:
148,292,24640,1,2,3:2:0:0:
80,344,24794,5,4,1:0:0:0:
24,192,24948,1,0,0:0:0:0:
80,40,25102,1,8,0:0:0:0:
24,192,25256,1,0,3:0:0:0:
24,192,25332,1,0,3:0:0:0:
104,192,25409,5,0,1:0:0:0:
368,152,25563,1,2,3:2:0:0:
184,192,25717,1,2,1:2:0:0:
440,228,25871,1,2,1:2:0:0:
480,28,26025,5,4,0:0:0:0:
380,56,26179,1,2,0:2:0:0:
476,100,26332,1,8,1:2:0:0:
380,56,26486,2,2,P|376:44|376:8,1,48,0|0,0:0|0:0,0:0:0:0:
32,28,26640,5,0,0:0:0:0:
208,84,26794,1,2,0:2:0:0:
28,108,26948,1,8,0:2:0:0:
208,84,27101,2,2,P|212:72|216:24,1,48,0|0,0:0|0:0,0:0:0:0:
480,28,27256,5,0,0:0:0:0:
231,135,27410,1,2,0:2:0:0:
496,176,27563,1,8,0:2:0:0:
231,135,27717,2,2,P|215:111|207:83,1,57.5999982421876,0|0,0:0|0:0,0:0:0:0:
32,28,27871,5,0,0:0:0:0:
336,176,28025,1,2,0:2:0:0:
0,244,28178,1,8,0:2:0:0:
336,176,28332,2,2,P|360:152|372:120,1,62.3999971435548,0|0,0:0|0:0,0:0:0:0:
112,120,28486,6,2,P|104:92|112:56,1,62.3999971435548,10|2,0:2|0:2,0:0:0:0:
120,124,28640,6,0,P|112:96|120:60,1,62.3999971435548
128,128,28794,6,2,P|120:100|128:64,1,62.3999971435548,8|0,0:2|0:0,0:0:0:0:
136,132,28948,6,0,P|128:104|136:68,1,62.3999971435548,2|0,0:2|0:0,0:0:0:0:
172,200,29102,5,10,0:2:0:0:
208,136,29179,1,8,0:2:0:0:
276,104,29256,1,2,0:2:0:0:
348,116,29332,1,2,0:2:0:0:
404,168,29409,6,0,L|452:176,1,31.1999985717774,8|0,0:2|2:0,0:0:0:0:
420,240,29486,6,0,L|468:248,1,31.1999985717774,8|0,0:2|2:0,0:0:0:0:
384,304,29563,6,0,L|432:312,1,31.1999985717774,8|0,0:2|2:0,0:0:0:0:
400,376,29640,6,0,L|448:384,1,31.1999985717774,8|0,0:2|2:0,0:0:0:0:
496,336,29717,5,4,1:2:0:0:
148,320,29871,1,0,3:2:0:0:
284,256,30025,1,0,3:2:0:0:
240,336,30179,1,0,3:2:0:0:
56,364,30332,5,0,3:2:0:0:
32,32,30486,1,0,3:2:0:0:
48,292,30640,6,0,L|32:64,1,192,4|4,1:2|1:2,0:0:0:0:
120,204,30948,6,2,P|84:228|24:164,1,144,4|0,0:0|2:0,0:0:0:0:
204,160,31563,6,0,P|260:172|320:164,1,96,0|0,0:0|2:0,0:0:0:0:
364,120,31794,1,0,0:0:0:0:
156,100,31871,1,4,0:3:0:0:
240,328,32025,1,0,0:0:0:0:
460,320,32179,6,0,B|412:336|412:336|364:312,1,96,2|2,0:2|2:2,0:0:0:0:
240,328,32486,1,4,0:3:0:0:
180,184,32640,1,2,0:2:0:0:
180,184,32717,1,2,0:2:0:0:
180,184,32794,2,0,P|104:168|68:184,1,96,2|0,0:2|2:2,0:0:0:0:
20,216,33025,1,0,0:0:0:0:
236,244,33102,1,4,0:3:0:0:
108,360,33256,1,6,0:2:0:0:
388,316,33409,6,2,P|444:344|468:276,1,144,4|0,0:2|2:0,0:0:0:0:
344,176,34025,6,0,P|320:120|328:72,1,96,0|0,0:0|2:0,0:0:0:0:
364,24,34256,1,0,0:0:0:0:
328,252,34332,1,4,0:3:0:0:
112,120,34486,1,0,0:0:0:0:
164,64,34640,6,0,P|200:48|264:56,1,96,2|2,0:2|2:2,0:0:0:0:
492,140,34871,1,2,2:2:0:0:
492,140,34948,2,0,P|444:145|400:128,1,96,4|2,0:3|0:2,0:0:0:0:
252,168,35256,5,2,0:2:0:0:
72,256,35409,1,2,3:2:0:0:
176,268,35486,1,0,0:0:0:0:
264,312,35563,1,4,0:3:0:0:
444,224,35716,1,2,0:2:0:0:
8,212,35871,5,4,0:2:0:0:
512,264,36025,1,4,0:2:0:0:
256,384,36179,2,0,L|256:284,1,96,4|0,0:3|2:0,0:0:0:0:
204,92,36486,6,0,P|140:108|96:96,1,96,0|0,0:0|2:0,0:0:0:0:
48,64,36717,1,0,0:0:0:0:
280,100,36794,1,4,0:3:0:0:
148,216,36948,1,0,0:0:0:0:
48,64,37102,6,0,P|80:36|144:36,1,96,2|2,0:2|2:2,0:0:0:0:
216,184,37332,1,0,0:0:0:0:
212,256,37409,2,0,P|180:284|80:260,1,144,4|0,0:3|0:0,0:0:0:0:
352,196,37717,6,0,P|392:176|464:180,1,96,2|0,0:2|2:0,0:0:0:0:
512,192,37948,1,0,0:0:0:0:
296,248,38025,1,4,0:3:0:0:
496,360,38179,1,0,0:0:0:0:
132,340,38332,5,4,0:2:0:0:
8,304,38486,2,0,L|8:256,1,48,2|0,2:0|2:0,0:0:0:0:
204,360,38640,5,4,0:2:0:0:
380,232,38794,2,0,L|380:176,1,48,2|0,2:0|2:0,0:0:0:0:
176,224,38948,6,0,L|152:224,1,24,6|0,0:2|2:0,0:0:0:0:
176,208,39025,2,0,L|176:184,1,24,2|0,2:0|2:0,0:0:0:0:
192,208,39102,2,0,L|216:208,1,24,2|0,2:2|2:0,0:0:0:0:
192,224,39179,2,0,L|192:248,1,24,2|0,2:0|2:0,0:0:0:0:
108,152,39256,5,0,0:0:0:0:
168,116,39332,1,0,0:0:0:0:
240,128,39409,1,2,0:2:0:0:
276,188,39486,1,0,0:0:0:0:
264,260,39563,6,0,P|266:275|272:284,3,24,2|0|0|0,2:0|2:0|2:0|2:0,0:0:0:0:
340,304,39717,6,0,P|352:312|360:316,3,24,2|0|0|0,2:0|2:0|2:0|2:0,0:0:0:0:
384,76,39871,6,0,P|386:60|392:52,3,24,4|0|0|0,2:1|2:0|2:0|2:0,0:0:0:0:
460,32,40025,6,0,P|472:24|480:20,3,24,2|0|2|0,2:0|2:0|2:0|2:0,2:0:0:0:
500,148,40179,6,2,P|416:152|384:112,1,108.000004119873,4|0,0:2|2:0,2:1:0:0:
20,48,40486,2,2,P|104:52|136:12,1,108.000004119873,0|0,0:2|2:0,0:1:0:0:
224,4,40794,6,2,L|228:84,1,72,4|0,0:0|2:0,0:1:0:0:
232,148,41102,2,2,L|236:228,1,72,4|0,0:3|2:0,0:1:0:0:
300,56,41409,6,0,P|308:99|304:164,1,96,2|0,0:2|2:0,0:0:0:0:
235,219,41640,1,0,0:0:0:0:
224,4,41717,1,4,0:3:0:0:
96,120,41871,1,2,0:2:0:0:
376,100,42025,6,0,L|472:92,1,96,2|0,0:2|2:0,0:0:0:0:
372,324,42332,2,0,L|276:316,1,96,4|2,0:3|2:0,0:0:0:0:
436,168,42640,2,0,P|444:220|428:272,1,96,2|0,0:2|2:0,0:0:0:0:
372,324,42871,1,0,0:0:0:0:
376,100,42948,1,4,0:3:0:0:
512,220,43102,1,2,0:2:0:0:
224,208,43256,6,2,L|136:204,1,72,4|0,0:2|2:0,0:1:0:0:
76,204,43563,2,2,L|-12:200,1,72,4|0,0:3|2:0,0:1:0:0:
172,280,43871,6,0,P|128:304|64:300,1,96,2|0,0:2|2:0,0:0:0:0:
0,276,44102,1,0,0:0:0:0:
224,208,44179,1,4,0:3:0:0:
156,372,44332,1,0,0:0:0:0:
76,96,44486,5,2,0:2:0:0:
184,32,44640,2,0,P|208:20|232:16,1,48,2|0,0:2|0:0,0:0:0:0:
272,136,44794,2,0,P|296:148|320:152,1,48,4|0,0:3|2:0,0:0:0:0:
400,68,44948,1,2,0:2:0:0:
400,68,45102,5,2,0:2:0:0:
184,32,45256,1,2,0:2:0:0:
128,108,45332,1,0,0:0:0:0:
24,140,45409,1,4,0:3:0:0:
220,184,45563,1,0,0:0:0:0:
0,248,45717,5,4,0:2:0:0:
512,164,45871,1,4,0:2:0:0:
256,272,46025,2,0,L|256:368,1,96,4|0,0:3|2:0,0:1:0:0:
384,240,46332,6,0,P|400:180|388:140,1,96,0|0,0:0|2:0,0:0:0:0:
348,92,46563,1,0,0:0:0:0:
332,296,46640,1,4,0:3:0:0:
256,36,46794,1,0,0:2:0:0:
119,148,46948,2,0,P|112:195|128:240,1,96,2|0,0:2|2:0,0:0:0:0:
400,320,47256,6,0,P|444:336|504:344,1,96,4|2,0:3|2:2,0:0:0:0:
112,320,47563,2,0,P|68:336|8:344,1,96,0|0,0:0|2:0,0:0:0:0:
0,276,47794,1,0,0:0:0:0:
192,288,47871,1,4,0:3:0:0:
120,84,48025,1,0,0:0:0:0:
0,32,48179,6,0,L|0:136,1,93.5999957153322,4|0,0:2|2:0,0:0:0:0:
188,56,48486,6,0,L|188:160,1,93.5999957153322,4|0,0:3|2:0,0:0:0:0:
360,16,48794,6,0,L|360:120,1,93.5999957153322,4|0,0:2|2:0,0:0:0:0:
512,44,49102,5,6,3:2:0:0:
492,120,49179,1,2,3:2:0:0:
512,196,49256,1,2,3:2:0:0:
492,272,49333,1,2,3:2:0:0:
512,344,49409,6,0,P|459:361|304:196,1,311.999985717774,4|0,0:0|0:0,0:0:0:0:
209,204,50332,6,0,P|148:339|0:344,1,309.677419354839,4|4,0:2|0:2,0:0:0:0:
132,96,50640,5,4,0:1:0:0:
132,96,50794,2,0,P|144:132|144:176,1,72.0000027465821,0|2,0:0|0:0,0:0:0:0:
16,192,51102,1,0,0:0:0:0:
16,192,51256,2,0,P|4:156|4:112,1,72.0000027465821,2|2,0:0|0:0,0:0:0:0:
74,140,51563,1,0,0:0:0:0:
74,140,51717,1,2,0:0:0:0:
192,44,51871,5,2,0:0:0:0:
256,60,52025,1,0,0:0:0:0:
320,76,52179,1,2,0:0:0:0:
128,72,52332,5,2,0:0:0:0:
256,60,52486,1,0,0:0:0:0:
384,48,52640,1,2,0:0:0:0:
256,196,52794,2,0,P|248:152|256:120,1,72.0000027465821,0|2,0:0|0:0,0:0:0:0:
384,196,53102,5,0,0:0:0:0:
384,196,53256,2,0,P|356:236|312:244,1,72.0000027465821,0|2,0:0|0:0,0:0:0:0:
256,300,53563,1,0,0:0:0:0:
256,300,53717,2,0,P|212:276|168:284,1,72.0000027465821,0|2,0:0|0:0,0:0:0:0:
100,308,54025,2,0,L|24:316,1,72.0000027465821,0|2,0:0|0:0,0:0:0:0:
16,128,54332,5,0,0:0:0:0:
56,204,54486,1,0,0:0:0:0:
144,196,54640,1,2,0:0:0:0:
160,112,54794,1,2,0:0:0:0:
248,104,54948,5,0,0:0:0:0:
316,4,55102,1,2,0:0:0:0:
436,28,55256,1,0,0:0:0:0:
452,148,55409,1,2,0:0:0:0:
468,224,55563,6,0,P|472:256|464:296,2,72.0000027465821,0|0|2,0:0|0:0|0:0,0:0:0:0:
368,344,56025,2,0,P|360:308|364:273,2,72.0000027465821,0|0|2,0:0|0:0|0:0,0:0:0:0:
216,224,56486,2,0,P|256:204|288:208,1,72.0000027465821,0|2,0:0|0:0,0:0:0:0:
248,336,56794,5,2,0:0:0:0:
164,356,56948,1,0,0:0:0:0:
84,320,57102,1,0,0:0:0:0:
0,188,57256,5,2,0:0:0:0:
84,208,57410,1,0,0:0:0:0:
164,172,57564,1,2,0:0:0:0:
192,92,57717,1,0,0:0:0:0:
164,8,57871,1,2,0:0:0:0:
88,48,58025,5,2,0:0:0:0:
88,48,58179,2,0,P|44:56|12:52,1,72.0000027465821
268,48,58486,1,2,0:0:0:0:
268,48,58640,2,0,P|312:40|344:44,1,72.0000027465821
416,84,58948,2,0,P|444:48|444:16,1,72.0000027465821,2|0,0:0|0:0,0:0:0:0:
344,124,59256,6,0,B|288:252|400:224|344:352,1,240,4|0,2:1|0:0,0:0:0:0:
344,328,60179,6,0,B|299:225|388:248|344:145,1,192,4|0,0:2|0:2,0:0:0:0:
432,60,60486,5,0,0:0:0:0:
432,60,60794,1,0,0:0:0:0:
432,60,61102,1,0,0:0:0:0:
432,60,61409,2,0,P|426:83|424:116,3,48,2|0|2|0,0:2|0:0|0:2|2:1,0:0:0:0:
324,192,61717,5,4,0:2:0:0:
324,192,62025,1,0,0:0:0:0:
324,192,62332,2,0,P|316:167|316:136,3,48,2|0|0|0,0:2|2:0|0:0|2:0,0:0:0:0:
256,108,62640,2,0,P|256:80|272:40,3,48,2|0|0|0,0:2|0:0|0:0|2:0,0:0:0:0:
188,192,62948,5,4,0:2:0:0:
188,192,63256,1,0,0:0:0:0:
188,192,63563,2,0,P|196:216|196:248,3,48,2|0|2|0,0:2|0:0|0:2|2:0,0:0:0:0:
256,276,63871,2,0,P|256:304|240:344,3,48,2|0|0|0,0:2|2:0|0:0|0:0,0:0:0:0:
192,364,64179,6,0,P|137:379|88:364,1,96,4|0,0:2|2:0,0:0:0:0:
16,248,64486,2,0,P|4:208|8:180,1,48,0|0,0:0|2:0,0:0:0:0:
104,140,64640,2,0,P|112:92|108:68,1,48,0|0,0:0|2:0,0:0:0:0:
68,16,64794,6,0,P|44:16|20:24,3,48,2|0|0|0,0:2|0:0|0:0|0:0,0:0:0:0:
220,40,65102,2,0,P|196:40|172:32,3,48,2|0|0|0,0:2|0:0|0:0|0:0,0:0:0:0:
348,28,65409,5,4,0:2:0:0:
348,28,65563,1,0,0:0:0:0:
412,124,65717,1,2,0:2:0:0:
412,124,65871,1,0,0:0:0:0:
496,124,66025,5,4,0:2:0:0:
344,180,66179,1,0,0:0:0:0:
168,180,66332,2,0,P|144:184|112:172,1,48,2|0,0:2|0:0,0:0:0:0:
16,124,66486,2,0,P|36:104|72:96,1,48
164,28,66640,5,4,0:2:0:0:
164,28,66794,1,0,0:0:0:0:
28,268,66948,1,2,0:2:0:0:
28,268,67102,1,0,0:0:0:0:
168,180,67256,6,0,P|192:200|208:228,1,48,4|0,0:2|0:0,0:0:0:0:
320,300,67409,2,0,P|324:324|320:348,1,48,2|0,0:2|0:0,0:0:0:0:
191,347,67563,2,0,P|188:323|192:300,1,48,2|0,0:2|0:0,0:0:0:0:
310,213,67717,2,0,P|324:194|344:180,1,48
500,144,67871,5,6,0:2:0:0:
510,203,67947,1,0,0:2:0:0:
481,256,68024,1,2,0:2:0:0:
424,278,68101,1,0,0:2:0:0:
367,259,68178,1,6,0:2:0:0:
335,208,68255,1,0,0:2:0:0:
342,148,68332,1,0,0:2:0:0:
387,106,68409,1,0,0:2:0:0:
444,108,68486,5,4,0:2:0:0:
392,136,68563,1,0,0:2:0:0:
336,132,68640,1,0,0:2:0:0:
292,92,68717,1,0,0:2:0:0:
240,68,68794,1,0,0:2:0:0:
184,60,68871,1,0,0:2:0:0:
128,80,68948,1,0,0:2:0:0:
92,124,69025,1,0,0:2:0:0:
84,180,69102,6,0,P|84:204|92:240,3,48,4|0|2|2,3:2|3:0|1:2|1:2,0:0:0:0:
148,284,69409,2,0,P|148:308|140:344,3,48,0|2|2|0,3:0|1:2|1:2|2:0,0:0:0:0:
72,360,69717,5,4,0:2:0:0:
256,104,69948,1,4,0:2:0:0:
440,360,70179,1,4,0:2:0:0:
320,340,70332,5,4,0:0:0:0:
500,256,70486,1,2,0:2:0:0:
500,256,70563,1,2,0:2:0:0:
500,256,70640,2,0,P|452:236|392:252,1,115.199996484375,8|0,0:0|0:0,0:0:0:0:
300,148,70948,2,0,P|384:112|408:24,1,172.799994726563,2|0,0:2|2:0,0:0:0:0:
320,0,71256,6,0,P|316:24|324:60,3,57.5999982421876,8|0|0|0,0:0|0:0|0:0|0:0,0:0:0:0:
408,40,71563,2,0,L|256:44,1,115.199996484375,2|0,0:2|0:0,0:0:0:0:
224,60,71794,2,0,P|192:56|168:32,1,57.5999982421876,0|8,0:0|0:0,0:0:0:0:
0,164,72025,2,0,P|32:160|56:136,1,57.5999982421876,2|0,0:2|0:0,0:0:0:0:
100,92,72179,5,2,0:2:0:0:
165,64,72256,1,0,0:0:0:0:
233,81,72332,1,2,0:2:0:0:
278,136,72409,1,2,0:2:0:0:
280,207,72486,1,8,0:1:0:0:
321,149,72563,1,0,0:0:0:0:
387,124,72640,1,2,0:2:0:0:
456,142,72717,1,0,0:0:0:0:
503,195,72794,6,0,P|512:256|416:336,2,172.799994726563,2|2|0,0:2|0:2|0:0,0:0:0:0:
432,40,73332,1,0,0:0:0:0:
500,52,73409,2,0,L|316:56,1,172.799994726563,2|2,0:2|0:2,0:0:0:0:
248,32,73717,6,0,P|232:68|232:100,1,57.5999982421876,8|0,0:0|0:0,0:0:0:0:
280,216,73871,2,0,P|296:252|296:284,1,57.5999982421876,2|0,0:2|0:0,0:0:0:0:
228,344,74025,6,0,P|192:356|152:352,3,57.5999982421876,2|0|2|0,0:2|0:0|0:2|0:0,0:0:0:0:
28,264,74332,2,0,P|12:236|16:192,3,57.5999982421876,8|0|2|0,0:0|0:0|0:2|0:0,0:0:0:0:
32,344,74640,5,2,0:2:0:0:
92,312,74717,1,0,0:0:0:0:
160,308,74794,1,0,0:0:0:0:
228,320,74871,1,2,0:2:0:0:
292,340,74948,1,8,0:0:0:0:
360,352,75025,1,0,0:0:0:0:
428,348,75102,1,2,0:2:0:0:
488,316,75179,1,2,0:2:0:0:
504,248,75256,5,4,0:2:0:0:
276,160,75409,1,2,0:2:0:0:
276,160,75486,1,2,0:2:0:0:
276,160,75563,2,0,P|260:220|280:276,1,115.199996484375,8|0,0:0|0:0,0:0:0:0:
492,152,75871,2,0,P|432:96|328:116,1,172.799994726563,2|0,0:2|2:0,0:0:0:0:
272,80,76179,6,0,P|264:44|268:16,1,57.5999982421876,8|0,0:0|0:0,0:0:0:0:
400,180,76332,2,0,P|401:208|394:236,1,57.5999982421876,2|0,0:2|0:0,0:0:0:0:
328,332,76486,6,0,B|229:371|249:291|149:339,1,172.799994726563,4|0,0:2|2:0,0:0:0:0:
104,372,76794,2,0,P|68:320|8:312,1,115.199996484375,8|0,0:0|0:0,0:0:0:0:
300,128,77102,6,0,P|332:184|408:192,1,115.199996484375,2|0,0:2|0:0,0:0:0:0:
424,256,77332,2,0,P|424:168|416:164,2,57.5999982421876,2|8|0,0:2|0:0|0:0,0:0:0:0:
512,108,77563,2,0,P|512:72|500:40,1,57.5999982421876,2|0,0:2|0:0,0:0:0:0:
396,12,77717,5,4,0:2:0:0:
232,56,77871,1,2,0:2:0:0:
256,80,77948,1,2,0:2:0:0:
280,56,78025,1,8,0:0:0:0:
116,12,78179,1,0,0:0:0:0:
36,104,78332,6,0,L|32:168,1,57.5999982421876,4|0,1:2|2:0,1:0:0:0:
200,144,78486,2,0,L|196:208,1,57.5999982421876,0|0,0:0|2:0,0:0:0:0:
24,240,78640,2,0,L|20:304,1,57.5999982421876,8|0,0:0|2:0,0:0:0:0:
188,280,78794,2,0,L|184:344,1,57.5999982421876
92,364,78948,6,2,L|112:136,1,172.799994726563,2|0,0:2|2:0,0:1:0:0:
404,191,79256,2,2,L|420:364,1,172.799994726563,2|0,0:2|2:0,0:1:0:0:
168,264,79563,5,2,3:1:0:0:
188,200,79640,1,2,3:2:0:0:
256,176,79717,1,2,3:2:0:0:
324,200,79794,1,0,3:0:0:0:
344,264,79871,6,0,P|352:308|344:360,1,96,4|0,0:2|2:2,0:0:0:0:
167,358,80025,2,0,P|159:311|168:264,1,96,4|0,0:2|2:0,0:0:0:0:
256,72,80179,5,4,0:1:0:0:
388,36,80332,1,2,0:2:0:0:
388,36,80409,1,2,0:2:0:0:
388,36,80486,2,0,P|400:96|372:140,1,115.199996484375,8|0,0:0|0:0,0:0:0:0:
224,260,80794,2,0,P|160:200|48:220,1,172.799994726563,2|0,0:2|2:0,0:0:0:0:
128,296,81102,2,0,P|136:327|132:356,3,57.5999982421876,8|0|0|0,0:0|0:0|0:0|0:0,0:0:0:0:
80,200,81409,6,0,L|208:188,1,115.199996484375,2|0,0:2|0:0,0:0:0:0:
252,148,81640,2,0,P|264:104|256:80,1,57.5999982421876,0|8,0:0|0:0,0:0:0:0:
508,92,81871,2,0,P|509:63|498:37,1,57.5999982421876,0|2,0:0|0:2,0:0:0:0:
432,12,82025,5,2,0:2:0:0:
364,31,82101,1,0,0:0:0:0:
331,93,82178,1,2,0:2:0:0:
351,160,82255,1,2,0:2:0:0:
413,193,82332,1,8,0:1:0:0:
478,219,82409,1,0,0:0:0:0:
505,284,82486,1,2,0:2:0:0:
476,349,82563,1,0,0:0:0:0:
412,376,82640,6,0,P|348:376|272:288,2,172.799994726563,6|2|0,0:2|0:2|0:0,0:0:0:0:
144,328,83179,1,0,0:0:0:0:
216,360,83256,2,0,L|24:368,1,172.799994726563,2|2,0:2|0:2,0:0:0:0:
208,264,83563,6,0,P|220:220|212:188,1,57.5999982421876,8|0,0:0|0:0,0:0:0:0:
304,128,83717,2,0,P|292:84|300:52,1,57.5999982421876
336,12,83871,6,0,P|360:0|408:8,3,57.5999982421876,2|0|2|0,0:2|0:0|0:2|0:0,0:0:0:0:
500,52,84179,2,0,P|512:76|504:124,3,57.5999982421876,8|0|2|0,0:0|0:0|0:2|0:0,0:0:0:0:
460,176,84486,5,2,0:2:0:0:
392,188,84563,1,0,0:0:0:0:
324,172,84640,1,0,0:0:0:0:
264,140,84717,1,2,0:2:0:0:
196,128,84794,1,8,0:0:0:0:
128,136,84871,1,0,0:0:0:0:
68,168,84948,1,2,0:2:0:0:
36,228,85025,1,2,0:2:0:0:
36,296,85102,5,4,0:2:0:0:
240,340,85256,1,2,0:2:0:0:
240,340,85332,1,2,0:2:0:0:
240,340,85409,2,0,P|260:268|240:224,1,115.199996484375,8|0,0:0|0:0,0:0:0:0:
36,296,85717,2,0,P|64:348|184:368,1,172.799994726563,2|0,0:2|2:0,0:0:0:0:
316,356,86025,6,0,P|344:364|380:360,1,57.5999982421876,8|0,0:0|0:0,0:0:0:0:
436,184,86179,2,0,P|464:176|500:180,1,57.5999982421876
476,372,86332,6,0,P|412:344|388:244,1,172.799994726563,2|0,0:2|2:0,0:0:0:0:
332,208,86640,2,0,P|340:144|328:88,1,115.199996484375,8|0,0:0|0:0,0:0:0:0:
200,288,86948,6,0,P|160:332|100:336,1,115.199996484375,2|0,0:2|0:0,0:0:0:0:
44,304,87179,2,0,P|24:252|32:216,2,57.5999982421876,2|8|2,0:2|0:0|0:2,0:0:0:0:
80,192,87409,2,0,P|88:152|80:116,1,57.5999982421876
176,24,87563,5,2,0:2:0:0:
228,68,87640,1,2,0:2:0:0:
256,132,87717,1,0,0:0:0:0:
284,68,87794,1,2,0:2:0:0:
336,24,87871,1,8,0:0:0:0:
424,148,88025,1,0,0:0:0:0:
304,288,88179,6,0,B|256:320|256:320|208:288,1,115.199996484375,2|0,0:2|2:0,0:0:0:0:
140,260,88409,1,0,0:0:0:0:
372,260,88486,2,0,P|376:224|368:192,3,57.5999982421876,8|0|0|0,0:0|0:0|0:0|0:0,0:0:0:0:
440,312,88794,5,2,3:2:0:0:
376,344,88871,1,0,3:0:0:0:
312,320,88948,1,2,3:2:0:0:
256,280,89025,1,2,3:2:0:0:
200,320,89102,1,0,3:0:0:0:
136,344,89179,1,2,3:2:0:0:
72,312,89256,1,2,3:2:0:0:
48,248,89332,1,0,3:0:0:0:
80,188,89409,6,2,P|100:116|20:72,1,172.799994726563,4|0,0:2|2:0,0:1:0:0:
485,70,89717,2,2,P|414:109|432:188,1,172.799994726563,4|0,0:2|2:0,0:1:0:0:
496,324,90025,6,0,P|444:344|368:324,1,115.199996484375,4|0,0:0|2:0,0:0:0:0:
332,284,90256,2,0,P|324:252|332:216,1,57.5999982421876,2|0,0:2|2:0,0:0:0:0:
184,112,90409,2,0,P|159:96|131:91,1,57.5999982421876,2|0,0:2|2:0,0:0:0:0:
356,116,90640,6,0,P|380:168|452:184,1,115.199996484375,0|0,0:0|2:0,0:0:0:0:
500,180,90871,1,0,0:0:0:0:
312,52,90948,1,4,0:2:0:0:
256,272,91102,1,0,0:0:0:0:
16,324,91256,6,0,P|68:344|144:324,1,115.199996484375,0|0,0:0|2:0,0:0:0:0:
180,284,91487,2,0,P|188:252|180:216,1,57.5999982421876,2|0,0:2|2:0,0:0:0:0:
328,112,91640,2,0,P|352:96|380:91,1,57.5999982421876,2|0,0:2|2:0,0:0:0:0:
156,116,91871,6,0,P|132:168|60:184,1,115.199996484375,0|0,0:0|2:0,0:0:0:0:
12,180,92102,1,0,0:0:0:0:
200,52,92179,1,4,0:2:0:0:
256,272,92333,1,0,0:0:0:0:
496,60,92486,6,0,P|444:40|368:60,1,115.199996484375,0|0,0:0|2:0,0:0:0:0:
332,100,92717,2,0,P|324:132|332:168,1,57.5999982421876,2|0,0:2|2:0,0:0:0:0:
184,272,92870,2,0,P|159:287|131:292,1,57.5999982421876,2|0,0:2|2:0,0:0:0:0:
356,268,93101,6,0,P|380:216|452:200,1,115.199996484375,0|0,0:0|2:0,0:0:0:0:
500,204,93332,1,0,0:0:0:0:
312,332,93409,1,4,0:2:0:0:
256,112,93563,1,0,0:0:0:0:
16,60,93717,6,0,P|68:40|144:60,1,115.199996484375,0|0,0:0|2:0,0:0:0:0:
180,100,93948,2,0,P|188:132|180:168,1,57.5999982421876,2|0,0:2|2:0,0:0:0:0:
328,272,94101,2,0,P|352:287|380:292,1,57.5999982421876,2|0,0:2|2:0,0:0:0:0:
156,268,94332,6,0,P|132:216|60:200,1,115.199996484375,0|0,0:0|2:0,0:0:0:0:
12,204,94563,1,0,0:0:0:0:
200,332,94640,1,4,0:2:0:0:
256,112,94794,1,0,0:0:0:0:
392,28,94948,6,0,P|456:36|496:96,1,115.199996484375,4|0,0:0|2:0,0:0:0:0:
332,124,95179,2,0,P|328:88|344:60,1,57.5999982421876,2|0,0:2|2:0,0:0:0:0:
192,208,95332,2,0,P|172:180|172:152,1,57.5999982421876,2|0,0:2|2:0,0:0:0:0:
132,324,95563,6,0,P|60:328|20:288,1,115.199996484375,0|0,0:0|2:0,0:0:0:0:
12,236,95794,1,0,0:0:0:0:
196,364,95871,1,4,0:2:0:0:
256,152,96025,1,0,0:0:0:0:
120,28,96179,6,0,P|56:36|16:96,1,115.199996484375,0|0,0:0|2:0,0:0:0:0:
180,124,96410,2,0,P|184:88|168:60,1,57.5999982421876,2|0,0:2|2:0,0:0:0:0:
320,208,96563,2,0,P|340:180|340:152,1,57.5999982421876,2|0,0:2|2:0,0:0:0:0:
380,324,96794,6,0,P|452:328|492:288,1,115.199996484375,0|0,0:0|2:0,0:0:0:0:
500,236,97025,1,0,0:0:0:0:
316,364,97102,1,4,0:2:0:0:
256,152,97256,1,0,0:0:0:0:
200,4,97409,6,0,P|256:16|312:4,1,115.199996484375,0|0,0:0|2:0,0:0:0:0:
360,56,97640,1,2,0:2:0:0:
360,56,97717,2,0,P|372:88|364:120,1,57.5999982421876,0|2,0:0|2:2,0:0:0:0:
143,110,97871,2,0,P|140:82|152:56,1,57.5999982421876,0|0,0:0|2:0,0:0:0:0:
312,272,98025,2,0,P|256:283|200:271,1,115.199996484375,0|0,0:0|2:0,0:0:0:0:
136,244,98256,1,0,0:0:0:0:
376,244,98332,1,4,0:2:0:0:
256,376,98486,1,0,0:0:0:0:
172,336,98640,6,2,L|-4:336,1,172.799994726563,4|0,0:0|2:0,0:1:0:0:
356,320,98948,6,2,L|420:320,1,57.5999982421876,0|0,0:0|2:0,0:0:0:0:
156,356,99102,2,2,L|92:356,1,57.5999982421876,0|0,0:0|2:0,0:0:0:0:
84,184,99256,6,2,L|141:184,1,57.5999982421876,0|0,0:0|2:0,0:0:0:0:
372,232,99410,2,0,L|429:232,1,57.5999982421876,2|0,0:0|2:0,0:0:0:0:
468,24,99563,6,2,L|410:24,1,57.5999982421876,0|0,0:0|2:0,0:0:0:0:
124,76,99717,2,2,L|66:76,1,57.5999982421876,0|0,0:0|2:0,0:0:0:0:
16,232,99871,6,0,P|8:288|60:344,1,115.199996484375,4|0,0:2|2:0,0:0:0:0:
104,356,100102,2,0,P|136:363|168:360,1,57.5999982421876,2|0,0:2|2:1,0:0:0:0:
212,164,100256,2,0,P|183:162|155:169,1,57.5999982421876,2|0,0:2|2:0,0:0:0:0:
408,268,100486,5,0,0:0:0:0:
200,308,100640,1,0,0:0:0:0:
256,328,100717,1,0,0:0:0:0:
312,308,100794,1,4,0:2:0:0:
104,268,100948,1,0,0:0:0:0:
496,232,101102,6,0,P|504:288|452:344,1,115.199996484375,0|0,0:0|2:0,0:0:0:0:
408,356,101333,2,0,P|375:363|344:360,1,57.5999982421876,2|0,0:2|2:1,0:0:0:0:
300,164,101487,2,0,P|328:162|356:169,1,57.5999982421876,2|0,0:2|2:0,0:0:0:0:
104,20,101717,5,0,0:0:0:0:
312,48,101871,1,0,0:0:0:0:
256,28,101948,1,0,0:0:0:0:
200,48,102025,1,4,0:2:0:0:
408,20,102179,1,0,0:0:0:0:
420,132,102332,6,0,L|440:196,1,57.5999982421876,2|0,0:2|2:0,0:0:0:0:
256,164,102486,2,0,L|256:232,1,57.5999982421876,2|0,0:2|2:0,0:0:0:0:
92,132,102640,2,0,L|52:252,1,115.199996484375,2|0,0:2|0:0,0:0:0:0:
256,372,102948,5,0,0:0:0:0:
308,268,103102,1,0,0:0:0:0:
256,296,103179,1,0,0:0:0:0:
204,268,103256,1,4,0:2:0:0:
256,164,103409,1,0,0:0:0:0:
256,164,103486,1,0,0:0:0:0:
256,164,103563,6,0,L|256:48,1,115.199996484375,0|0,0:0|2:0,0:0:0:0:
324,24,103794,2,0,P|348:16|384:24,1,57.5999982421876,2|0,0:2|2:1,0:0:0:0:
188,88,103948,2,0,P|164:96|128:88,1,57.5999982421876,2|0,0:2|2:0,0:0:0:0:
36,192,104179,5,0,0:0:0:0:
308,184,104332,1,0,0:0:0:0:
256,164,104409,1,0,0:0:0:0:
204,184,104486,1,4,0:2:0:0:
476,192,104640,1,0,0:0:0:0:
312,340,104794,6,0,P|256:356|200:340,1,115.199996484375,4|0,0:0|2:0,0:0:0:0:
160,280,105025,2,0,P|156:264|156:224,1,57.5999982421876,2|0,0:2|2:0,0:0:0:0:
356,223,105179,2,0,P|357:251|352:279,1,57.5999982421876,2|0,0:2|2:0,0:0:0:0:
468,300,105409,6,0,P|496:248|480:176,1,115.199996484375,0|0,0:0|2:0,0:0:0:0:
444,136,105639,1,0,0:0:0:0:
396,344,105716,1,4,0:2:0:0:
216,200,105870,1,0,0:0:0:0:
200,44,106025,6,0,P|256:28|312:44,1,115.199996484375,0|0,0:0|2:0,0:0:0:0:
352,104,106256,2,0,P|356:120|356:160,1,57.5999982421876,2|0,0:2|2:0,0:0:0:0:
156,161,106410,2,0,P|155:133|160:105,1,57.5999982421876,2|0,0:2|2:0,0:0:0:0:
44,84,106640,6,0,P|16:136|32:208,1,115.199996484375,0|0,0:0|2:0,0:0:0:0:
68,248,106870,1,4,0:2:0:0:
116,40,106947,1,0,0:0:0:0:
296,184,107101,1,0,0:0:0:0:
472,344,107256,6,0,L|472:284,1,57.5999982421876,2|0,0:2|2:0,0:0:0:0:
256,264,107409,1,0,0:0:0:0:
40,216,107563,6,0,L|40:156,1,57.5999982421876,2|0,0:2|2:0,0:0:0:0:
256,136,107716,1,0,0:0:0:0:
472,88,107871,6,0,L|472:28,1,57.5999982421876,2|0,0:2|2:0,0:0:0:0:
328,104,108025,1,0,0:0:0:0:
256,136,108102,1,0,0:0:0:0:
184,104,108179,1,4,0:2:0:0:
40,88,108332,2,0,L|40:28,1,57.5999982421876,0|0,0:0|2:0,2:0:0:0:
136,168,108486,6,2,P|148:208|104:276,1,108.000004119873,0|0,0:0|2:0,0:0:0:0:
36,328,108640,6,2,P|9:282|20:230,1,108.000004119873,2|0,0:0|2:0,0:0:0:0:
40,88,108794,6,2,L|164:80,1,108.000004119873,0|0,0:0|2:0,0:0:0:0:
264,224,108948,6,2,L|388:216,1,108.000004119873,0|0,0:0|2:0,0:0:0:0:
352,108,109102,6,2,P|460:100|484:228,1,252.000009613037,2|0,0:0|2:0,0:0:0:0:
368,322,109409,6,2,P|360:266|372:214,1,108.000004119873,0|0,0:0|2:0,0:0:0:0:
176,168,109563,6,2,P|164:228|120:268,1,108.000004119873,0|0,0:0|2:0,0:0:0:0:
0,280,109717,5,6,0:0:0:0:
