osu file format v14

[General]
AudioFilename: audio.mp3
AudioLeadIn: 0
PreviewTime: 71664
Countdown: 1
SampleSet: Normal
StackLeniency: 0.7
Mode: 1
LetterboxInBreaks: 0
WidescreenStoryboard: 0

[Editor]
Bookmarks: 34717
DistanceSpacing: 0.8
BeatDivisor: 8
GridSize: 16
TimelineZoom: 3.899998

[Metadata]
Title:Grayed out -Antifront-
TitleUnicode:Grayed out -Antifront-
Artist:Getty vs. DJ DiA
ArtistUnicode:Getty vs. DJ DiA
Creator:Axurtel
Version:Oni Out [Convert Mode]
Source:BMS
Tags:Hakura xLolicore- Jager-kun toybot Ayyri Linada Pachiru Worminators HighTec LCFC LowComboFC わっふゑ vs. でこちんハンマー BOFU2016 - Legendary Again - SUPERALLOYS Pumpcore
BeatmapID:1989871
BeatmapSetID:953025

[Difficulty]
HPDrainRate:7
CircleSize:4
OverallDifficulty:7
ApproachRate:10
SliderMultiplier:1.6
SliderTickRate:1

[Events]
//Background and Video events
0,0,"1552374557245.jpg",0,0
//Break Periods
//Storyboard Layer 0 (Background)
//Storyboard Layer 1 (Fail)
//Storyboard Layer 2 (Pass)
//Storyboard Layer 3 (Foreground)
//Storyboard Layer 4 (Overlay)
//Storyboard Sound Samples

[TimingPoints]
928,315.789473684211,4,1,0,100,1,0
928,-66.6666666666667,4,1,0,55,0,0
1243,-200,4,1,0,55,0,0
5980,-66.6666666666667,4,1,0,55,0,0
6296,-200,4,1,0,55,0,0
11033,-133.333333333333,4,1,0,55,0,0
16085,-100,4,1,0,55,0,0
19875,-200,4,1,0,55,0,0
21138,-100,4,1,0,55,0,0
28717,-200,4,1,0,55,0,0
29980,-333.333333333333,4,1,0,55,0,0
31006,-66.6666666666667,4,1,0,55,0,0
31243,-200,4,1,0,55,0,0
31559,-100,4,1,0,55,0,0
33138,-90.9090909090909,4,1,0,55,0,0
33217,-83.3333333333333,4,1,0,55,0,0
33296,-76.9230769230769,4,1,0,55,0,0
33375,-71.4285714285714,4,1,0,55,0,0
33454,-100,4,1,0,55,0,0
35664,-90.9090909090909,4,1,0,55,0,0
35743,-83.3333333333333,4,1,0,55,0,0
35822,-76.9230769230769,4,1,0,55,0,0
35901,-71.4285714285714,4,1,0,55,0,0
35980,-100,4,1,0,55,0,0
37243,-200,4,1,0,55,0,0
37559,-100,4,1,0,55,0,0
38506,-200,4,1,0,55,0,0
38822,-100,4,1,0,55,0,0
39770,-200,4,1,0,55,0,0
40085,-100,4,1,0,55,0,0
40401,-95.2380952380952,4,1,0,55,0,0
40480,-90.9090909090909,4,1,0,55,0,0
40559,-86.9565217391304,4,1,0,55,0,0
40638,-83.3333333333333,4,1,0,55,0,0
40717,-80,4,1,0,55,0,0
40796,-76.9230769230769,4,1,0,55,0,0
40875,-74.0740740740741,4,1,0,55,0,0
40954,-71.4285714285714,4,1,0,55,0,0
41033,-68.9655172413793,4,1,0,55,0,0
41349,-100,4,1,0,55,0,0
41428,-66.6666666666667,4,1,0,55,0,0
41664,-100,4,1,0,55,0,0
43243,-333.333333333333,4,1,0,55,0,0
44191,-100,4,1,0,55,0,0
47664,-90.9090909090909,4,1,0,55,0,0
48928,-83.3333333333333,4,1,0,55,0,0
50191,-200,4,1,0,55,0,0
51454,-100,4,1,0,55,0,0
51770,-125,4,1,0,55,0,0
56506,-111.111111111111,4,1,0,55,0,0
61559,-100,4,1,0,55,0,0
66612,-90.9090909090909,4,1,0,55,0,0
67875,-83.3333333333333,4,1,0,55,0,0
69138,-100,4,1,0,55,0,0
69454,-111.111111111111,4,1,0,55,0,0
69770,-125,4,1,0,55,0,0
70085,-142.857142857143,4,1,0,55,0,0
70401,-166.666666666667,4,1,0,55,0,0
71349,-66.6666666666667,4,1,0,55,0,0
71664,-100,4,1,0,55,0,0
81770,-100,4,1,0,55,0,1
88085,-90.9090909090909,4,1,0,55,0,1
89349,-83.3333333333333,4,1,0,55,0,1
90612,-200,4,1,0,55,0,1
91559,-83.3333333333333,4,1,0,55,0,1
91875,-125,4,1,0,55,0,0
92191,-100,4,1,0,55,0,0

[HitObjects]
384,192,928,5,4,0:0:0:0:
208,192,1559,1,8,0:0:0:0:
304,192,2191,1,0,0:0:0:0:
304,192,2506,1,0,0:0:0:0:
208,192,2822,1,8,0:0:0:0:
304,192,3454,1,0,0:0:0:0:
208,192,4085,1,8,0:0:0:0:
304,192,4717,1,0,0:0:0:0:
304,192,5192,1,0,0:0:0:0:
208,192,5349,1,8,0:0:0:0:
304,192,5664,1,0,0:0:0:0:
384,192,5980,1,4,0:0:0:0:
208,192,6612,1,8,0:0:0:0:
304,192,7243,1,0,0:0:0:0:
208,192,7559,1,8,0:0:0:0:
208,192,7875,1,8,0:0:0:0:
304,192,8506,1,0,0:0:0:0:
208,192,9138,1,8,0:0:0:0:
304,192,9770,1,0,0:0:0:0:
304,192,10085,1,0,0:0:0:0:
208,192,10243,1,8,0:0:0:0:
208,192,10559,1,8,0:0:0:0:
304,192,10717,1,0,0:0:0:0:
208,192,10875,1,8,0:0:0:0:
128,192,11033,1,12,0:0:0:0:
304,192,11349,1,0,0:0:0:0:
304,192,11506,1,0,0:0:0:0:
208,192,11822,1,8,0:0:0:0:
208,192,12138,1,8,0:0:0:0:
304,192,12296,1,0,0:0:0:0:
304,192,12612,1,0,0:0:0:0:
208,192,12770,1,8,0:0:0:0:
208,192,13085,1,8,0:0:0:0:
304,192,13243,1,0,0:0:0:0:
208,192,13401,1,8,0:0:0:0:
304,192,13559,1,0,0:0:0:0:
304,192,13875,1,0,0:0:0:0:
208,192,14033,1,8,0:0:0:0:
208,192,14349,1,8,0:0:0:0:
304,192,14664,1,0,0:0:0:0:
304,192,14822,1,0,0:0:0:0:
208,192,14980,1,8,0:0:0:0:
304,192,15059,1,0,0:0:0:0:
208,192,15138,1,8,0:0:0:0:
208,192,15217,1,8,0:0:0:0:
304,192,15296,1,0,0:0:0:0:
208,192,15454,1,8,0:0:0:0:
208,192,15612,1,8,0:0:0:0:
304,192,15770,1,0,0:0:0:0:
208,192,15796,1,8,0:0:0:0:
208,192,15928,1,8,0:0:0:0:
384,192,16085,1,4,0:0:0:0:
304,192,16243,1,0,0:0:0:0:
304,192,16401,1,0,0:0:0:0:
304,192,16480,1,0,0:0:0:0:
208,192,16559,1,8,0:0:0:0:
304,192,16717,1,0,0:0:0:0:
208,192,16875,1,8,0:0:0:0:
208,192,16954,1,8,0:0:0:0:
304,192,17033,1,0,0:0:0:0:
208,192,17191,1,8,0:0:0:0:
384,192,17349,1,4,0:0:0:0:
208,192,17388,1,8,0:0:0:0:
304,192,17506,1,0,0:0:0:0:
208,192,17546,1,8,0:0:0:0:
208,192,17664,1,8,0:0:0:0:
304,192,17743,1,0,0:0:0:0:
208,192,17822,1,8,0:0:0:0:
208,192,17901,1,8,0:0:0:0:
304,192,17980,1,0,0:0:0:0:
208,192,18138,1,8,0:0:0:0:
304,192,18217,1,0,0:0:0:0:
304,192,18296,1,0,0:0:0:0:
208,192,18454,1,8,0:0:0:0:
304,192,18612,1,0,0:0:0:0:
304,192,18691,1,0,0:0:0:0:
304,192,18770,1,0,0:0:0:0:
304,192,18849,1,0,0:0:0:0:
208,192,18928,1,8,0:0:0:0:
304,192,19006,1,0,0:0:0:0:
208,192,19085,1,8,0:0:0:0:
208,192,19164,1,8,0:0:0:0:
304,192,19243,1,0,0:0:0:0:
208,192,19322,1,8,0:0:0:0:
208,192,19401,1,8,0:0:0:0:
304,192,19480,1,0,0:0:0:0:
304,192,19559,1,0,0:0:0:0:
208,192,19638,1,8,0:0:0:0:
208,192,19717,1,8,0:0:0:0:
384,192,19875,1,4,0:0:0:0:
208,192,20033,1,8,0:0:0:0:
208,192,20112,1,8,0:0:0:0:
208,192,20270,1,8,0:0:0:0:
304,192,20349,1,0,0:0:0:0:
208,192,20506,1,8,0:0:0:0:
304,192,20585,1,0,0:0:0:0:
304,192,20664,1,0,0:0:0:0:
208,192,20743,1,8,0:0:0:0:
208,192,20822,1,8,0:0:0:0:
304,192,20901,1,0,0:0:0:0:
208,192,20980,1,8,0:0:0:0:
208,192,21059,1,8,0:0:0:0:
384,192,21138,1,4,0:0:0:0:
304,192,21296,1,0,0:0:0:0:
304,192,21375,1,0,0:0:0:0:
208,192,21454,1,8,0:0:0:0:
208,192,21612,1,8,0:0:0:0:
208,192,21691,1,8,0:0:0:0:
304,192,21770,1,0,0:0:0:0:
208,192,21928,1,8,0:0:0:0:
208,192,22007,1,8,0:0:0:0:
304,192,22086,1,0,0:0:0:0:
208,192,22243,1,8,0:0:0:0:
384,192,22401,1,4,0:0:0:0:
304,192,22559,1,0,0:0:0:0:
304,192,22638,1,0,0:0:0:0:
208,192,22717,1,8,0:0:0:0:
208,192,22875,1,8,0:0:0:0:
208,192,22954,1,8,0:0:0:0:
304,192,23033,1,0,0:0:0:0:
208,192,23191,1,8,0:0:0:0:
208,192,23270,1,8,0:0:0:0:
304,192,23349,1,0,0:0:0:0:
208,192,23506,1,8,0:0:0:0:
384,192,23664,1,4,0:0:0:0:
304,192,23822,1,0,0:0:0:0:
304,192,23901,1,0,0:0:0:0:
208,192,23980,1,8,0:0:0:0:
208,192,24138,1,8,0:0:0:0:
208,192,24217,1,8,0:0:0:0:
304,192,24296,1,0,0:0:0:0:
208,192,24454,1,8,0:0:0:0:
208,192,24533,1,8,0:0:0:0:
304,192,24612,1,0,0:0:0:0:
208,192,24769,1,8,0:0:0:0:
384,192,24928,1,4,0:0:0:0:
304,192,25086,1,0,0:0:0:0:
304,192,25165,1,0,0:0:0:0:
208,192,25244,1,8,0:0:0:0:
208,192,25402,1,8,0:0:0:0:
208,192,25481,1,8,0:0:0:0:
304,192,25560,1,0,0:0:0:0:
208,192,25718,1,8,0:0:0:0:
208,192,25797,1,8,0:0:0:0:
304,192,25876,1,0,0:0:0:0:
384,192,26191,1,4,0:0:0:0:
304,192,26349,1,0,0:0:0:0:
208,192,26375,1,8,0:0:0:0:
208,192,26506,1,8,0:0:0:0:
208,192,26533,1,8,0:0:0:0:
384,192,26664,1,4,0:0:0:0:
304,192,26822,1,0,0:0:0:0:
208,192,26849,1,8,0:0:0:0:
304,192,26980,1,0,0:0:0:0:
208,192,27006,1,8,0:0:0:0:
384,192,27138,1,4,0:0:0:0:
208,192,27296,1,8,0:0:0:0:
208,192,27322,1,8,0:0:0:0:
384,192,27454,1,4,0:0:0:0:
304,192,27612,1,0,0:0:0:0:
208,192,27638,1,8,0:0:0:0:
208,192,27770,1,8,0:0:0:0:
208,192,27796,1,8,0:0:0:0:
384,192,27928,1,4,0:0:0:0:
304,192,28085,1,0,0:0:0:0:
208,192,28112,1,8,0:0:0:0:
304,192,28243,1,0,0:0:0:0:
208,192,28270,1,8,0:0:0:0:
384,192,28401,1,4,0:0:0:0:
208,192,28559,1,8,0:0:0:0:
208,192,28585,1,8,0:0:0:0:
384,192,28717,1,4,0:0:0:0:
112,96,28796,2,0,L|400:96,1,280
208,192,29980,1,8,0:0:0:0:
304,192,30138,1,0,0:0:0:0:
208,192,30217,1,8,0:0:0:0:
304,192,30375,1,0,0:0:0:0:
208,192,30454,1,8,0:0:0:0:
208,192,30612,1,8,0:0:0:0:
208,192,30691,1,8,0:0:0:0:
304,192,30770,1,0,0:0:0:0:
304,192,30849,1,0,0:0:0:0:
208,192,30928,1,8,0:0:0:0:
256,192,31006,8,0,31164,0:0:0:0:
384,192,31243,5,4,0:0:0:0:
304,192,31559,1,0,0:0:0:0:
208,192,31638,1,8,0:0:0:0:
208,192,31717,1,8,0:0:0:0:
304,192,31875,1,0,0:0:0:0:
208,192,31954,1,8,0:0:0:0:
208,192,32033,1,8,0:0:0:0:
304,192,32191,1,0,0:0:0:0:
208,192,32217,1,8,0:0:0:0:
208,192,32349,1,8,0:0:0:0:
304,192,32506,1,0,0:0:0:0:
208,192,32533,1,8,0:0:0:0:
208,192,32664,1,8,0:0:0:0:
304,192,32822,1,0,0:0:0:0:
208,192,32849,1,8,0:0:0:0:
208,192,32980,1,8,0:0:0:0:
304,192,33138,1,0,0:0:0:0:
208,192,33217,1,8,0:0:0:0:
208,192,33296,1,8,0:0:0:0:
208,192,33375,1,8,0:0:0:0:
304,192,33454,1,0,0:0:0:0:
208,192,33480,1,8,0:0:0:0:
304,192,33612,1,0,0:0:0:0:
208,192,33691,1,8,0:0:0:0:
304,192,33770,1,0,0:0:0:0:
208,192,33928,1,8,0:0:0:0:
304,192,34085,1,0,0:0:0:0:
208,192,34112,1,8,0:0:0:0:
208,192,34243,1,8,0:0:0:0:
304,192,34401,1,0,0:0:0:0:
208,192,34480,1,8,0:0:0:0:
304,192,34559,1,0,0:0:0:0:
304,192,34717,1,0,0:0:0:0:
208,192,34796,1,8,0:0:0:0:
208,192,34875,1,8,0:0:0:0:
304,192,35033,1,0,0:0:0:0:
208,192,35059,1,8,0:0:0:0:
208,192,35191,1,8,0:0:0:0:
304,192,35349,1,0,0:0:0:0:
208,192,35375,1,8,0:0:0:0:
208,192,35506,1,8,0:0:0:0:
208,192,35664,1,8,0:0:0:0:
208,192,35743,1,8,0:0:0:0:
208,192,35822,1,8,0:0:0:0:
208,192,35901,1,8,0:0:0:0:
256,192,35980,12,0,36296,0:0:0:0:
208,192,36612,5,8,0:0:0:0:
304,192,36691,1,0,0:0:0:0:
208,192,36770,1,8,0:0:0:0:
208,192,36849,1,8,0:0:0:0:
208,192,36928,1,8,0:0:0:0:
304,192,37006,1,0,0:0:0:0:
208,192,37085,1,8,0:0:0:0:
208,192,37243,1,8,0:0:0:0:
208,192,37296,1,8,0:0:0:0:
208,192,37349,1,8,0:0:0:0:
304,192,37401,1,0,0:0:0:0:
208,192,37454,1,8,0:0:0:0:
208,192,37506,1,8,0:0:0:0:
304,192,37559,1,0,0:0:0:0:
304,192,37717,1,0,0:0:0:0:
304,192,37875,1,0,0:0:0:0:
208,192,37954,1,8,0:0:0:0:
304,192,38033,1,0,0:0:0:0:
208,192,38112,1,8,0:0:0:0:
208,192,38191,1,8,0:0:0:0:
208,192,38349,1,8,0:0:0:0:
304,192,38428,1,0,0:0:0:0:
208,192,38506,1,8,0:0:0:0:
208,192,38559,1,8,0:0:0:0:
208,192,38612,1,8,0:0:0:0:
304,192,38664,1,0,0:0:0:0:
208,192,38717,1,8,0:0:0:0:
208,192,38770,1,8,0:0:0:0:
304,192,38822,1,0,0:0:0:0:
304,192,38980,1,0,0:0:0:0:
208,192,39138,1,8,0:0:0:0:
304,192,39217,1,0,0:0:0:0:
208,192,39296,1,8,0:0:0:0:
304,192,39375,1,0,0:0:0:0:
208,192,39454,1,8,0:0:0:0:
208,192,39612,1,8,0:0:0:0:
208,192,39770,1,8,0:0:0:0:
208,192,39822,1,8,0:0:0:0:
208,192,39875,1,8,0:0:0:0:
304,192,39928,1,0,0:0:0:0:
208,192,39980,1,8,0:0:0:0:
208,192,40033,1,8,0:0:0:0:
304,192,40085,1,0,0:0:0:0:
304,192,40243,1,0,0:0:0:0:
208,192,40401,1,8,0:0:0:0:
304,192,40480,1,0,0:0:0:0:
208,192,40559,1,8,0:0:0:0:
304,192,40638,1,0,0:0:0:0:
208,192,40717,1,8,0:0:0:0:
304,192,40796,1,0,0:0:0:0:
208,192,40875,1,8,0:0:0:0:
304,192,40954,1,0,0:0:0:0:
208,192,41033,1,8,0:0:0:0:
208,192,41085,1,8,0:0:0:0:
208,192,41138,1,8,0:0:0:0:
304,192,41191,1,0,0:0:0:0:
304,192,41243,1,0,0:0:0:0:
304,192,41296,1,0,0:0:0:0:
304,192,41349,1,0,0:0:0:0:
256,192,41428,12,0,41664,0:0:0:0:
208,192,41664,5,8,0:0:0:0:
304,192,41822,1,0,0:0:0:0:
304,192,41901,1,0,0:0:0:0:
304,192,41980,1,0,0:0:0:0:
208,192,42138,1,8,0:0:0:0:
304,192,42296,1,0,0:0:0:0:
304,192,42375,1,0,0:0:0:0:
304,192,42454,1,0,0:0:0:0:
208,192,42612,1,8,0:0:0:0:
304,192,42770,1,0,0:0:0:0:
304,192,42849,1,0,0:0:0:0:
304,192,42928,1,0,0:0:0:0:
208,192,43086,1,8,0:0:0:0:
304,192,43243,1,0,0:0:0:0:
208,192,43322,1,8,0:0:0:0:
208,192,43401,1,8,0:0:0:0:
304,192,43559,1,0,0:0:0:0:
208,192,43638,1,8,0:0:0:0:
304,192,43717,1,0,0:0:0:0:
304,192,43796,1,0,0:0:0:0:
304,192,43875,1,0,0:0:0:0:
304,192,44033,1,0,0:0:0:0:
208,192,44191,1,8,0:0:0:0:
304,192,44349,1,0,0:0:0:0:
304,192,44428,1,0,0:0:0:0:
304,192,44507,1,0,0:0:0:0:
208,192,44665,1,8,0:0:0:0:
304,192,44823,1,0,0:0:0:0:
304,192,44902,1,0,0:0:0:0:
304,192,44981,1,0,0:0:0:0:
208,192,45138,1,8,0:0:0:0:
304,192,45296,1,0,0:0:0:0:
304,192,45375,1,0,0:0:0:0:
304,192,45454,1,0,0:0:0:0:
208,192,45612,1,8,0:0:0:0:
304,192,45770,1,0,0:0:0:0:
208,192,45849,1,8,0:0:0:0:
208,192,45928,1,8,0:0:0:0:
304,192,46085,1,0,0:0:0:0:
208,192,46164,1,8,0:0:0:0:
304,192,46243,1,0,0:0:0:0:
208,192,46322,1,8,0:0:0:0:
208,192,46401,1,8,0:0:0:0:
304,192,46480,1,0,0:0:0:0:
304,192,46559,1,0,0:0:0:0:
304,192,46638,1,0,0:0:0:0:
208,192,46717,1,8,0:0:0:0:
304,192,46796,1,0,0:0:0:0:
304,192,46875,1,0,0:0:0:0:
304,192,46954,1,0,0:0:0:0:
208,192,47033,1,8,0:0:0:0:
304,192,47112,1,0,0:0:0:0:
304,192,47191,1,0,0:0:0:0:
304,192,47270,1,0,0:0:0:0:
208,192,47349,1,8,0:0:0:0:
304,192,47428,1,0,0:0:0:0:
304,192,47507,1,0,0:0:0:0:
304,192,47585,1,0,0:0:0:0:
208,192,47664,1,8,0:0:0:0:
208,192,47743,1,8,0:0:0:0:
304,192,47823,1,0,0:0:0:0:
304,192,47901,1,0,0:0:0:0:
208,192,47980,1,8,0:0:0:0:
208,192,48059,1,8,0:0:0:0:
304,192,48139,1,0,0:0:0:0:
304,192,48218,1,0,0:0:0:0:
208,192,48296,1,8,0:0:0:0:
208,192,48375,1,8,0:0:0:0:
304,192,48454,1,0,0:0:0:0:
304,192,48533,1,0,0:0:0:0:
208,192,48612,1,8,0:0:0:0:
208,192,48691,1,8,0:0:0:0:
304,192,48770,1,0,0:0:0:0:
304,192,48849,1,0,0:0:0:0:
208,192,48928,1,8,0:0:0:0:
208,192,48980,1,8,0:0:0:0:
208,192,49033,1,8,0:0:0:0:
304,192,49085,1,0,0:0:0:0:
304,192,49164,1,0,0:0:0:0:
208,192,49243,1,8,0:0:0:0:
208,192,49296,1,8,0:0:0:0:
208,192,49349,1,8,0:0:0:0:
208,192,49401,1,8,0:0:0:0:
304,192,49480,1,0,0:0:0:0:
208,192,49559,1,8,0:0:0:0:
208,192,49638,1,8,0:0:0:0:
208,192,49717,1,8,0:0:0:0:
208,192,49796,1,8,0:0:0:0:
304,192,49875,1,0,0:0:0:0:
208,192,49928,1,8,0:0:0:0:
208,192,49980,1,8,0:0:0:0:
208,192,50033,1,8,0:0:0:0:
208,192,50085,1,8,0:0:0:0:
208,192,50138,1,8,0:0:0:0:
304,192,50191,1,0,0:0:0:0:
304,192,50349,1,0,0:0:0:0:
208,192,50428,1,8,0:0:0:0:
304,192,50585,1,0,0:0:0:0:
208,192,50664,1,8,0:0:0:0:
208,192,50822,1,8,0:0:0:0:
304,192,50980,1,0,0:0:0:0:
208,192,51059,1,8,0:0:0:0:
304,192,51138,1,0,0:0:0:0:
304,192,51296,1,0,0:0:0:0:
384,192,51454,1,4,0:0:0:0:
208,192,52085,1,8,0:0:0:0:
304,192,52401,1,0,0:0:0:0:
304,192,52717,1,0,0:0:0:0:
304,192,53033,1,0,0:0:0:0:
208,192,53191,1,8,0:0:0:0:
208,192,53349,1,8,0:0:0:0:
208,192,53664,1,8,0:0:0:0:
304,192,53980,1,0,0:0:0:0:
304,192,54138,1,0,0:0:0:0:
208,192,54296,1,8,0:0:0:0:
304,192,54454,1,0,0:0:0:0:
208,192,54612,1,8,0:0:0:0:
208,192,54928,1,8,0:0:0:0:
208,192,55085,1,8,0:0:0:0:
304,192,55243,1,0,0:0:0:0:
304,192,55559,1,0,0:0:0:0:
208,192,55717,1,8,0:0:0:0:
304,192,55875,1,0,0:0:0:0:
208,192,56191,1,8,0:0:0:0:
384,192,56506,1,4,0:0:0:0:
304,192,56822,1,0,0:0:0:0:
208,192,56980,1,8,0:0:0:0:
208,192,57138,1,8,0:0:0:0:
208,192,57454,1,8,0:0:0:0:
304,192,57770,1,0,0:0:0:0:
208,192,57928,1,8,0:0:0:0:
208,192,58085,1,8,0:0:0:0:
304,192,58243,1,0,0:0:0:0:
208,192,58401,1,8,0:0:0:0:
208,192,58717,1,8,0:0:0:0:
304,192,59033,1,0,0:0:0:0:
208,192,59191,1,8,0:0:0:0:
304,192,59349,1,0,0:0:0:0:
208,192,59507,1,8,0:0:0:0:
208,192,59664,1,8,0:0:0:0:
208,192,59980,1,8,0:0:0:0:
304,192,60138,1,0,0:0:0:0:
304,192,60296,1,0,0:0:0:0:
208,192,60612,1,8,0:0:0:0:
304,192,60770,1,0,0:0:0:0:
208,192,60928,1,8,0:0:0:0:
208,192,61243,1,8,0:0:0:0:
384,192,61559,1,4,0:0:0:0:
304,192,61875,1,0,0:0:0:0:
304,192,62191,1,0,0:0:0:0:
208,192,62349,1,8,0:0:0:0:
208,192,62664,1,8,0:0:0:0:
304,192,62822,1,0,0:0:0:0:
304,192,63138,1,0,0:0:0:0:
208,192,63164,1,8,0:0:0:0:
208,192,63296,1,8,0:0:0:0:
304,192,63454,1,0,0:0:0:0:
208,192,63612,1,8,0:0:0:0:
304,192,63770,1,0,0:0:0:0:
208,192,63928,1,8,0:0:0:0:
208,192,64007,1,8,0:0:0:0:
304,192,64086,1,0,0:0:0:0:
304,192,64401,1,0,0:0:0:0:
208,192,64428,1,8,0:0:0:0:
208,192,64559,1,8,0:0:0:0:
304,192,64717,1,0,0:0:0:0:
208,192,64875,1,8,0:0:0:0:
304,192,65033,1,0,0:0:0:0:
208,192,65191,1,8,0:0:0:0:
208,192,65270,1,8,0:0:0:0:
304,192,65349,1,0,0:0:0:0:
304,192,65664,1,0,0:0:0:0:
208,192,65691,1,8,0:0:0:0:
208,192,65822,1,8,0:0:0:0:
304,192,65980,1,0,0:0:0:0:
208,192,66138,1,8,0:0:0:0:
304,192,66296,1,0,0:0:0:0:
208,192,66454,1,8,0:0:0:0:
208,192,66533,1,8,0:0:0:0:
304,192,66612,1,0,0:0:0:0:
208,192,66638,1,8,0:0:0:0:
208,192,66770,1,8,0:0:0:0:
208,192,66796,1,8,0:0:0:0:
304,192,66928,1,0,0:0:0:0:
208,192,66954,1,8,0:0:0:0:
208,192,67085,1,8,0:0:0:0:
208,192,67112,1,8,0:0:0:0:
304,192,67243,1,0,0:0:0:0:
208,192,67270,1,8,0:0:0:0:
208,192,67401,1,8,0:0:0:0:
208,192,67428,1,8,0:0:0:0:
304,192,67559,1,0,0:0:0:0:
208,192,67585,1,8,0:0:0:0:
208,192,67716,1,8,0:0:0:0:
208,192,67743,1,8,0:0:0:0:
304,192,67874,1,0,0:0:0:0:
208,192,67901,1,8,0:0:0:0:
208,192,68033,1,8,0:0:0:0:
208,192,68059,1,8,0:0:0:0:
304,192,68191,1,0,0:0:0:0:
208,192,68217,1,8,0:0:0:0:
208,192,68348,1,8,0:0:0:0:
208,192,68375,1,8,0:0:0:0:
304,192,68506,1,0,0:0:0:0:
208,192,68533,1,8,0:0:0:0:
208,192,68664,1,8,0:0:0:0:
208,192,68691,1,8,0:0:0:0:
304,192,68822,1,0,0:0:0:0:
208,192,68849,1,8,0:0:0:0:
208,192,68979,1,8,0:0:0:0:
208,192,69006,1,8,0:0:0:0:
304,192,69137,1,0,0:0:0:0:
208,192,69164,1,8,0:0:0:0:
304,192,69296,1,0,0:0:0:0:
208,192,69322,1,8,0:0:0:0:
304,192,69454,1,0,0:0:0:0:
208,192,69480,1,8,0:0:0:0:
304,192,69612,1,0,0:0:0:0:
208,192,69638,1,8,0:0:0:0:
304,192,69770,1,0,0:0:0:0:
208,192,69796,1,8,0:0:0:0:
304,192,69928,1,0,0:0:0:0:
208,192,69954,1,8,0:0:0:0:
304,192,70085,1,0,0:0:0:0:
208,192,70112,1,8,0:0:0:0:
304,192,70243,1,0,0:0:0:0:
208,192,70270,1,8,0:0:0:0:
208,192,70401,1,8,0:0:0:0:
304,192,70559,1,0,0:0:0:0:
208,192,70638,1,8,0:0:0:0:
304,192,70796,1,0,0:0:0:0:
208,192,70875,1,8,0:0:0:0:
304,192,71033,1,0,0:0:0:0:
304,192,71112,1,0,0:0:0:0:
304,192,71191,1,0,0:0:0:0:
304,192,71270,1,0,0:0:0:0:
208,192,71349,1,8,0:0:0:0:
256,192,71428,12,0,71664,0:0:0:0:
304,192,71822,5,0,0:0:0:0:
304,192,71901,1,0,0:0:0:0:
304,192,71980,1,0,0:0:0:0:
208,192,72138,1,8,0:0:0:0:
304,192,72296,1,0,0:0:0:0:
304,192,72375,1,0,0:0:0:0:
208,192,72454,1,8,0:0:0:0:
304,192,72612,1,0,0:0:0:0:
208,192,72770,1,8,0:0:0:0:
208,192,72849,1,8,0:0:0:0:
304,192,72928,1,0,0:0:0:0:
304,192,73085,1,0,0:0:0:0:
304,192,73243,1,0,0:0:0:0:
304,192,73322,1,0,0:0:0:0:
208,192,73401,1,8,0:0:0:0:
304,192,73480,1,0,0:0:0:0:
208,192,73559,1,8,0:0:0:0:
208,192,73717,1,8,0:0:0:0:
208,192,73796,1,8,0:0:0:0:
304,192,73875,1,0,0:0:0:0:
304,192,73954,1,0,0:0:0:0:
208,192,74033,1,8,0:0:0:0:
304,192,74191,1,0,0:0:0:0:
304,192,74349,1,0,0:0:0:0:
304,192,74428,1,0,0:0:0:0:
304,192,74506,1,0,0:0:0:0:
208,192,74585,1,8,0:0:0:0:
208,192,74664,1,8,0:0:0:0:
304,192,74822,1,0,0:0:0:0:
208,192,74980,1,8,0:0:0:0:
208,192,75059,1,8,0:0:0:0:
304,192,75138,1,0,0:0:0:0:
208,192,75296,1,8,0:0:0:0:
208,192,75375,1,8,0:0:0:0:
304,192,75454,1,0,0:0:0:0:
304,192,75612,1,0,0:0:0:0:
208,192,75691,1,8,0:0:0:0:
304,192,75770,1,0,0:0:0:0:
208,192,75849,1,8,0:0:0:0:
304,192,76006,1,0,0:0:0:0:
304,192,76085,1,0,0:0:0:0:
208,192,76243,1,8,0:0:0:0:
208,192,76270,1,8,0:0:0:0:
304,192,76401,1,0,0:0:0:0:
304,192,76428,1,0,0:0:0:0:
208,192,76559,1,8,0:0:0:0:
208,192,76585,1,8,0:0:0:0:
384,192,76717,1,4,0:0:0:0:
304,192,76875,1,0,0:0:0:0:
304,192,76954,1,0,0:0:0:0:
304,192,77033,1,0,0:0:0:0:
208,192,77191,1,8,0:0:0:0:
208,192,77270,1,8,0:0:0:0:
304,192,77349,1,0,0:0:0:0:
208,192,77506,1,8,0:0:0:0:
208,192,77585,1,8,0:0:0:0:
304,192,77664,1,0,0:0:0:0:
208,192,77822,1,8,0:0:0:0:
304,192,77980,1,0,0:0:0:0:
208,192,78059,1,8,0:0:0:0:
304,192,78138,1,0,0:0:0:0:
304,192,78217,1,0,0:0:0:0:
208,192,78296,1,8,0:0:0:0:
208,192,78454,1,8,0:0:0:0:
304,192,78612,1,0,0:0:0:0:
208,192,78770,1,8,0:0:0:0:
208,192,78796,1,8,0:0:0:0:
208,192,78928,1,8,0:0:0:0:
208,192,78954,1,8,0:0:0:0:
304,192,79085,1,0,0:0:0:0:
304,192,79112,1,0,0:0:0:0:
384,192,79243,1,4,0:0:0:0:
304,192,79401,1,0,0:0:0:0:
304,192,79480,1,0,0:0:0:0:
304,192,79559,1,0,0:0:0:0:
208,192,79717,1,8,0:0:0:0:
208,192,79796,1,8,0:0:0:0:
304,192,79875,1,0,0:0:0:0:
208,192,80033,1,8,0:0:0:0:
208,192,80112,1,8,0:0:0:0:
304,192,80191,1,0,0:0:0:0:
208,192,80349,1,8,0:0:0:0:
208,192,80428,1,8,0:0:0:0:
304,192,80506,1,0,0:0:0:0:
208,192,80585,1,8,0:0:0:0:
208,192,80664,1,8,0:0:0:0:
304,192,80743,1,0,0:0:0:0:
208,192,80822,1,8,0:0:0:0:
208,192,80980,1,8,0:0:0:0:
304,192,81138,1,0,0:0:0:0:
208,192,81296,1,8,0:0:0:0:
304,192,81454,1,0,0:0:0:0:
208,192,81480,1,8,0:0:0:0:
208,192,81612,1,8,0:0:0:0:
384,192,81770,1,4,0:0:0:0:
304,192,81928,1,0,0:0:0:0:
208,192,82085,1,8,0:0:0:0:
304,192,82243,1,0,0:0:0:0:
304,192,82322,1,0,0:0:0:0:
304,192,82401,1,0,0:0:0:0:
208,192,82559,1,8,0:0:0:0:
304,192,82717,1,0,0:0:0:0:
304,192,82796,1,0,0:0:0:0:
304,192,82875,1,0,0:0:0:0:
208,192,83033,1,8,0:0:0:0:
304,192,83191,1,0,0:0:0:0:
304,192,83270,1,0,0:0:0:0:
304,192,83349,1,0,0:0:0:0:
208,192,83507,1,8,0:0:0:0:
304,192,83664,1,0,0:0:0:0:
208,192,83743,1,8,0:0:0:0:
208,192,83822,1,8,0:0:0:0:
304,192,83980,1,0,0:0:0:0:
208,192,84059,1,8,0:0:0:0:
304,192,84138,1,0,0:0:0:0:
304,192,84217,1,0,0:0:0:0:
304,192,84296,1,0,0:0:0:0:
304,192,84454,1,0,0:0:0:0:
208,192,84612,1,8,0:0:0:0:
304,192,84770,1,0,0:0:0:0:
304,192,84849,1,0,0:0:0:0:
304,192,84928,1,0,0:0:0:0:
208,192,85086,1,8,0:0:0:0:
304,192,85244,1,0,0:0:0:0:
304,192,85323,1,0,0:0:0:0:
304,192,85402,1,0,0:0:0:0:
208,192,85559,1,8,0:0:0:0:
304,192,85717,1,0,0:0:0:0:
304,192,85796,1,0,0:0:0:0:
304,192,85875,1,0,0:0:0:0:
208,192,86033,1,8,0:0:0:0:
304,192,86191,1,0,0:0:0:0:
208,192,86270,1,8,0:0:0:0:
208,192,86349,1,8,0:0:0:0:
304,192,86506,1,0,0:0:0:0:
208,192,86585,1,8,0:0:0:0:
304,192,86664,1,0,0:0:0:0:
208,192,86743,1,8,0:0:0:0:
208,192,86822,1,8,0:0:0:0:
304,192,86901,1,0,0:0:0:0:
304,192,86980,1,0,0:0:0:0:
304,192,87059,1,0,0:0:0:0:
208,192,87138,1,8,0:0:0:0:
304,192,87217,1,0,0:0:0:0:
304,192,87296,1,0,0:0:0:0:
304,192,87375,1,0,0:0:0:0:
208,192,87454,1,8,0:0:0:0:
304,192,87533,1,0,0:0:0:0:
304,192,87612,1,0,0:0:0:0:
304,192,87691,1,0,0:0:0:0:
208,192,87770,1,8,0:0:0:0:
304,192,87849,1,0,0:0:0:0:
304,192,87928,1,0,0:0:0:0:
304,192,88006,1,0,0:0:0:0:
208,192,88085,1,8,0:0:0:0:
208,192,88164,1,8,0:0:0:0:
304,192,88244,1,0,0:0:0:0:
304,192,88322,1,0,0:0:0:0:
208,192,88401,1,8,0:0:0:0:
208,192,88480,1,8,0:0:0:0:
304,192,88560,1,0,0:0:0:0:
304,192,88639,1,0,0:0:0:0:
208,192,88717,1,8,0:0:0:0:
208,192,88796,1,8,0:0:0:0:
304,192,88875,1,0,0:0:0:0:
304,192,88954,1,0,0:0:0:0:
208,192,89033,1,8,0:0:0:0:
208,192,89112,1,8,0:0:0:0:
304,192,89191,1,0,0:0:0:0:
304,192,89270,1,0,0:0:0:0:
208,192,89349,1,8,0:0:0:0:
208,192,89401,1,8,0:0:0:0:
208,192,89454,1,8,0:0:0:0:
304,192,89506,1,0,0:0:0:0:
304,192,89585,1,0,0:0:0:0:
208,192,89664,1,8,0:0:0:0:
208,192,89717,1,8,0:0:0:0:
208,192,89770,1,8,0:0:0:0:
208,192,89822,1,8,0:0:0:0:
304,192,89901,1,0,0:0:0:0:
208,192,89980,1,8,0:0:0:0:
208,192,90059,1,8,0:0:0:0:
208,192,90138,1,8,0:0:0:0:
208,192,90217,1,8,0:0:0:0:
304,192,90296,1,0,0:0:0:0:
208,192,90349,1,8,0:0:0:0:
208,192,90401,1,8,0:0:0:0:
208,192,90454,1,8,0:0:0:0:
208,192,90506,1,8,0:0:0:0:
208,192,90559,1,8,0:0:0:0:
304,192,90612,1,0,0:0:0:0:
304,192,90770,1,0,0:0:0:0:
208,192,90849,1,8,0:0:0:0:
304,192,91006,1,0,0:0:0:0:
208,192,91085,1,8,0:0:0:0:
208,192,91243,1,8,0:0:0:0:
304,192,91401,1,0,0:0:0:0:
208,192,91480,1,8,0:0:0:0:
304,192,91559,1,0,0:0:0:0:
304,192,91717,1,0,0:0:0:0:
384,192,91875,1,4,0:0:0:0:
256,192,91954,12,0,92191,0:0:0:0:
304,192,92349,5,0,0:0:0:0:
208,192,92506,1,8,0:0:0:0:
208,192,92585,1,8,0:0:0:0:
304,192,92664,1,0,0:0:0:0:
208,192,92822,1,8,0:0:0:0:
304,192,92901,1,0,0:0:0:0:
208,192,92980,1,8,0:0:0:0:
304,192,93138,1,0,0:0:0:0:
304,192,93217,1,0,0:0:0:0:
208,192,93296,1,8,0:0:0:0:
208,192,93375,1,8,0:0:0:0:
304,192,93454,1,0,0:0:0:0:
208,192,93612,1,8,0:0:0:0:
208,192,93691,1,8,0:0:0:0:
304,192,93770,1,0,0:0:0:0:
208,192,93928,1,8,0:0:0:0:
304,192,94006,1,0,0:0:0:0:
208,192,94085,1,8,0:0:0:0:
208,192,94164,1,8,0:0:0:0:
304,192,94243,1,0,0:0:0:0:
304,192,94401,1,0,0:0:0:0:
304,192,94441,1,0,0:0:0:0:
304,192,94559,1,0,0:0:0:0:
304,192,94599,1,0,0:0:0:0:
208,192,94717,1,8,0:0:0:0:
208,192,94796,1,8,0:0:0:0:
304,192,94875,1,0,0:0:0:0:
208,192,95033,1,8,0:0:0:0:
208,192,95112,1,8,0:0:0:0:
304,192,95191,1,0,0:0:0:0:
304,192,95349,1,0,0:0:0:0:
208,192,95506,1,8,0:0:0:0:
304,192,95664,1,0,0:0:0:0:
208,192,95822,1,8,0:0:0:0:
208,192,95901,1,8,0:0:0:0:
208,192,95980,1,8,0:0:0:0:
208,192,96138,1,8,0:0:0:0:
208,192,96217,1,8,0:0:0:0:
304,192,96296,1,0,0:0:0:0:
304,192,96454,1,0,0:0:0:0:
208,192,96533,1,8,0:0:0:0:
304,192,96612,1,0,0:0:0:0:
304,192,96770,1,0,0:0:0:0:
208,192,96928,1,8,0:0:0:0:
208,192,96967,1,8,0:0:0:0:
304,192,97085,1,0,0:0:0:0:
304,192,97125,1,0,0:0:0:0:
208,192,97243,1,8,0:0:0:0:
304,192,97322,1,0,0:0:0:0:
304,192,97401,1,0,0:0:0:0:
208,192,97559,1,8,0:0:0:0:
304,192,97638,1,0,0:0:0:0:
304,192,97717,1,0,0:0:0:0:
304,192,97875,1,0,0:0:0:0:
208,192,97954,1,8,0:0:0:0:
208,192,98033,1,8,0:0:0:0:
208,192,98112,1,8,0:0:0:0:
304,192,98191,1,0,0:0:0:0:
208,192,98349,1,8,0:0:0:0:
208,192,98428,1,8,0:0:0:0:
304,192,98506,1,0,0:0:0:0:
208,192,98664,1,8,0:0:0:0:
304,192,98743,1,0,0:0:0:0:
304,192,98822,1,0,0:0:0:0:
208,192,98980,1,8,0:0:0:0:
304,192,99059,1,0,0:0:0:0:
208,192,99138,1,8,0:0:0:0:
208,192,99217,1,8,0:0:0:0:
304,192,99296,1,0,0:0:0:0:
304,192,99454,1,0,0:0:0:0:
304,192,99493,1,0,0:0:0:0:
304,192,99612,1,0,0:0:0:0:
304,192,99651,1,0,0:0:0:0:
208,192,99770,1,8,0:0:0:0:
208,192,99849,1,8,0:0:0:0:
208,192,99928,1,8,0:0:0:0:
208,192,100085,1,8,0:0:0:0:
208,192,100164,1,8,0:0:0:0:
208,192,100243,1,8,0:0:0:0:
304,192,100401,1,0,0:0:0:0:
304,192,100441,1,0,0:0:0:0:
208,192,100559,1,8,0:0:0:0:
208,192,100599,1,8,0:0:0:0:
304,192,100717,1,0,0:0:0:0:
304,192,100756,1,0,0:0:0:0:
208,192,100875,1,8,0:0:0:0:
208,192,100914,1,8,0:0:0:0:
208,192,101191,1,8,0:0:0:0:
208,192,101230,1,8,0:0:0:0:
208,192,101506,1,8,0:0:0:0:
208,192,101546,1,8,0:0:0:0:
304,192,101664,1,0,0:0:0:0:
208,192,101704,1,8,0:0:0:0:
208,192,101822,1,8,0:0:0:0:
208,192,101862,1,8,0:0:0:0:
256,192,101980,12,0,102296,0:0:0:0:
304,192,102454,5,0,0:0:0:0:
304,192,102612,1,0,0:0:0:0:
208,192,102770,1,8,0:0:0:0:
208,192,102849,1,8,0:0:0:0:
304,192,102928,1,0,0:0:0:0:
208,192,103085,1,8,0:0:0:0:
304,192,103243,1,0,0:0:0:0:
208,192,103401,1,8,0:0:0:0:
208,192,103480,1,8,0:0:0:0:
304,192,103559,1,0,0:0:0:0:
208,192,103717,1,8,0:0:0:0:
208,192,103796,1,8,0:0:0:0:
304,192,103875,1,0,0:0:0:0:
208,192,104033,1,8,0:0:0:0:
304,192,104112,1,0,0:0:0:0:
208,192,104191,1,8,0:0:0:0:
208,192,104270,1,8,0:0:0:0:
304,192,104349,1,0,0:0:0:0:
304,192,104506,1,0,0:0:0:0:
304,192,104585,1,0,0:0:0:0:
304,192,104664,1,0,0:0:0:0:
304,192,104743,1,0,0:0:0:0:
208,192,104822,1,8,0:0:0:0:
304,192,104980,1,0,0:0:0:0:
208,192,105138,1,8,0:0:0:0:
208,192,105217,1,8,0:0:0:0:
304,192,105296,1,0,0:0:0:0:
304,192,105454,1,0,0:0:0:0:
304,192,105533,1,0,0:0:0:0:
208,192,105612,1,8,0:0:0:0:
304,192,105770,1,0,0:0:0:0:
208,192,105928,1,8,0:0:0:0:
208,192,106006,1,8,0:0:0:0:
208,192,106085,1,8,0:0:0:0:
208,192,106243,1,8,0:0:0:0:
304,192,106322,1,0,0:0:0:0:
304,192,106401,1,0,0:0:0:0:
304,192,106559,1,0,0:0:0:0:
208,192,106638,1,8,0:0:0:0:
208,192,106717,1,8,0:0:0:0:
208,192,106796,1,8,0:0:0:0:
304,192,106875,1,0,0:0:0:0:
304,192,106954,1,0,0:0:0:0:
208,192,107033,1,8,0:0:0:0:
208,192,107112,1,8,0:0:0:0:
304,192,107191,1,0,0:0:0:0:
208,192,107349,1,8,0:0:0:0:
208,192,107428,1,8,0:0:0:0:
304,192,107507,1,0,0:0:0:0:
208,192,107664,1,8,0:0:0:0:
208,192,107743,1,8,0:0:0:0:
304,192,107822,1,0,0:0:0:0:
208,192,107980,1,8,0:0:0:0:
208,192,108059,1,8,0:0:0:0:
304,192,108138,1,0,0:0:0:0:
208,192,108296,1,8,0:0:0:0:
304,192,108375,1,0,0:0:0:0:
304,192,108454,1,0,0:0:0:0:
208,192,108612,1,8,0:0:0:0:
304,192,108691,1,0,0:0:0:0:
304,192,108770,1,0,0:0:0:0:
208,192,108928,1,8,0:0:0:0:
304,192,109007,1,0,0:0:0:0:
304,192,109086,1,0,0:0:0:0:
208,192,109243,1,8,0:0:0:0:
304,192,109322,1,0,0:0:0:0:
304,192,109401,1,0,0:0:0:0:
208,192,109559,1,8,0:0:0:0:
304,192,109638,1,0,0:0:0:0:
208,192,109717,1,8,0:0:0:0:
304,192,109796,1,0,0:0:0:0:
208,192,109875,1,8,0:0:0:0:
304,192,109954,1,0,0:0:0:0:
208,192,110033,1,8,0:0:0:0:
304,192,110112,1,0,0:0:0:0:
208,192,110191,1,8,0:0:0:0:
208,192,110270,1,8,0:0:0:0:
208,192,110349,1,8,0:0:0:0:
304,192,110428,1,0,0:0:0:0:
208,192,110506,1,8,0:0:0:0:
208,192,110585,1,8,0:0:0:0:
208,192,110664,1,8,0:0:0:0:
304,192,110743,1,0,0:0:0:0:
208,192,110822,1,8,0:0:0:0:
208,192,110980,1,8,0:0:0:0:
208,192,111006,1,8,0:0:0:0:
304,192,111138,1,0,0:0:0:0:
208,192,111296,1,8,0:0:0:0:
208,192,111322,1,8,0:0:0:0:
304,192,111454,1,0,0:0:0:0:
208,192,111612,1,8,0:0:0:0:
208,192,111638,1,8,0:0:0:0:
304,192,111770,1,0,0:0:0:0:
304,192,111796,1,0,0:0:0:0:
208,192,111928,1,8,0:0:0:0:
208,192,111954,1,8,0:0:0:0:
384,192,112086,1,4,0:0:0:0:
