osu file format v14

[General]
AudioFilename: audio.mp3
AudioLeadIn: 0
PreviewTime: 71664
Countdown: 1
SampleSet: Normal
StackLeniency: 0.7
Mode: 1
LetterboxInBreaks: 0
WidescreenStoryboard: 1

[Editor]
Bookmarks: 34717
DistanceSpacing: 0.8
BeatDivisor: 4
GridSize: 16
TimelineZoom: 3.899998

[Metadata]
Title:Grayed out -Antifront-
TitleUnicode:Grayed out -Antifront-
Artist:Getty vs. DJ DiA
ArtistUnicode:Getty vs. DJ DiA
Creator:Axurtel
Version:Inner Oni
Source:BMS
Tags:Hakura xLolicore- Jager-kun toybot Ayyri Linada Pachiru Worminators HighTec LCFC LowComboFC わっふゑ vs. でこちんハンマー BOFU2016 - Legendary Again - SUPERALLOYS Pumpcore
BeatmapID:1997047
BeatmapSetID:953025

[Difficulty]
HPDrainRate:7
CircleSize:4
OverallDifficulty:5
ApproachRate:10
SliderMultiplier:1.6
SliderTickRate:1

[Events]
//Background and Video events
0,0,"why is this anime.jpg",0,0
//Break Periods
2,51654,56056
2,56706,59846
//Storyboard Layer 0 (Background)
//Storyboard Layer 1 (Fail)
//Storyboard Layer 2 (Pass)
//Storyboard Layer 3 (Foreground)
//Storyboard Layer 4 (Overlay)
//Storyboard Sound Samples

[TimingPoints]
928,315.789473684211,4,1,0,100,1,0
928,-83.3333333333333,4,1,0,35,0,0
1243,-133.333333333333,4,1,0,35,0,0
5980,-83.3333333333333,4,1,0,50,0,0
6296,-133.333333333333,4,1,0,35,0,0
16085,-100,4,1,0,35,0,0
19875,-133.333333333333,4,1,0,35,0,0
21138,-100,4,1,0,35,0,0
29980,-133.333333333333,4,1,0,35,0,0
31559,-100,4,1,0,35,0,0
43243,-133.333333333333,4,1,0,35,0,0
44191,-100,4,1,0,35,0,0
50191,-133.333333333333,4,1,0,35,0,0
51454,-100,4,1,0,35,0,0
51770,-125,4,1,0,35,0,0
56506,-111.111111111111,4,1,0,35,0,0
61559,-100,4,1,0,35,0,0
81770,-100,4,1,0,35,0,1
90612,-133.333333333333,4,1,0,35,0,1
91559,-90.9090909090909,4,1,0,35,0,1
92191,-100,4,1,0,35,0,0

[HitObjects]
384,192,928,5,4,0:0:0:0:
208,192,1559,1,8,0:0:0:0:
304,192,2191,1,0,0:0:0:0:
208,192,2506,1,8,0:0:0:0:
208,192,2822,1,8,0:0:0:0:
304,192,3454,1,0,0:0:0:0:
208,192,4085,1,8,0:0:0:0:
304,192,4717,1,0,0:0:0:0:
208,192,5191,1,8,0:0:0:0:
208,192,5349,1,8,0:0:0:0:
304,192,5664,1,0,0:0:0:0:
384,192,5980,5,4,0:0:0:0:
208,192,6612,1,8,0:0:0:0:
304,192,7243,1,0,0:0:0:0:
208,192,7559,1,8,0:0:0:0:
208,192,7875,1,8,0:0:0:0:
304,192,8506,1,0,0:0:0:0:
208,192,9138,1,8,0:0:0:0:
304,192,9770,1,0,0:0:0:0:
304,192,10085,1,0,0:0:0:0:
208,192,10243,1,8,0:0:0:0:
208,192,10559,1,8,0:0:0:0:
304,192,10717,1,0,0:0:0:0:
208,192,10875,1,8,0:0:0:0:
384,192,11033,5,4,0:0:0:0:
304,192,11191,1,0,0:0:0:0:
304,192,11270,1,0,0:0:0:0:
304,192,11349,1,0,0:0:0:0:
208,192,11506,1,8,0:0:0:0:
304,192,11664,1,0,0:0:0:0:
304,192,11743,1,0,0:0:0:0:
208,192,11822,1,8,0:0:0:0:
304,192,11980,1,0,0:0:0:0:
208,192,12138,1,8,0:0:0:0:
208,192,12217,1,8,0:0:0:0:
304,192,12296,1,0,0:0:0:0:
304,192,12454,1,0,0:0:0:0:
208,192,12612,1,8,0:0:0:0:
304,192,12691,1,0,0:0:0:0:
208,192,12770,1,8,0:0:0:0:
208,192,12849,1,8,0:0:0:0:
304,192,12928,1,0,0:0:0:0:
208,192,13085,1,8,0:0:0:0:
208,192,13243,1,8,0:0:0:0:
304,192,13401,1,0,0:0:0:0:
304,192,13559,1,0,0:0:0:0:
304,192,13717,1,0,0:0:0:0:
304,192,13796,1,0,0:0:0:0:
304,192,13875,1,0,0:0:0:0:
208,192,14033,1,8,0:0:0:0:
208,192,14112,1,8,0:0:0:0:
304,192,14191,1,0,0:0:0:0:
208,192,14349,1,8,0:0:0:0:
304,192,14506,1,0,0:0:0:0:
208,192,14664,1,8,0:0:0:0:
208,192,14822,1,8,0:0:0:0:
304,192,14901,1,0,0:0:0:0:
304,192,14980,1,0,0:0:0:0:
208,192,15138,1,8,0:0:0:0:
304,192,15217,1,0,0:0:0:0:
208,192,15296,1,8,0:0:0:0:
304,192,15454,1,0,0:0:0:0:
208,192,15612,1,8,0:0:0:0:
208,192,15691,1,8,0:0:0:0:
304,192,15770,1,0,0:0:0:0:
208,192,15928,1,8,0:0:0:0:
384,192,16085,5,4,0:0:0:0:
304,192,16243,1,0,0:0:0:0:
304,192,16401,1,0,0:0:0:0:
304,192,16480,1,0,0:0:0:0:
208,192,16559,1,8,0:0:0:0:
208,192,16638,1,8,0:0:0:0:
304,192,16717,1,0,0:0:0:0:
208,192,16875,1,8,0:0:0:0:
304,192,17033,1,0,0:0:0:0:
208,192,17191,1,8,0:0:0:0:
208,192,17270,1,8,0:0:0:0:
304,192,17349,1,0,0:0:0:0:
304,192,17506,1,0,0:0:0:0:
208,192,17664,1,8,0:0:0:0:
304,192,17743,1,0,0:0:0:0:
208,192,17822,1,8,0:0:0:0:
208,192,17901,1,8,0:0:0:0:
304,192,17980,1,0,0:0:0:0:
208,192,18138,1,8,0:0:0:0:
304,192,18296,1,0,0:0:0:0:
304,192,18375,1,0,0:0:0:0:
208,192,18454,1,8,0:0:0:0:
304,192,18533,1,0,0:0:0:0:
208,192,18612,1,8,0:0:0:0:
304,192,18770,1,0,0:0:0:0:
304,192,18928,1,0,0:0:0:0:
208,192,19085,1,8,0:0:0:0:
208,192,19164,1,8,0:0:0:0:
304,192,19243,1,0,0:0:0:0:
208,192,19401,1,8,0:0:0:0:
208,192,19480,1,8,0:0:0:0:
304,192,19559,1,0,0:0:0:0:
304,192,19638,1,0,0:0:0:0:
208,192,19717,1,8,0:0:0:0:
384,192,19875,5,4,0:0:0:0:
256,192,20033,12,0,20980,0:0:0:0:
384,192,21138,5,4,0:0:0:0:
208,192,21296,1,8,0:0:0:0:
304,192,21454,1,0,0:0:0:0:
208,192,21612,1,8,0:0:0:0:
208,192,21691,1,8,0:0:0:0:
304,192,21770,1,0,0:0:0:0:
208,192,21928,1,8,0:0:0:0:
304,192,22085,1,0,0:0:0:0:
208,192,22243,1,8,0:0:0:0:
208,192,22322,1,8,0:0:0:0:
304,192,22401,1,0,0:0:0:0:
304,192,22559,1,0,0:0:0:0:
304,192,22717,1,0,0:0:0:0:
208,192,22875,1,8,0:0:0:0:
208,192,22954,1,8,0:0:0:0:
304,192,23033,1,0,0:0:0:0:
208,192,23191,1,8,0:0:0:0:
208,192,23270,1,8,0:0:0:0:
304,192,23349,1,0,0:0:0:0:
208,192,23506,1,8,0:0:0:0:
208,192,23585,1,8,0:0:0:0:
304,192,23664,1,0,0:0:0:0:
304,192,23822,1,0,0:0:0:0:
304,192,23980,1,0,0:0:0:0:
208,192,24138,1,8,0:0:0:0:
208,192,24217,1,8,0:0:0:0:
304,192,24296,1,0,0:0:0:0:
208,192,24454,1,8,0:0:0:0:
304,192,24533,1,0,0:0:0:0:
304,192,24612,1,0,0:0:0:0:
208,192,24770,1,8,0:0:0:0:
304,192,24849,1,0,0:0:0:0:
304,192,24928,1,0,0:0:0:0:
304,192,25085,1,0,0:0:0:0:
304,192,25243,1,0,0:0:0:0:
208,192,25401,1,8,0:0:0:0:
208,192,25480,1,8,0:0:0:0:
304,192,25559,1,0,0:0:0:0:
208,192,25717,1,8,0:0:0:0:
208,192,25796,1,8,0:0:0:0:
208,192,25875,1,8,0:0:0:0:
384,192,26191,5,4,0:0:0:0:
208,192,26349,1,8,0:0:0:0:
208,192,26428,1,8,0:0:0:0:
208,192,26506,1,8,0:0:0:0:
384,192,26664,5,4,0:0:0:0:
208,192,26822,1,8,0:0:0:0:
208,192,26901,1,8,0:0:0:0:
208,192,26980,1,8,0:0:0:0:
384,192,27138,5,4,0:0:0:0:
208,192,27296,1,8,0:0:0:0:
384,192,27454,5,4,0:0:0:0:
208,192,27612,1,8,0:0:0:0:
208,192,27691,1,8,0:0:0:0:
208,192,27770,1,8,0:0:0:0:
384,192,27928,5,4,0:0:0:0:
208,192,28085,1,8,0:0:0:0:
208,192,28164,1,8,0:0:0:0:
208,192,28243,1,8,0:0:0:0:
384,192,28401,5,4,0:0:0:0:
208,192,28559,1,8,0:0:0:0:
384,192,28717,5,4,0:0:0:0:
256,192,28875,12,0,29822,0:0:0:0:
208,192,29980,5,8,0:0:0:0:
304,192,30138,1,0,0:0:0:0:
208,192,30217,1,8,0:0:0:0:
304,192,30375,1,0,0:0:0:0:
208,192,30454,1,8,0:0:0:0:
304,192,30612,1,0,0:0:0:0:
208,192,30691,1,8,0:0:0:0:
304,192,30770,1,0,0:0:0:0:
304,192,30849,1,0,0:0:0:0:
208,192,30928,1,8,0:0:0:0:
208,192,31006,1,8,0:0:0:0:
208,192,31085,1,8,0:0:0:0:
208,192,31164,1,8,0:0:0:0:
304,192,31243,1,0,0:0:0:0:
384,192,31559,5,4,0:0:0:0:
208,192,31717,1,8,0:0:0:0:
384,192,31875,1,4,0:0:0:0:
208,192,32033,1,8,0:0:0:0:
304,192,32191,1,0,0:0:0:0:
208,192,32270,1,8,0:0:0:0:
208,192,32349,1,8,0:0:0:0:
304,192,32506,1,0,0:0:0:0:
208,192,32585,1,8,0:0:0:0:
208,192,32664,1,8,0:0:0:0:
304,192,32822,1,0,0:0:0:0:
208,192,32901,1,8,0:0:0:0:
208,192,32980,1,8,0:0:0:0:
304,192,33059,1,0,0:0:0:0:
304,192,33138,1,0,0:0:0:0:
208,192,33217,1,8,0:0:0:0:
208,192,33296,1,8,0:0:0:0:
208,192,33375,1,8,0:0:0:0:
304,192,33454,1,0,0:0:0:0:
304,192,33612,1,0,0:0:0:0:
208,192,33770,1,8,0:0:0:0:
208,192,33928,1,8,0:0:0:0:
304,192,34006,1,0,0:0:0:0:
208,192,34085,1,8,0:0:0:0:
208,192,34164,1,8,0:0:0:0:
304,192,34243,1,0,0:0:0:0:
208,192,34401,1,8,0:0:0:0:
304,192,34480,1,0,0:0:0:0:
208,192,34559,1,8,0:0:0:0:
304,192,34717,1,0,0:0:0:0:
208,192,34796,1,8,0:0:0:0:
304,192,34875,1,0,0:0:0:0:
304,192,35033,1,0,0:0:0:0:
208,192,35112,1,8,0:0:0:0:
208,192,35191,1,8,0:0:0:0:
304,192,35349,1,0,0:0:0:0:
208,192,35507,1,8,0:0:0:0:
304,192,35664,1,0,0:0:0:0:
208,192,35743,1,8,0:0:0:0:
208,192,35822,1,8,0:0:0:0:
208,192,35901,1,8,0:0:0:0:
304,192,35980,1,0,0:0:0:0:
208,192,36033,1,8,0:0:0:0:
208,192,36085,1,8,0:0:0:0:
208,192,36138,1,8,0:0:0:0:
304,192,36191,1,0,0:0:0:0:
384,192,36296,5,4,0:0:0:0:
304,192,36454,1,0,0:0:0:0:
208,192,36612,1,8,0:0:0:0:
304,192,36691,1,0,0:0:0:0:
208,192,36770,1,8,0:0:0:0:
304,192,36849,1,0,0:0:0:0:
208,192,36928,1,8,0:0:0:0:
208,192,37085,1,8,0:0:0:0:
208,192,37243,1,8,0:0:0:0:
208,192,37322,1,8,0:0:0:0:
208,192,37401,1,8,0:0:0:0:
208,192,37480,1,8,0:0:0:0:
304,192,37559,1,0,0:0:0:0:
304,192,37717,1,0,0:0:0:0:
208,192,37875,1,8,0:0:0:0:
208,192,37954,1,8,0:0:0:0:
304,192,38033,1,0,0:0:0:0:
304,192,38112,1,0,0:0:0:0:
208,192,38191,1,8,0:0:0:0:
208,192,38349,1,8,0:0:0:0:
208,192,38506,1,8,0:0:0:0:
208,192,38585,1,8,0:0:0:0:
208,192,38664,1,8,0:0:0:0:
208,192,38743,1,8,0:0:0:0:
304,192,38822,1,0,0:0:0:0:
304,192,38980,1,0,0:0:0:0:
208,192,39138,1,8,0:0:0:0:
208,192,39217,1,8,0:0:0:0:
208,192,39296,1,8,0:0:0:0:
304,192,39375,1,0,0:0:0:0:
208,192,39454,1,8,0:0:0:0:
208,192,39612,1,8,0:0:0:0:
208,192,39770,1,8,0:0:0:0:
208,192,39849,1,8,0:0:0:0:
208,192,39928,1,8,0:0:0:0:
208,192,40006,1,8,0:0:0:0:
304,192,40085,1,0,0:0:0:0:
303,191,40243,1,0,0:0:0:0:
208,192,40401,1,8,0:0:0:0:
304,192,40480,1,0,0:0:0:0:
208,192,40559,1,8,0:0:0:0:
304,192,40638,1,0,0:0:0:0:
208,192,40717,1,8,0:0:0:0:
304,192,40796,1,0,0:0:0:0:
304,192,40875,1,0,0:0:0:0:
208,192,41033,1,8,0:0:0:0:
208,192,41112,1,8,0:0:0:0:
303,191,41191,1,0,0:0:0:0:
303,191,41270,1,0,0:0:0:0:
303,191,41349,1,0,0:0:0:0:
303,191,41388,1,0,0:0:0:0:
303,191,41506,1,0,0:0:0:0:
128,192,41664,5,12,0:0:0:0:
303,191,41822,1,0,0:0:0:0:
303,191,41901,1,0,0:0:0:0:
303,191,41980,1,0,0:0:0:0:
208,192,42138,1,8,0:0:0:0:
208,192,42296,1,8,0:0:0:0:
208,192,42375,1,8,0:0:0:0:
208,192,42454,1,8,0:0:0:0:
208,192,42533,1,8,0:0:0:0:
303,191,42612,1,0,0:0:0:0:
208,192,42770,1,8,0:0:0:0:
208,192,42849,1,8,0:0:0:0:
303,191,42928,1,0,0:0:0:0:
303,191,43085,1,0,0:0:0:0:
208,192,43243,1,8,0:0:0:0:
208,192,43401,1,8,0:0:0:0:
303,191,43559,1,0,0:0:0:0:
208,192,43638,1,8,0:0:0:0:
208,192,43717,1,8,0:0:0:0:
208,192,43796,1,8,0:0:0:0:
303,191,43875,1,0,0:0:0:0:
303,191,44033,1,0,0:0:0:0:
208,192,44191,1,8,0:0:0:0:
303,191,44349,1,0,0:0:0:0:
303,191,44428,1,0,0:0:0:0:
303,191,44506,1,0,0:0:0:0:
208,192,44664,1,8,0:0:0:0:
208,192,44822,1,8,0:0:0:0:
208,192,44901,1,8,0:0:0:0:
208,192,44980,1,8,0:0:0:0:
208,192,45059,1,8,0:0:0:0:
303,191,45138,1,0,0:0:0:0:
303,191,45296,1,0,0:0:0:0:
303,191,45375,1,0,0:0:0:0:
303,191,45454,1,0,0:0:0:0:
208,192,45612,1,8,0:0:0:0:
208,192,45770,1,8,0:0:0:0:
303,191,45928,1,0,0:0:0:0:
303,191,46085,1,0,0:0:0:0:
208,192,46164,1,8,0:0:0:0:
303,191,46243,1,0,0:0:0:0:
128,192,46401,5,12,0:0:0:0:
303,191,46480,1,0,0:0:0:0:
303,191,46559,1,0,0:0:0:0:
208,192,46717,1,8,0:0:0:0:
303,191,46796,1,0,0:0:0:0:
303,191,46875,1,0,0:0:0:0:
208,192,47033,1,8,0:0:0:0:
303,191,47112,1,0,0:0:0:0:
303,191,47191,1,0,0:0:0:0:
208,192,47349,1,8,0:0:0:0:
303,191,47428,1,0,0:0:0:0:
303,191,47507,1,0,0:0:0:0:
128,192,47664,5,12,0:0:0:0:
303,191,47743,1,0,0:0:0:0:
303,191,47822,1,0,0:0:0:0:
303,191,47980,1,0,0:0:0:0:
208,192,48059,1,8,0:0:0:0:
208,192,48138,1,8,0:0:0:0:
303,191,48296,1,0,0:0:0:0:
303,191,48375,1,0,0:0:0:0:
208,192,48454,1,8,0:0:0:0:
303,191,48612,1,0,0:0:0:0:
303,191,48691,1,0,0:0:0:0:
208,192,48770,1,8,0:0:0:0:
208,192,48849,1,8,0:0:0:0:
303,191,48928,1,0,0:0:0:0:
208,192,49006,1,8,0:0:0:0:
208,192,49085,1,8,0:0:0:0:
303,191,49243,1,0,0:0:0:0:
208,192,49321,1,8,0:0:0:0:
208,192,49400,1,8,0:0:0:0:
303,191,49559,1,0,0:0:0:0:
208,192,49638,1,8,0:0:0:0:
208,192,49717,1,8,0:0:0:0:
208,192,49796,1,8,0:0:0:0:
303,191,49875,1,0,0:0:0:0:
303,191,49954,1,0,0:0:0:0:
208,192,50033,1,8,0:0:0:0:
208,192,50112,1,8,0:0:0:0:
208,192,50191,1,8,0:0:0:0:
303,191,50349,1,0,0:0:0:0:
303,191,50428,1,0,0:0:0:0:
208,192,50506,1,8,0:0:0:0:
303,191,50664,1,0,0:0:0:0:
208,192,50822,1,8,0:0:0:0:
304,192,50901,1,0,0:0:0:0:
208,192,50980,1,8,0:0:0:0:
208,192,51138,1,8,0:0:0:0:
304,192,51217,1,0,0:0:0:0:
304,192,51296,1,0,0:0:0:0:
304,192,51375,1,0,0:0:0:0:
384,192,51454,5,4,0:0:0:0:
384,192,56506,5,4,0:0:0:0:
256,192,60296,12,0,61243,0:0:0:0:
384,192,61559,5,4,0:0:0:0:
208,192,61875,1,8,0:0:0:0:
304,192,62151,1,0,0:0:0:0:
208,192,62191,1,8,0:0:0:0:
208,192,62349,1,8,0:0:0:0:
304,192,62506,1,0,0:0:0:0:
208,192,62664,1,8,0:0:0:0:
208,192,62743,1,8,0:0:0:0:
304,192,62822,1,0,0:0:0:0:
304,192,63099,1,0,0:0:0:0:
208,192,63139,1,8,0:0:0:0:
208,192,63297,1,8,0:0:0:0:
304,192,63454,1,0,0:0:0:0:
208,192,63612,1,8,0:0:0:0:
304,192,63770,1,0,0:0:0:0:
208,192,63928,1,8,0:0:0:0:
208,192,64007,1,8,0:0:0:0:
304,192,64086,1,0,0:0:0:0:
208,192,64243,1,8,0:0:0:0:
304,192,64322,1,0,0:0:0:0:
304,192,64401,1,0,0:0:0:0:
208,192,64559,1,8,0:0:0:0:
304,192,64717,1,0,0:0:0:0:
304,192,64796,1,0,0:0:0:0:
208,192,64875,1,8,0:0:0:0:
208,192,64954,1,8,0:0:0:0:
304,192,65033,1,0,0:0:0:0:
208,192,65191,1,8,0:0:0:0:
304,192,65349,1,0,0:0:0:0:
208,192,65428,1,8,0:0:0:0:
208,192,65506,1,8,0:0:0:0:
304,192,65664,1,0,0:0:0:0:
208,192,65822,1,8,0:0:0:0:
208,192,65901,1,8,0:0:0:0:
304,192,65980,1,0,0:0:0:0:
304,192,66059,1,0,0:0:0:0:
208,192,66138,1,8,0:0:0:0:
384,192,66612,5,4,0:0:0:0:
208,192,66770,1,8,0:0:0:0:
208,192,66849,1,8,0:0:0:0:
208,192,66927,1,8,0:0:0:0:
384,192,67085,1,4,0:0:0:0:
208,192,67243,1,8,0:0:0:0:
208,192,67322,1,8,0:0:0:0:
208,192,67401,1,8,0:0:0:0:
384,192,67559,1,4,0:0:0:0:
208,192,67717,1,8,0:0:0:0:
384,192,67875,1,4,0:0:0:0:
208,192,68033,1,8,0:0:0:0:
208,192,68112,1,8,0:0:0:0:
208,192,68191,1,8,0:0:0:0:
384,192,68349,1,4,0:0:0:0:
208,192,68506,1,8,0:0:0:0:
208,192,68585,1,8,0:0:0:0:
208,192,68664,1,8,0:0:0:0:
384,192,68822,1,4,0:0:0:0:
208,192,68980,1,8,0:0:0:0:
384,192,69138,1,4,0:0:0:0:
256,192,69296,8,0,70243,0:0:0:0:
208,192,70401,5,8,0:0:0:0:
304,192,70559,1,0,0:0:0:0:
208,192,70638,1,8,0:0:0:0:
304,192,70796,1,0,0:0:0:0:
208,192,70875,1,8,0:0:0:0:
304,192,71033,1,0,0:0:0:0:
208,192,71112,1,8,0:0:0:0:
304,192,71191,1,0,0:0:0:0:
304,192,71270,1,0,0:0:0:0:
208,192,71349,1,8,0:0:0:0:
208,192,71506,1,8,0:0:0:0:
384,192,71664,5,4,0:0:0:0:
208,192,71822,1,8,0:0:0:0:
208,192,71901,1,8,0:0:0:0:
304,192,71980,1,0,0:0:0:0:
208,192,72138,1,8,0:0:0:0:
304,192,72296,1,0,0:0:0:0:
304,192,72375,1,0,0:0:0:0:
208,192,72454,1,8,0:0:0:0:
208,192,72533,1,8,0:0:0:0:
304,192,72612,1,0,0:0:0:0:
208,192,72770,1,8,0:0:0:0:
304,192,72928,1,0,0:0:0:0:
304,192,73006,1,0,0:0:0:0:
208,192,73085,1,8,0:0:0:0:
304,192,73164,1,0,0:0:0:0:
208,192,73243,1,8,0:0:0:0:
208,192,73322,1,8,0:0:0:0:
304,192,73401,1,0,0:0:0:0:
304,192,73559,1,0,0:0:0:0:
208,192,73717,1,8,0:0:0:0:
304,192,73875,1,0,0:0:0:0:
304,192,73954,1,0,0:0:0:0:
208,192,74033,1,8,0:0:0:0:
304,192,74191,1,0,0:0:0:0:
304,192,74349,1,0,0:0:0:0:
304,192,74428,1,0,0:0:0:0:
304,192,74506,1,0,0:0:0:0:
208,192,74664,1,8,0:0:0:0:
304,192,74822,1,0,0:0:0:0:
208,192,74980,1,8,0:0:0:0:
208,192,75059,1,8,0:0:0:0:
304,192,75138,1,0,0:0:0:0:
208,192,75296,1,8,0:0:0:0:
208,192,75375,1,8,0:0:0:0:
304,192,75454,1,0,0:0:0:0:
208,192,75533,1,8,0:0:0:0:
208,192,75612,1,8,0:0:0:0:
304,192,75691,1,0,0:0:0:0:
208,192,75770,1,8,0:0:0:0:
304,192,75849,1,0,0:0:0:0:
304,192,75928,1,0,0:0:0:0:
304,192,76085,1,0,0:0:0:0:
208,192,76243,1,8,0:0:0:0:
208,192,76322,1,8,0:0:0:0:
304,192,76401,1,0,0:0:0:0:
208,192,76559,1,8,0:0:0:0:
384,192,76717,5,4,0:0:0:0:
304,192,76796,1,0,0:0:0:0:
304,192,76875,1,0,0:0:0:0:
304,192,77033,1,0,0:0:0:0:
304,192,77112,1,0,0:0:0:0:
208,192,77191,1,8,0:0:0:0:
208,192,77270,1,8,0:0:0:0:
304,192,77349,1,0,0:0:0:0:
208,192,77506,1,8,0:0:0:0:
208,192,77585,1,8,0:0:0:0:
304,192,77664,1,0,0:0:0:0:
304,192,77822,1,0,0:0:0:0:
208,192,77901,1,8,0:0:0:0:
304,192,77980,1,0,0:0:0:0:
208,192,78059,1,8,0:0:0:0:
208,192,78138,1,8,0:0:0:0:
304,192,78217,1,0,0:0:0:0:
208,192,78296,1,8,0:0:0:0:
304,192,78375,1,0,0:0:0:0:
304,192,78454,1,0,0:0:0:0:
208,192,78612,1,8,0:0:0:0:
304,192,78691,1,0,0:0:0:0:
208,192,78770,1,8,0:0:0:0:
208,192,78849,1,8,0:0:0:0:
304,192,78928,1,0,0:0:0:0:
208,192,79085,1,8,0:0:0:0:
304,192,79243,1,0,0:0:0:0:
304,192,79401,1,0,0:0:0:0:
304,192,79480,1,0,0:0:0:0:
304,192,79559,1,0,0:0:0:0:
304,192,79638,1,0,0:0:0:0:
208,192,79717,1,8,0:0:0:0:
304,192,79875,1,0,0:0:0:0:
208,192,80033,1,8,0:0:0:0:
208,192,80112,1,8,0:0:0:0:
304,192,80191,1,0,0:0:0:0:
208,192,80349,1,8,0:0:0:0:
208,192,80428,1,8,0:0:0:0:
304,192,80506,1,0,0:0:0:0:
208,192,80585,1,8,0:0:0:0:
304,192,80664,1,0,0:0:0:0:
304,192,80743,1,0,0:0:0:0:
208,192,80822,1,8,0:0:0:0:
208,192,80901,1,8,0:0:0:0:
304,192,80980,1,0,0:0:0:0:
304,192,81138,1,0,0:0:0:0:
208,192,81296,1,8,0:0:0:0:
208,192,81335,1,8,0:0:0:0:
304,192,81454,1,0,0:0:0:0:
304,192,81493,1,0,0:0:0:0:
208,192,81612,1,8,0:0:0:0:
208,192,81651,1,8,0:0:0:0:
384,192,81770,5,4,0:0:0:0:
303,191,81928,1,0,0:0:0:0:
208,192,82085,1,8,0:0:0:0:
303,191,82243,1,0,0:0:0:0:
303,191,82322,1,0,0:0:0:0:
303,191,82401,1,0,0:0:0:0:
208,192,82559,1,8,0:0:0:0:
208,192,82717,1,8,0:0:0:0:
208,192,82796,1,8,0:0:0:0:
208,192,82875,1,8,0:0:0:0:
208,192,82954,1,8,0:0:0:0:
303,191,83033,1,0,0:0:0:0:
208,192,83191,1,8,0:0:0:0:
208,192,83270,1,8,0:0:0:0:
303,191,83349,1,0,0:0:0:0:
303,191,83506,1,0,0:0:0:0:
208,192,83664,1,8,0:0:0:0:
208,192,83822,1,8,0:0:0:0:
303,191,83980,1,0,0:0:0:0:
208,192,84059,1,8,0:0:0:0:
208,192,84138,1,8,0:0:0:0:
208,192,84217,1,8,0:0:0:0:
303,191,84296,1,0,0:0:0:0:
303,191,84454,1,0,0:0:0:0:
208,192,84612,1,8,0:0:0:0:
303,191,84770,1,0,0:0:0:0:
303,191,84849,1,0,0:0:0:0:
303,191,84927,1,0,0:0:0:0:
208,192,85085,1,8,0:0:0:0:
208,192,85243,1,8,0:0:0:0:
208,192,85322,1,8,0:0:0:0:
208,192,85401,1,8,0:0:0:0:
208,192,85480,1,8,0:0:0:0:
303,191,85559,1,0,0:0:0:0:
303,191,85717,1,0,0:0:0:0:
303,191,85796,1,0,0:0:0:0:
303,191,85875,1,0,0:0:0:0:
208,192,86033,1,8,0:0:0:0:
208,192,86191,1,8,0:0:0:0:
303,191,86349,1,0,0:0:0:0:
303,191,86506,1,0,0:0:0:0:
208,192,86585,1,8,0:0:0:0:
303,191,86664,1,0,0:0:0:0:
128,192,86822,5,12,0:0:0:0:
303,191,86901,1,0,0:0:0:0:
303,191,86980,1,0,0:0:0:0:
208,192,87138,1,8,0:0:0:0:
303,191,87217,1,0,0:0:0:0:
303,191,87296,1,0,0:0:0:0:
208,192,87454,1,8,0:0:0:0:
303,191,87533,1,0,0:0:0:0:
303,191,87612,1,0,0:0:0:0:
208,192,87770,1,8,0:0:0:0:
303,191,87849,1,0,0:0:0:0:
303,191,87928,1,0,0:0:0:0:
128,192,88085,5,12,0:0:0:0:
303,191,88164,1,0,0:0:0:0:
303,191,88243,1,0,0:0:0:0:
303,191,88401,1,0,0:0:0:0:
208,192,88480,1,8,0:0:0:0:
208,192,88559,1,8,0:0:0:0:
303,191,88717,1,0,0:0:0:0:
303,191,88796,1,0,0:0:0:0:
208,192,88875,1,8,0:0:0:0:
303,191,89033,1,0,0:0:0:0:
303,191,89112,1,0,0:0:0:0:
208,192,89191,1,8,0:0:0:0:
208,192,89270,1,8,0:0:0:0:
303,191,89349,1,0,0:0:0:0:
208,192,89427,1,8,0:0:0:0:
208,192,89506,1,8,0:0:0:0:
303,191,89664,1,0,0:0:0:0:
208,192,89742,1,8,0:0:0:0:
208,192,89821,1,8,0:0:0:0:
303,191,89980,1,0,0:0:0:0:
208,192,90059,1,8,0:0:0:0:
208,192,90138,1,8,0:0:0:0:
208,192,90217,1,8,0:0:0:0:
303,191,90296,1,0,0:0:0:0:
303,191,90375,1,0,0:0:0:0:
208,192,90454,1,8,0:0:0:0:
208,192,90533,1,8,0:0:0:0:
208,192,90612,1,8,0:0:0:0:
303,191,90770,1,0,0:0:0:0:
303,191,90849,1,0,0:0:0:0:
208,192,90927,1,8,0:0:0:0:
303,191,91085,1,0,0:0:0:0:
208,192,91243,1,8,0:0:0:0:
304,192,91322,1,0,0:0:0:0:
208,192,91401,1,8,0:0:0:0:
208,192,91559,1,8,0:0:0:0:
304,192,91638,1,0,0:0:0:0:
304,192,91717,1,0,0:0:0:0:
304,192,91796,1,0,0:0:0:0:
384,192,91875,5,4,0:0:0:0:
384,192,92191,5,4,0:0:0:0:
304,192,92349,1,0,0:0:0:0:
304,192,92428,1,0,0:0:0:0:
208,192,92506,1,8,0:0:0:0:
304,192,92664,1,0,0:0:0:0:
208,192,92822,1,8,0:0:0:0:
304,192,92901,1,0,0:0:0:0:
208,192,92980,1,8,0:0:0:0:
304,192,93138,1,0,0:0:0:0:
304,192,93217,1,0,0:0:0:0:
208,192,93296,1,8,0:0:0:0:
304,192,93375,1,0,0:0:0:0:
304,192,93454,1,0,0:0:0:0:
304,192,93533,1,0,0:0:0:0:
208,192,93612,1,8,0:0:0:0:
304,192,93770,1,0,0:0:0:0:
208,192,93928,1,8,0:0:0:0:
304,192,94006,1,0,0:0:0:0:
208,192,94085,1,8,0:0:0:0:
208,192,94164,1,8,0:0:0:0:
304,192,94243,1,0,0:0:0:0:
304,192,94401,1,0,0:0:0:0:
304,192,94441,1,0,0:0:0:0:
304,192,94559,1,0,0:0:0:0:
208,192,94717,1,8,0:0:0:0:
304,192,94796,1,0,0:0:0:0:
304,192,94875,1,0,0:0:0:0:
208,192,95033,1,8,0:0:0:0:
304,192,95112,1,0,0:0:0:0:
304,192,95191,1,0,0:0:0:0:
304,192,95349,1,0,0:0:0:0:
208,192,95428,1,8,0:0:0:0:
208,192,95506,1,8,0:0:0:0:
304,192,95585,1,0,0:0:0:0:
304,192,95664,1,0,0:0:0:0:
208,192,95822,1,8,0:0:0:0:
304,192,95980,1,0,0:0:0:0:
304,192,96059,1,0,0:0:0:0:
208,192,96138,1,8,0:0:0:0:
304,192,96296,1,0,0:0:0:0:
208,192,96454,1,8,0:0:0:0:
208,192,96533,1,8,0:0:0:0:
304,192,96612,1,0,0:0:0:0:
304,192,96691,1,0,0:0:0:0:
208,192,96770,1,8,0:0:0:0:
208,192,96928,1,8,0:0:0:0:
208,192,96967,1,8,0:0:0:0:
304,192,97085,1,0,0:0:0:0:
128,192,97243,1,12,0:0:0:0:
304,192,97401,1,0,0:0:0:0:
304,192,97480,1,0,0:0:0:0:
208,192,97559,1,8,0:0:0:0:
208,192,97638,1,8,0:0:0:0:
304,192,97717,1,0,0:0:0:0:
208,192,97875,1,8,0:0:0:0:
304,192,97954,1,0,0:0:0:0:
208,192,98033,1,8,0:0:0:0:
304,192,98191,1,0,0:0:0:0:
304,192,98270,1,0,0:0:0:0:
208,192,98349,1,8,0:0:0:0:
208,192,98428,1,8,0:0:0:0:
304,192,98506,1,0,0:0:0:0:
304,192,98585,1,0,0:0:0:0:
208,192,98664,1,8,0:0:0:0:
304,192,98822,1,0,0:0:0:0:
208,192,98980,1,8,0:0:0:0:
304,192,99059,1,0,0:0:0:0:
208,192,99138,1,8,0:0:0:0:
208,192,99217,1,8,0:0:0:0:
304,192,99296,1,0,0:0:0:0:
208,192,99454,1,8,0:0:0:0:
208,192,99493,1,8,0:0:0:0:
304,192,99612,1,0,0:0:0:0:
304,192,99651,1,0,0:0:0:0:
208,192,99770,1,8,0:0:0:0:
304,192,99849,1,0,0:0:0:0:
304,192,99928,1,0,0:0:0:0:
304,192,100006,1,0,0:0:0:0:
208,192,100085,1,8,0:0:0:0:
304,192,100243,1,0,0:0:0:0:
304,192,100322,1,0,0:0:0:0:
208,192,100401,1,8,0:0:0:0:
304,192,100480,1,0,0:0:0:0:
208,192,100559,1,8,0:0:0:0:
304,192,100717,1,0,0:0:0:0:
304,192,100796,1,0,0:0:0:0:
208,192,100875,1,8,0:0:0:0:
208,192,100954,1,8,0:0:0:0:
304,192,101033,1,0,0:0:0:0:
304,192,101112,1,0,0:0:0:0:
208,192,101191,1,8,0:0:0:0:
208,192,101270,1,8,0:0:0:0:
304,192,101349,1,0,0:0:0:0:
304,192,101506,1,0,0:0:0:0:
208,192,101664,1,8,0:0:0:0:
304,192,101743,1,0,0:0:0:0:
208,192,101822,1,8,0:0:0:0:
384,192,101980,5,4,0:0:0:0:
304,192,102138,1,0,0:0:0:0:
128,192,102296,5,12,0:0:0:0:
303,191,102454,1,0,0:0:0:0:
303,191,102533,1,0,0:0:0:0:
303,191,102612,1,0,0:0:0:0:
208,192,102770,1,8,0:0:0:0:
208,192,102928,1,8,0:0:0:0:
208,192,103007,1,8,0:0:0:0:
208,192,103086,1,8,0:0:0:0:
208,192,103165,1,8,0:0:0:0:
303,191,103244,1,0,0:0:0:0:
208,192,103402,1,8,0:0:0:0:
208,192,103481,1,8,0:0:0:0:
303,191,103560,1,0,0:0:0:0:
303,191,103717,1,0,0:0:0:0:
208,192,103875,1,8,0:0:0:0:
208,192,104033,1,8,0:0:0:0:
303,191,104191,1,0,0:0:0:0:
208,192,104270,1,8,0:0:0:0:
208,192,104349,1,8,0:0:0:0:
208,192,104428,1,8,0:0:0:0:
303,191,104507,1,0,0:0:0:0:
303,191,104665,1,0,0:0:0:0:
208,192,104823,1,8,0:0:0:0:
303,191,104981,1,0,0:0:0:0:
303,191,105060,1,0,0:0:0:0:
303,191,105138,1,0,0:0:0:0:
208,192,105296,1,8,0:0:0:0:
208,192,105454,1,8,0:0:0:0:
208,192,105533,1,8,0:0:0:0:
208,192,105612,1,8,0:0:0:0:
208,192,105691,1,8,0:0:0:0:
303,191,105770,1,0,0:0:0:0:
303,191,105928,1,0,0:0:0:0:
303,191,106007,1,0,0:0:0:0:
303,191,106086,1,0,0:0:0:0:
208,192,106244,1,8,0:0:0:0:
208,192,106402,1,8,0:0:0:0:
303,191,106560,1,0,0:0:0:0:
303,191,106717,1,0,0:0:0:0:
208,192,106796,1,8,0:0:0:0:
303,191,106875,1,0,0:0:0:0:
128,192,107033,5,12,0:0:0:0:
303,191,107112,1,0,0:0:0:0:
303,191,107191,1,0,0:0:0:0:
208,192,107349,1,8,0:0:0:0:
303,191,107428,1,0,0:0:0:0:
303,191,107507,1,0,0:0:0:0:
208,192,107665,1,8,0:0:0:0:
303,191,107744,1,0,0:0:0:0:
303,191,107823,1,0,0:0:0:0:
208,192,107981,1,8,0:0:0:0:
303,191,108060,1,0,0:0:0:0:
303,191,108139,1,0,0:0:0:0:
128,192,108296,5,12,0:0:0:0:
303,191,108375,1,0,0:0:0:0:
303,191,108454,1,0,0:0:0:0:
303,191,108612,1,0,0:0:0:0:
208,192,108691,1,8,0:0:0:0:
208,192,108770,1,8,0:0:0:0:
303,191,108928,1,0,0:0:0:0:
303,191,109007,1,0,0:0:0:0:
208,192,109086,1,8,0:0:0:0:
303,191,109244,1,0,0:0:0:0:
303,191,109323,1,0,0:0:0:0:
208,192,109402,1,8,0:0:0:0:
208,192,109481,1,8,0:0:0:0:
303,191,109560,1,0,0:0:0:0:
208,192,109638,1,8,0:0:0:0:
208,192,109717,1,8,0:0:0:0:
303,191,109875,1,0,0:0:0:0:
208,192,109953,1,8,0:0:0:0:
208,192,110032,1,8,0:0:0:0:
303,191,110191,1,0,0:0:0:0:
208,192,110270,1,8,0:0:0:0:
208,192,110349,1,8,0:0:0:0:
208,192,110428,1,8,0:0:0:0:
303,191,110507,1,0,0:0:0:0:
303,191,110586,1,0,0:0:0:0:
208,192,110665,1,8,0:0:0:0:
208,192,110744,1,8,0:0:0:0:
208,192,110823,1,8,0:0:0:0:
208,192,110980,1,8,0:0:0:0:
208,192,111020,1,8,0:0:0:0:
303,191,111138,1,0,0:0:0:0:
208,192,111296,1,8,0:0:0:0:
303,191,111454,1,0,0:0:0:0:
303,191,111494,1,0,0:0:0:0:
208,192,111612,1,8,0:0:0:0:
303,191,111770,1,0,0:0:0:0:
208,192,111928,1,8,0:0:0:0:
303,191,112006,1,0,0:0:0:0:
384,192,112085,1,4,0:0:0:0:
