osu file format v14

[General]
AudioFilename: audio.mp3
AudioLeadIn: 0
PreviewTime: 71585
Countdown: 0
SampleSet: None
StackLeniency: 0.7
Mode: 1
LetterboxInBreaks: 0
WidescreenStoryboard: 0

[Editor]
Bookmarks: 50191
DistanceSpacing: 1.1
BeatDivisor: 4
GridSize: 32
TimelineZoom: 2.05

[Metadata]
Title:Grayed Out -Antifront-
TitleUnicode:Grayed Out -Antifront-
Artist:Getty vs. DJ DiA
ArtistUnicode:Getty vs. DJ DiA
Creator:eeezzzeee
Version:Inner Oni
Source:BMS
Tags:eze
BeatmapID:1960488
BeatmapSetID:938541

[Difficulty]
HPDrainRate:6
CircleSize:4
OverallDifficulty:6
ApproachRate:9
SliderMultiplier:1.4
SliderTickRate:1

[Events]
//Background and Video events
//Break Periods
//Storyboard Layer 0 (Background)
//Storyboard Layer 1 (Fail)
//Storyboard Layer 2 (Pass)
//Storyboard Layer 3 (Foreground)
//Storyboard Sound Samples

[TimingPoints]
928,315.789473684211,4,1,0,80,1,0
928,-125,4,1,0,80,0,0
9928,-121.951219512195,4,1,0,80,0,0
10085,-117.647058823529,4,1,0,80,0,0
10243,-113.636363636364,4,1,0,80,0,0
10322,-112.359550561798,4,1,0,80,0,0
10401,-111.111111111111,4,1,0,80,0,0
10480,-109.89010989011,4,1,0,80,0,0
10559,-108.695652173913,4,1,0,80,0,0
10717,-105.263157894737,4,1,0,80,0,0
10875,-102.040816326531,4,1,0,80,0,0
11033,-100,4,1,0,80,0,0
16401,-98.0392156862745,4,1,0,80,0,0
16559,-96.1538461538461,4,1,0,80,0,0
16717,-94.3396226415094,4,1,0,80,0,0
16875,-92.5925925925926,4,1,0,80,0,0
17033,-90.9090909090909,4,1,0,80,0,0
17191,-89.2857142857143,4,1,0,80,0,0
17349,-87.719298245614,4,1,0,80,0,0
17506,-86.2068965517241,4,1,0,80,0,0
17664,-84.7457627118644,4,1,0,80,0,0
17822,-83.3333333333333,4,1,0,80,0,0
17980,-81.9672131147541,4,1,0,80,0,0
18138,-80.6451612903226,4,1,0,80,0,0
18296,-79.3650793650794,4,1,0,80,0,0
18454,-78.125,4,1,0,80,0,0
18612,-76.9230769230769,4,1,0,80,0,0
20664,-125,4,1,0,80,0,0
21138,-100,4,1,0,80,0,0
26191,-90.9090909090909,4,1,0,80,0,0
26664,-83.3333333333333,4,1,0,80,0,0
27138,-76.9230769230769,4,1,0,80,0,0
27454,-71.4285714285714,4,1,0,80,0,0
28875,-83.3333333333333,4,1,0,80,0,0
28954,-86.9565217391304,4,1,0,80,0,0
29033,-90.9090909090909,4,1,0,80,0,0
29191,-100,4,1,0,80,0,0
29980,-55.5555555555556,4,1,0,80,0,0
30612,-100,4,1,0,80,0,0
31243,-142.857142857143,4,1,0,80,0,0
31559,-100,4,1,0,80,0,0
36296,-142.857142857143,4,1,0,80,0,0
36612,-100,4,1,0,80,0,0
41349,-86.9565217391304,4,1,0,80,0,0
41506,-76.9230769230769,4,1,0,80,0,0
41664,-55.5555555555556,4,1,0,80,0,1
41822,-111.111111111111,4,1,0,80,0,1
41901,-108.695652173913,4,1,0,80,0,1
41980,-105.263157894737,4,1,0,80,0,1
42059,-102.040816326531,4,1,0,80,0,1
42138,-100,4,1,0,80,0,1
43717,-100,4,1,0,80,0,0
43875,-86.9565217391304,4,1,0,80,0,0
44033,-76.9230769230769,4,1,0,80,0,0
44191,-55.5555555555556,4,1,0,80,0,1
44349,-111.111111111111,4,1,0,80,0,1
44428,-108.695652173913,4,1,0,80,0,1
44506,-105.263157894737,4,1,0,80,0,1
44585,-102.040816326531,4,1,0,80,0,1
44664,-100,4,1,0,80,0,1
46085,-100,4,1,0,80,0,0
46401,-100,4,1,0,80,0,1
51454,-111.111111111111,4,1,0,80,0,0
52085,-117.647058823529,4,1,0,50,0,0
52717,-125,4,1,0,50,0,0
56506,-125,4,1,0,80,0,0
57138,-125,4,1,0,50,0,0
61559,-117.647058823529,4,1,0,50,0,0
62822,-111.111111111111,4,1,0,60,0,0
64085,-105.263157894737,4,1,0,70,0,0
65349,-100,4,1,0,80,0,0
66612,-90.9090909090909,4,1,0,80,0,0
67085,-83.3333333333333,4,1,0,80,0,0
67559,-76.9230769230769,4,1,0,80,0,0
67875,-71.4285714285714,4,1,0,80,0,0
68349,-66.6666666666667,4,1,0,80,0,0
68822,-55.5555555555556,4,1,0,80,0,0
68980,-50,4,1,0,80,0,0
69138,-58.8235294117647,4,1,0,50,0,0
69296,-76.9230769230769,4,1,0,50,0,0
69454,-100,4,1,0,50,0,0
69612,-125,4,1,0,50,0,0
69770,-142.857142857143,4,1,0,50,0,0
69928,-153.846153846154,4,1,0,50,0,0
70085,-161.290322580645,4,1,0,50,0,0
70243,-166.666666666667,4,1,0,50,0,0
70401,-55.5555555555556,4,1,0,80,0,0
71033,-100,4,1,0,80,0,0
71664,-90.9090909090909,4,1,0,80,0,1
81770,-80,4,1,0,80,0,0
81928,-71.4285714285714,4,1,0,80,0,0
82085,-52.6315789473684,4,1,0,80,0,1
82243,-111.111111111111,4,1,0,80,0,1
82322,-105.263157894737,4,1,0,80,0,1
82401,-100,4,1,0,80,0,1
82480,-95.2380952380952,4,1,0,80,0,1
82559,-90.9090909090909,4,1,0,80,0,1
84296,-80,4,1,0,80,0,0
84454,-71.4285714285714,4,1,0,80,0,0
84612,-52.6315789473684,4,1,0,80,0,1
84770,-111.111111111111,4,1,0,80,0,1
84849,-105.263157894737,4,1,0,80,0,1
84928,-100,4,1,0,80,0,1
85006,-95.2380952380952,4,1,0,80,0,1
85085,-90.9090909090909,4,1,0,80,0,1
91875,-100,4,1,0,80,0,1
92191,-100,4,1,0,80,0,0
101980,-86.9565217391304,4,1,0,80,0,0
102138,-76.9230769230769,4,1,0,80,0,0
102296,-55.5555555555556,4,1,0,80,0,1
102454,-111.111111111111,4,1,0,80,0,1
102533,-108.695652173913,4,1,0,80,0,1
102612,-105.263157894737,4,1,0,80,0,1
102691,-102.040816326531,4,1,0,80,0,1
102770,-100,4,1,0,80,0,1
104112,-101.010101010101,4,1,0,80,0,1
104191,-102.040816326531,4,1,0,80,0,1
104270,-103.092783505155,4,1,0,80,0,1
104349,-104.166666666667,4,1,0,80,0,1
104428,-105.263157894737,4,1,0,80,0,1
104506,-86.9565217391304,4,1,0,80,0,0
104664,-76.9230769230769,4,1,0,80,0,0
104822,-55.5555555555556,4,1,0,80,0,1
104980,-111.111111111111,4,1,0,80,0,1
105059,-108.695652173913,4,1,0,80,0,1
105138,-105.263157894737,4,1,0,80,0,1
105217,-102.040816326531,4,1,0,80,0,1
105296,-100,4,1,0,80,0,1
106717,-100,4,1,0,80,0,0
107033,-100,4,1,0,80,0,1
110822,-100,4,1,0,80,0,0

[HitObjects]
256,192,928,5,4,0:0:0:0:
256,192,3138,1,0,0:0:0:0:
256,192,3454,1,8,0:0:0:0:
256,192,4717,1,8,0:0:0:0:
256,192,5349,1,8,0:0:0:0:
256,192,5664,1,0,0:0:0:0:
256,192,5980,1,4,0:0:0:0:
256,192,8191,1,0,0:0:0:0:
256,192,8506,1,8,0:0:0:0:
256,192,9770,1,0,0:0:0:0:
256,192,9928,1,8,0:0:0:0:
256,192,10085,1,8,0:0:0:0:
256,192,10243,1,0,0:0:0:0:
256,192,10322,1,8,0:0:0:0:
256,192,10401,1,0,0:0:0:0:
256,192,10480,1,0,0:0:0:0:
256,192,10559,1,8,0:0:0:0:
256,192,10717,1,8,0:0:0:0:
256,192,10875,1,8,0:0:0:0:
256,192,11033,1,4,0:0:0:0:
256,192,11191,1,0,0:0:0:0:
256,192,11270,1,0,0:0:0:0:
256,192,11349,1,0,0:0:0:0:
256,192,11506,1,8,0:0:0:0:
256,192,11664,1,0,0:0:0:0:
256,192,11822,1,8,0:0:0:0:
256,192,11901,1,8,0:0:0:0:
256,192,11980,1,8,0:0:0:0:
256,192,12138,1,0,0:0:0:0:
256,192,12296,1,8,0:0:0:0:
256,192,12375,1,8,0:0:0:0:
256,192,12454,1,0,0:0:0:0:
256,192,12533,1,0,0:0:0:0:
256,192,12612,1,8,0:0:0:0:
256,192,12691,1,0,0:0:0:0:
256,192,12770,1,8,0:0:0:0:
256,192,13085,1,8,0:0:0:0:
256,192,13243,1,0,0:0:0:0:
256,192,13401,1,0,0:0:0:0:
256,192,13559,1,8,0:0:0:0:
256,192,13717,1,0,0:0:0:0:
256,192,13796,1,0,0:0:0:0:
256,192,13875,1,0,0:0:0:0:
256,192,14033,1,8,0:0:0:0:
256,192,14191,1,0,0:0:0:0:
256,192,14349,1,8,0:0:0:0:
256,192,14428,1,8,0:0:0:0:
256,192,14506,1,8,0:0:0:0:
256,192,14664,1,8,0:0:0:0:
256,192,14822,1,0,0:0:0:0:
256,192,14901,1,0,0:0:0:0:
256,192,14980,1,8,0:0:0:0:
256,192,15059,1,8,0:0:0:0:
256,192,15138,1,8,0:0:0:0:
256,192,15217,1,0,0:0:0:0:
256,192,15296,1,8,0:0:0:0:
256,192,15612,1,8,0:0:0:0:
256,192,15770,1,0,0:0:0:0:
256,192,15928,1,8,0:0:0:0:
256,192,16085,1,4,0:0:0:0:
256,192,16243,1,0,0:0:0:0:
256,192,16401,1,0,0:0:0:0:
256,192,16559,1,8,0:0:0:0:
256,192,16717,1,0,0:0:0:0:
256,192,16875,1,8,0:0:0:0:
256,192,17033,1,0,0:0:0:0:
256,192,17191,1,8,0:0:0:0:
256,192,17349,1,4,0:0:0:0:
256,192,17506,1,0,0:0:0:0:
256,192,17664,1,0,0:0:0:0:
256,192,17822,1,8,0:0:0:0:
256,192,17980,1,0,0:0:0:0:
256,192,18138,1,8,0:0:0:0:
256,192,18296,1,8,0:0:0:0:
256,192,18454,1,0,0:0:0:0:
256,192,18612,1,8,0:0:0:0:
256,192,18691,1,8,0:0:0:0:
256,192,18770,1,0,0:0:0:0:
256,192,18849,1,0,0:0:0:0:
256,192,18928,1,0,0:0:0:0:
256,192,19006,1,0,0:0:0:0:
256,192,19085,1,8,0:0:0:0:
256,192,19164,1,0,0:0:0:0:
256,192,19243,1,0,0:0:0:0:
256,192,19322,1,0,0:0:0:0:
256,192,19401,1,8,0:0:0:0:
256,192,19480,1,8,0:0:0:0:
256,192,19559,1,0,0:0:0:0:
256,192,19638,1,8,0:0:0:0:
256,192,19717,1,8,0:0:0:0:
256,192,19796,1,0,0:0:0:0:
96,160,19875,2,0,L|384:128,1,272.999987503052
160,224,20664,1,8,0:0:0:0:
160,224,20822,1,8,0:0:0:0:
160,224,20901,1,8,0:0:0:0:
160,224,20980,1,8,0:0:0:0:
256,192,21138,1,4,0:0:0:0:
256,224,21296,1,0,0:0:0:0:
256,192,21375,1,0,0:0:0:0:
256,224,21454,1,8,0:0:0:0:
256,192,21612,1,8,0:0:0:0:
256,192,21770,1,0,0:0:0:0:
256,192,21928,1,8,0:0:0:0:
256,192,22006,1,8,0:0:0:0:
256,192,22085,1,0,0:0:0:0:
256,192,22243,1,8,0:0:0:0:
256,192,22401,1,4,0:0:0:0:
256,192,22559,1,0,0:0:0:0:
256,192,22638,1,0,0:0:0:0:
256,192,22717,1,8,0:0:0:0:
256,192,22796,1,0,0:0:0:0:
256,192,22875,1,8,0:0:0:0:
256,192,23033,1,0,0:0:0:0:
256,192,23191,1,8,0:0:0:0:
256,192,23349,1,0,0:0:0:0:
256,192,23506,1,8,0:0:0:0:
256,192,23664,1,4,0:0:0:0:
256,192,23822,1,0,0:0:0:0:
256,192,23901,1,0,0:0:0:0:
256,192,23980,1,8,0:0:0:0:
256,192,24138,1,8,0:0:0:0:
256,192,24296,1,0,0:0:0:0:
256,192,24454,1,8,0:0:0:0:
256,192,24533,1,8,0:0:0:0:
256,192,24612,1,0,0:0:0:0:
256,192,24770,1,8,0:0:0:0:
256,192,24928,1,4,0:0:0:0:
256,192,25085,1,0,0:0:0:0:
256,192,25164,1,0,0:0:0:0:
256,192,25243,1,8,0:0:0:0:
250,195,25322,1,0,0:0:0:0:
256,192,25401,1,8,0:0:0:0:
256,192,25559,1,0,0:0:0:0:
256,192,25717,1,8,0:0:0:0:
256,192,25875,1,4,0:0:0:0:
256,192,26191,1,12,0:0:0:0:
256,192,26349,1,0,0:0:0:0:
256,192,26428,1,8,0:0:0:0:
256,192,26506,1,0,0:0:0:0:
256,192,26664,1,12,0:0:0:0:
256,192,26822,1,8,0:0:0:0:
256,192,26901,1,0,0:0:0:0:
256,192,26980,1,8,0:0:0:0:
256,192,27138,1,12,0:0:0:0:
256,192,27296,1,0,0:0:0:0:
256,192,27454,1,12,0:0:0:0:
256,192,27612,1,0,0:0:0:0:
256,192,27691,1,8,0:0:0:0:
256,192,27770,1,0,0:0:0:0:
256,192,27849,1,0,0:0:0:0:
256,192,27928,1,8,0:0:0:0:
256,192,28006,1,0,0:0:0:0:
256,192,28085,1,8,0:0:0:0:
256,192,28164,1,8,0:0:0:0:
256,192,28243,1,0,0:0:0:0:
256,192,28322,1,0,0:0:0:0:
256,192,28401,1,8,0:0:0:0:
256,192,28480,1,8,0:0:0:0:
256,192,28559,1,8,0:0:0:0:
256,192,28638,1,8,0:0:0:0:
256,192,28717,1,0,0:0:0:0:
256,192,28875,1,0,0:0:0:0:
256,192,28954,1,0,0:0:0:0:
256,192,29033,1,8,0:0:0:0:
256,192,29191,1,8,0:0:0:0:
256,192,29270,1,0,0:0:0:0:
256,192,29349,1,0,0:0:0:0:
256,192,29428,1,8,0:0:0:0:
256,192,29506,1,0,0:0:0:0:
256,192,29585,1,0,0:0:0:0:
256,192,29664,1,8,0:0:0:0:
256,192,29822,1,0,0:0:0:0:
256,192,29980,1,12,0:0:0:0:
256,192,30217,1,12,0:0:0:0:
256,192,30454,1,12,0:0:0:0:
256,192,30612,1,8,0:0:0:0:
256,192,30691,1,8,0:0:0:0:
256,192,30770,1,0,0:0:0:0:
256,192,30849,1,0,0:0:0:0:
256,192,30928,1,8,0:0:0:0:
256,192,31243,1,0,0:0:0:0:
256,192,31559,1,12,0:0:0:0:
256,192,31875,1,12,0:0:0:0:
256,192,32191,1,8,0:0:0:0:
256,192,32349,1,8,0:0:0:0:
256,192,32428,1,8,0:0:0:0:
256,192,32506,1,0,0:0:0:0:
256,192,32664,1,0,0:0:0:0:
256,192,32822,1,8,0:0:0:0:
256,192,32980,1,8,0:0:0:0:
256,192,33138,1,0,0:0:0:0:
256,192,33217,1,8,0:0:0:0:
256,192,33296,1,8,0:0:0:0:
256,192,33375,1,8,0:0:0:0:
256,192,33454,1,0,0:0:0:0:
256,192,33533,1,0,0:0:0:0:
256,192,33612,1,8,0:0:0:0:
256,192,33928,1,8,0:0:0:0:
256,192,34085,1,0,0:0:0:0:
256,192,34164,1,8,0:0:0:0:
256,192,34243,1,0,0:0:0:0:
256,192,34401,1,8,0:0:0:0:
256,192,34559,1,8,0:0:0:0:
256,192,34638,1,8,0:0:0:0:
256,192,34717,1,0,0:0:0:0:
256,192,34796,1,0,0:0:0:0:
256,192,34875,1,8,0:0:0:0:
256,192,35033,1,8,0:0:0:0:
256,192,35191,1,0,0:0:0:0:
256,192,35270,1,0,0:0:0:0:
256,192,35349,1,8,0:0:0:0:
256,192,35506,1,0,0:0:0:0:
256,192,35664,1,8,0:0:0:0:
256,192,35743,1,8,0:0:0:0:
256,192,35822,1,0,0:0:0:0:
256,192,35980,1,8,0:0:0:0:
256,192,36296,1,0,0:0:0:0:
256,192,36612,1,8,0:0:0:0:
256,192,36691,1,8,0:0:0:0:
256,192,36770,1,8,0:0:0:0:
256,192,36849,1,0,0:0:0:0:
256,192,36928,1,8,0:0:0:0:
256,192,37085,1,8,0:0:0:0:
256,192,37243,1,8,0:0:0:0:
256,192,37296,1,8,0:0:0:0:
256,192,37349,1,8,0:0:0:0:
256,192,37401,1,8,0:0:0:0:
256,192,37717,1,8,0:0:0:0:
256,192,37875,1,8,0:0:0:0:
256,192,37954,1,0,0:0:0:0:
256,192,38033,1,8,0:0:0:0:
256,192,38112,1,8,0:0:0:0:
256,192,38191,1,8,0:0:0:0:
256,192,38349,1,8,0:0:0:0:
256,192,38506,1,8,0:0:0:0:
256,192,38559,1,8,0:0:0:0:
256,192,38612,1,8,0:0:0:0:
256,192,38664,1,8,0:0:0:0:
256,192,38980,1,8,0:0:0:0:
256,192,39138,1,8,0:0:0:0:
256,192,39217,1,8,0:0:0:0:
256,192,39296,1,8,0:0:0:0:
256,192,39375,1,0,0:0:0:0:
256,192,39454,1,8,0:0:0:0:
256,192,39612,1,8,0:0:0:0:
256,192,39770,1,8,0:0:0:0:
256,192,39822,1,8,0:0:0:0:
256,192,39875,1,8,0:0:0:0:
256,192,39928,1,8,0:0:0:0:
224,192,40085,1,0,0:0:0:0:
256,192,40164,1,0,0:0:0:0:
256,192,40243,1,8,0:0:0:0:
256,192,40401,1,8,0:0:0:0:
256,192,40480,1,0,0:0:0:0:
256,192,40559,1,8,0:0:0:0:
256,192,40638,1,8,0:0:0:0:
256,192,40717,1,0,0:0:0:0:
256,192,40796,1,0,0:0:0:0:
256,192,40875,1,8,0:0:0:0:
256,192,40954,1,0,0:0:0:0:
256,192,41033,1,8,0:0:0:0:
256,192,41085,1,8,0:0:0:0:
256,192,41138,1,8,0:0:0:0:
256,192,41191,1,8,0:0:0:0:
256,192,41349,1,0,0:0:0:0:
256,192,41506,1,0,0:0:0:0:
256,192,41664,1,12,0:0:0:0:
256,192,41822,1,0,0:0:0:0:
256,192,41901,1,8,0:0:0:0:
256,192,41980,1,0,0:0:0:0:
256,192,42059,1,0,0:0:0:0:
256,192,42138,1,8,0:0:0:0:
256,192,42296,1,8,0:0:0:0:
256,192,42454,1,0,0:0:0:0:
256,192,42533,1,8,0:0:0:0:
256,192,42612,1,0,0:0:0:0:
256,192,42770,1,0,0:0:0:0:
256,192,42928,1,8,0:0:0:0:
256,192,43006,1,0,0:0:0:0:
256,192,43085,1,8,0:0:0:0:
256,192,43164,1,8,0:0:0:0:
256,192,43243,1,0,0:0:0:0:
256,192,43401,1,0,0:0:0:0:
256,192,43480,1,0,0:0:0:0:
256,192,43559,1,8,0:0:0:0:
256,192,43612,1,8,0:0:0:0:
256,192,43664,1,8,0:0:0:0:
256,192,43717,1,0,0:0:0:0:
256,192,43875,1,8,0:0:0:0:
256,192,44033,1,8,0:0:0:0:
256,192,44191,1,4,0:0:0:0:
256,192,44349,1,8,0:0:0:0:
256,192,44428,1,0,0:0:0:0:
256,192,44506,1,8,0:0:0:0:
256,192,44585,1,8,0:0:0:0:
256,192,44664,1,0,0:0:0:0:
256,192,44822,1,8,0:0:0:0:
256,192,44980,1,8,0:0:0:0:
256,192,45059,1,0,0:0:0:0:
256,192,45138,1,8,0:0:0:0:
256,192,45296,1,0,0:0:0:0:
256,192,45454,1,0,0:0:0:0:
256,192,45533,1,8,0:0:0:0:
256,192,45612,1,0,0:0:0:0:
256,192,45691,1,0,0:0:0:0:
256,192,45770,1,8,0:0:0:0:
256,192,45849,1,8,0:0:0:0:
256,192,45928,1,8,0:0:0:0:
256,192,46006,1,0,0:0:0:0:
256,192,46085,1,8,0:0:0:0:
256,192,46401,1,8,0:0:0:0:
256,192,46480,1,0,0:0:0:0:
256,192,46559,1,0,0:0:0:0:
256,192,46638,1,0,0:0:0:0:
256,192,46717,1,8,0:0:0:0:
256,192,46796,1,8,0:0:0:0:
256,192,46875,1,0,0:0:0:0:
256,192,46954,1,8,0:0:0:0:
256,192,47033,1,0,0:0:0:0:
256,192,47112,1,0,0:0:0:0:
256,192,47191,1,8,0:0:0:0:
256,192,47270,1,0,0:0:0:0:
256,192,47349,1,8,0:0:0:0:
256,192,47428,1,8,0:0:0:0:
256,192,47506,1,8,0:0:0:0:
256,192,47585,1,0,0:0:0:0:
256,192,47664,1,8,0:0:0:0:
256,192,47743,1,0,0:0:0:0:
256,192,47822,1,0,0:0:0:0:
256,192,47901,1,0,0:0:0:0:
256,192,47980,1,8,0:0:0:0:
256,192,48059,1,8,0:0:0:0:
256,192,48138,1,0,0:0:0:0:
256,192,48217,1,8,0:0:0:0:
256,192,48296,1,0,0:0:0:0:
256,192,48375,1,0,0:0:0:0:
256,192,48454,1,8,0:0:0:0:
256,192,48533,1,0,0:0:0:0:
256,192,48612,1,8,0:0:0:0:
256,192,48691,1,8,0:0:0:0:
256,192,48770,1,8,0:0:0:0:
256,192,48849,1,0,0:0:0:0:
256,192,48928,1,8,0:0:0:0:
256,192,49006,1,8,0:0:0:0:
256,192,49085,1,0,0:0:0:0:
256,192,49164,1,0,0:0:0:0:
256,192,49243,1,8,0:0:0:0:
256,192,49322,1,0,0:0:0:0:
256,192,49401,1,8,0:0:0:0:
256,192,49480,1,0,0:0:0:0:
256,192,49559,1,8,0:0:0:0:
256,192,49638,1,8,0:0:0:0:
256,192,49717,1,0,0:0:0:0:
256,192,49796,1,8,0:0:0:0:
256,192,49875,1,8,0:0:0:0:
256,192,49954,1,0,0:0:0:0:
256,192,50033,1,8,0:0:0:0:
256,192,50112,1,8,0:0:0:0:
256,192,50191,1,0,0:0:0:0:
256,192,50349,1,0,0:0:0:0:
256,192,50428,1,8,0:0:0:0:
256,192,50506,1,0,0:0:0:0:
256,192,50664,1,0,0:0:0:0:
256,192,50822,1,8,0:0:0:0:
256,192,50901,1,0,0:0:0:0:
256,192,50980,1,8,0:0:0:0:
256,192,51059,1,8,0:0:0:0:
256,192,51138,1,0,0:0:0:0:
256,192,51454,1,4,0:0:0:0:
256,192,52085,1,8,0:0:0:0:
256,192,52717,1,0,0:0:0:0:
256,192,53033,1,8,0:0:0:0:
256,192,53191,1,8,0:0:0:0:
256,192,53349,1,0,0:0:0:0:
256,192,53664,1,8,0:0:0:0:
256,192,53980,1,0,0:0:0:0:
256,192,54612,1,8,0:0:0:0:
256,192,55243,1,0,0:0:0:0:
256,192,55559,1,8,0:0:0:0:
256,192,55875,1,8,0:0:0:0:
256,192,56191,1,0,0:0:0:0:
256,192,56506,1,4,0:0:0:0:
256,192,57138,1,8,0:0:0:0:
256,192,57770,1,0,0:0:0:0:
256,192,58085,1,8,0:0:0:0:
256,192,58243,1,8,0:0:0:0:
256,192,58401,1,0,0:0:0:0:
256,192,58717,1,8,0:0:0:0:
256,192,59033,1,0,0:0:0:0:
256,192,59664,1,8,0:0:0:0:
256,192,60296,1,0,0:0:0:0:
256,192,60454,1,8,0:0:0:0:
256,192,60612,1,8,0:0:0:0:
256,192,60770,1,0,0:0:0:0:
256,192,60928,1,0,0:0:0:0:
256,192,61243,1,8,0:0:0:0:
256,192,61559,1,4,0:0:0:0:
256,192,61875,1,0,0:0:0:0:
256,192,62191,1,0,0:0:0:0:
256,192,62506,1,0,0:0:0:0:
256,192,62664,1,8,0:0:0:0:
256,192,62822,1,4,0:0:0:0:
256,192,63138,1,0,0:0:0:0:
256,192,63296,1,8,0:0:0:0:
256,192,63454,1,0,0:0:0:0:
256,192,63612,1,8,0:0:0:0:
256,192,63770,1,8,0:0:0:0:
256,192,63928,1,0,0:0:0:0:
256,192,64085,1,4,0:0:0:0:
256,192,64243,1,8,0:0:0:0:
256,192,64322,1,8,0:0:0:0:
256,192,64401,1,0,0:0:0:0:
256,192,64559,1,8,0:0:0:0:
256,192,64717,1,0,0:0:0:0:
256,192,64875,1,8,0:0:0:0:
256,192,64954,1,8,0:0:0:0:
256,192,65033,1,8,0:0:0:0:
256,192,65191,1,0,0:0:0:0:
256,192,65349,1,4,0:0:0:0:
256,192,65506,1,8,0:0:0:0:
256,192,65585,1,8,0:0:0:0:
256,192,65664,1,0,0:0:0:0:
256,192,65743,1,0,0:0:0:0:
256,192,65822,1,8,0:0:0:0:
256,192,65980,1,0,0:0:0:0:
256,192,66138,1,8,0:0:0:0:
256,192,66296,1,4,0:0:0:0:
256,192,66612,1,12,0:0:0:0:
256,192,66770,1,0,0:0:0:0:
256,192,66849,1,8,0:0:0:0:
256,192,66928,1,0,0:0:0:0:
256,192,67085,1,12,0:0:0:0:
256,192,67243,1,8,0:0:0:0:
256,192,67322,1,0,0:0:0:0:
256,192,67401,1,8,0:0:0:0:
256,192,67559,1,12,0:0:0:0:
256,192,67717,1,0,0:0:0:0:
256,192,67875,1,12,0:0:0:0:
256,192,68033,1,0,0:0:0:0:
256,192,68112,1,0,0:0:0:0:
256,192,68191,1,8,0:0:0:0:
256,192,68349,1,12,0:0:0:0:
256,192,68506,1,8,0:0:0:0:
256,192,68585,1,8,0:0:0:0:
192,96,68664,1,0,0:0:0:0:
256,192,68822,1,12,0:0:0:0:
256,192,68980,1,12,0:0:0:0:
256,192,69138,1,8,0:0:0:0:
256,192,69296,1,8,0:0:0:0:
256,192,69454,1,8,0:0:0:0:
256,192,69612,1,8,0:0:0:0:
256,192,69770,1,8,0:0:0:0:
256,192,69928,1,8,0:0:0:0:
256,192,70085,1,8,0:0:0:0:
256,192,70243,1,8,0:0:0:0:
256,192,70401,1,12,0:0:0:0:
256,192,70638,1,12,0:0:0:0:
256,192,70875,1,12,0:0:0:0:
256,192,71033,1,8,0:0:0:0:
256,192,71112,1,8,0:0:0:0:
256,192,71191,1,0,0:0:0:0:
256,192,71270,1,0,0:0:0:0:
256,192,71349,1,8,0:0:0:0:
256,192,71664,1,4,0:0:0:0:
256,192,71822,1,0,0:0:0:0:
256,192,71901,1,0,0:0:0:0:
256,192,71980,1,0,0:0:0:0:
256,192,72138,1,8,0:0:0:0:
256,192,72296,1,0,0:0:0:0:
256,192,72375,1,0,0:0:0:0:
256,192,72454,1,8,0:0:0:0:
256,192,72533,1,8,0:0:0:0:
256,192,72691,1,8,0:0:0:0:
256,192,72770,1,0,0:0:0:0:
256,192,72928,1,8,0:0:0:0:
256,192,73006,1,0,0:0:0:0:
256,192,73085,1,0,0:0:0:0:
256,192,73164,1,8,0:0:0:0:
256,192,73243,1,8,0:0:0:0:
256,192,73322,1,0,0:0:0:0:
256,192,73401,1,8,0:0:0:0:
256,192,73559,1,0,0:0:0:0:
256,192,73638,1,0,0:0:0:0:
256,192,73717,1,8,0:0:0:0:
256,192,73875,1,8,0:0:0:0:
256,192,74033,1,0,0:0:0:0:
256,192,74191,1,8,0:0:0:0:
256,192,74349,1,0,0:0:0:0:
256,192,74428,1,0,0:0:0:0:
256,192,74506,1,0,0:0:0:0:
256,192,74664,1,8,0:0:0:0:
256,192,74822,1,0,0:0:0:0:
256,192,74901,1,0,0:0:0:0:
256,192,74980,1,8,0:0:0:0:
256,192,75059,1,0,0:0:0:0:
256,192,75217,1,0,0:0:0:0:
256,192,75296,1,8,0:0:0:0:
256,192,75454,1,0,0:0:0:0:
256,192,75533,1,0,0:0:0:0:
256,192,75612,1,0,0:0:0:0:
256,192,75691,1,8,0:0:0:0:
256,192,75770,1,8,0:0:0:0:
256,192,75849,1,0,0:0:0:0:
256,192,75928,1,8,0:0:0:0:
256,192,76085,1,0,0:0:0:0:
256,192,76164,1,0,0:0:0:0:
256,192,76243,1,8,0:0:0:0:
256,192,76401,1,8,0:0:0:0:
256,192,76559,1,8,0:0:0:0:
256,192,76717,1,4,0:0:0:0:
256,192,76875,1,0,0:0:0:0:
256,192,76954,1,0,0:0:0:0:
256,192,77033,1,0,0:0:0:0:
256,192,77191,1,8,0:0:0:0:
256,192,77349,1,0,0:0:0:0:
256,192,77428,1,0,0:0:0:0:
256,192,77506,1,8,0:0:0:0:
256,192,77585,1,8,0:0:0:0:
256,192,77743,1,8,0:0:0:0:
256,192,77822,1,0,0:0:0:0:
256,192,77980,1,8,0:0:0:0:
256,192,78059,1,8,0:0:0:0:
256,192,78138,1,0,0:0:0:0:
256,192,78217,1,0,0:0:0:0:
256,192,78296,1,8,0:0:0:0:
256,192,78375,1,0,0:0:0:0:
256,192,78454,1,8,0:0:0:0:
256,192,78612,1,0,0:0:0:0:
256,192,78691,1,0,0:0:0:0:
256,192,78770,1,8,0:0:0:0:
256,192,78928,1,8,0:0:0:0:
256,192,79085,1,0,0:0:0:0:
256,192,79243,1,8,0:0:0:0:
256,192,79401,1,0,0:0:0:0:
256,192,79480,1,0,0:0:0:0:
256,192,79559,1,0,0:0:0:0:
256,192,79717,1,8,0:0:0:0:
256,192,79875,1,0,0:0:0:0:
256,192,79954,1,0,0:0:0:0:
256,192,80033,1,8,0:0:0:0:
256,192,80112,1,0,0:0:0:0:
256,192,80270,1,0,0:0:0:0:
256,192,80349,1,8,0:0:0:0:
256,192,80506,1,0,0:0:0:0:
256,192,80585,1,0,0:0:0:0:
256,192,80664,1,8,0:0:0:0:
256,192,80743,1,8,0:0:0:0:
256,192,80822,1,8,0:0:0:0:
256,192,80901,1,0,0:0:0:0:
256,192,80980,1,8,0:0:0:0:
256,192,81059,1,8,0:0:0:0:
256,192,81138,1,0,0:0:0:0:
256,192,81217,1,0,0:0:0:0:
256,192,81296,1,8,0:0:0:0:
256,192,81454,1,12,0:0:0:0:
256,192,81612,1,12,0:0:0:0:
256,192,81770,1,0,0:0:0:0:
256,192,81928,1,0,0:0:0:0:
256,192,82085,1,12,0:0:0:0:
256,192,82243,1,0,0:0:0:0:
256,192,82322,1,8,0:0:0:0:
256,192,82401,1,0,0:0:0:0:
256,192,82480,1,0,0:0:0:0:
256,192,82559,1,8,0:0:0:0:
256,192,82717,1,8,0:0:0:0:
256,192,82875,1,0,0:0:0:0:
256,192,82954,1,8,0:0:0:0:
256,192,83033,1,0,0:0:0:0:
256,192,83112,1,0,0:0:0:0:
256,192,83191,1,0,0:0:0:0:
256,192,83270,1,8,0:0:0:0:
256,192,83349,1,8,0:0:0:0:
256,192,83428,1,0,0:0:0:0:
256,192,83506,1,8,0:0:0:0:
256,192,83664,1,0,0:0:0:0:
256,192,83743,1,0,0:0:0:0:
256,192,83822,1,8,0:0:0:0:
256,192,83980,1,8,0:0:0:0:
256,192,84138,1,0,0:0:0:0:
256,192,84296,1,8,0:0:0:0:
256,192,84454,1,8,0:0:0:0:
256,192,84612,1,4,0:0:0:0:
256,192,84770,1,8,0:0:0:0:
256,192,84849,1,0,0:0:0:0:
256,192,84928,1,8,0:0:0:0:
256,192,85006,1,8,0:0:0:0:
256,192,85085,1,0,0:0:0:0:
256,192,85243,1,8,0:0:0:0:
256,192,85401,1,8,0:0:0:0:
256,192,85480,1,0,0:0:0:0:
256,192,85559,1,8,0:0:0:0:
256,192,85638,1,8,0:0:0:0:
256,192,85717,1,0,0:0:0:0:
256,192,85796,1,0,0:0:0:0:
256,192,85875,1,8,0:0:0:0:
256,192,85954,1,0,0:0:0:0:
256,192,86033,1,8,0:0:0:0:
256,192,86191,1,0,0:0:0:0:
256,192,86349,1,0,0:0:0:0:
256,192,86428,1,0,0:0:0:0:
256,192,86506,1,8,0:0:0:0:
256,192,86664,1,8,0:0:0:0:
256,192,86822,1,8,0:0:0:0:
256,192,86901,1,0,0:0:0:0:
256,192,86980,1,0,0:0:0:0:
256,192,87059,1,0,0:0:0:0:
256,192,87138,1,8,0:0:0:0:
256,192,87217,1,0,0:0:0:0:
256,192,87296,1,8,0:0:0:0:
256,192,87375,1,8,0:0:0:0:
256,192,87454,1,0,0:0:0:0:
256,192,87533,1,0,0:0:0:0:
256,192,87612,1,8,0:0:0:0:
256,192,87691,1,8,0:0:0:0:
256,192,87770,1,0,0:0:0:0:
256,192,87849,1,0,0:0:0:0:
256,192,87928,1,8,0:0:0:0:
256,192,88006,1,0,0:0:0:0:
256,192,88085,1,8,0:0:0:0:
256,192,88164,1,8,0:0:0:0:
256,192,88243,1,8,0:0:0:0:
256,192,88322,1,8,0:0:0:0:
256,192,88401,1,0,0:0:0:0:
256,192,88480,1,0,0:0:0:0:
256,192,88559,1,8,0:0:0:0:
256,192,88638,1,0,0:0:0:0:
256,192,88717,1,0,0:0:0:0:
256,192,88796,1,0,0:0:0:0:
256,192,88875,1,8,0:0:0:0:
256,192,88954,1,0,0:0:0:0:
256,192,89033,1,8,0:0:0:0:
256,192,89112,1,0,0:0:0:0:
256,192,89191,1,8,0:0:0:0:
256,192,89270,1,0,0:0:0:0:
256,192,89349,1,8,0:0:0:0:
256,192,89428,1,8,0:0:0:0:
256,192,89506,1,0,0:0:0:0:
256,192,89585,1,0,0:0:0:0:
256,192,89664,1,8,0:0:0:0:
256,192,89743,1,8,0:0:0:0:
256,192,89822,1,0,0:0:0:0:
256,192,89901,1,0,0:0:0:0:
256,192,89980,1,8,0:0:0:0:
256,192,90059,1,0,0:0:0:0:
256,192,90138,1,0,0:0:0:0:
256,192,90217,1,8,0:0:0:0:
256,192,90296,1,0,0:0:0:0:
256,192,90375,1,0,0:0:0:0:
256,192,90454,1,8,0:0:0:0:
256,192,90533,1,0,0:0:0:0:
256,192,90612,1,8,0:0:0:0:
256,192,90770,1,8,0:0:0:0:
256,192,90849,1,0,0:0:0:0:
256,192,90928,1,8,0:0:0:0:
256,192,91085,1,8,0:0:0:0:
256,192,91243,1,0,0:0:0:0:
256,192,91322,1,8,0:0:0:0:
256,192,91401,1,0,0:0:0:0:
256,192,91480,1,0,0:0:0:0:
256,192,91559,1,8,0:0:0:0:
256,192,91875,1,0,0:0:0:0:
256,192,92191,1,12,0:0:0:0:
256,192,92349,1,0,0:0:0:0:
256,192,92506,1,8,0:0:0:0:
256,192,92585,1,0,0:0:0:0:
256,192,92664,1,0,0:0:0:0:
256,192,92822,1,0,0:0:0:0:
256,192,92980,1,8,0:0:0:0:
256,192,93138,1,0,0:0:0:0:
256,192,93217,1,0,0:0:0:0:
256,192,93296,1,8,0:0:0:0:
256,192,93454,1,0,0:0:0:0:
256,192,93612,1,8,0:0:0:0:
256,192,93691,1,0,0:0:0:0:
256,192,93849,1,0,0:0:0:0:
256,192,93928,1,8,0:0:0:0:
256,192,94006,1,0,0:0:0:0:
256,192,94085,1,8,0:0:0:0:
256,192,94164,1,8,0:0:0:0:
256,192,94243,1,0,0:0:0:0:
256,192,94401,1,0,0:0:0:0:
256,192,94717,1,8,0:0:0:0:
256,192,94875,1,0,0:0:0:0:
256,192,94954,1,0,0:0:0:0:
256,192,95033,1,8,0:0:0:0:
256,192,95191,1,0,0:0:0:0:
256,192,95349,1,0,0:0:0:0:
256,192,95506,1,8,0:0:0:0:
256,192,95664,1,0,0:0:0:0:
256,192,95822,1,8,0:0:0:0:
256,192,95901,1,0,0:0:0:0:
256,192,95980,1,8,0:0:0:0:
256,192,96138,1,8,0:0:0:0:
256,192,96296,1,0,0:0:0:0:
256,192,96375,1,0,0:0:0:0:
256,192,96454,1,0,0:0:0:0:
256,192,96612,1,0,0:0:0:0:
256,192,96770,1,8,0:0:0:0:
256,192,96928,1,4,0:0:0:0:
256,192,97243,1,8,0:0:0:0:
256,192,97401,1,0,0:0:0:0:
256,192,97559,1,8,0:0:0:0:
256,192,97638,1,0,0:0:0:0:
256,192,97717,1,0,0:0:0:0:
256,192,97875,1,0,0:0:0:0:
256,192,98033,1,8,0:0:0:0:
256,192,98191,1,0,0:0:0:0:
256,192,98270,1,0,0:0:0:0:
256,192,98349,1,8,0:0:0:0:
256,192,98506,1,0,0:0:0:0:
256,192,98664,1,8,0:0:0:0:
256,192,98743,1,0,0:0:0:0:
256,192,98901,1,0,0:0:0:0:
256,192,98980,1,8,0:0:0:0:
256,192,99059,1,0,0:0:0:0:
256,192,99138,1,8,0:0:0:0:
256,192,99217,1,8,0:0:0:0:
256,192,99296,1,0,0:0:0:0:
256,192,99454,1,0,0:0:0:0:
256,192,99770,1,8,0:0:0:0:
256,192,99928,1,0,0:0:0:0:
256,192,100007,1,0,0:0:0:0:
256,192,100086,1,8,0:0:0:0:
256,192,100243,1,0,0:0:0:0:
256,192,100402,1,0,0:0:0:0:
256,192,100559,1,8,0:0:0:0:
256,192,100717,1,0,0:0:0:0:
256,192,100796,1,0,0:0:0:0:
256,192,100875,1,8,0:0:0:0:
256,192,100954,1,8,0:0:0:0:
256,192,101033,1,8,0:0:0:0:
256,192,101112,1,0,0:0:0:0:
256,192,101191,1,8,0:0:0:0:
256,192,101349,1,0,0:0:0:0:
256,192,101428,1,0,0:0:0:0:
256,192,101506,1,0,0:0:0:0:
256,192,101585,1,0,0:0:0:0:
256,192,101664,1,12,0:0:0:0:
256,192,101822,1,12,0:0:0:0:
256,192,101980,1,0,0:0:0:0:
256,192,102138,1,0,0:0:0:0:
256,192,102296,1,12,0:0:0:0:
256,192,102454,1,0,0:0:0:0:
256,192,102533,1,8,0:0:0:0:
256,192,102612,1,0,0:0:0:0:
256,192,102691,1,0,0:0:0:0:
256,192,102770,1,8,0:0:0:0:
256,192,102928,1,8,0:0:0:0:
256,192,103085,1,0,0:0:0:0:
256,192,103164,1,8,0:0:0:0:
256,192,103243,1,0,0:0:0:0:
256,192,103401,1,0,0:0:0:0:
256,192,103559,1,8,0:0:0:0:
256,192,103717,1,8,0:0:0:0:
256,192,103796,1,8,0:0:0:0:
256,192,103875,1,0,0:0:0:0:
256,192,104033,1,0,0:0:0:0:
256,192,104112,1,8,0:0:0:0:
256,192,104191,1,8,0:0:0:0:
256,192,104270,1,8,0:0:0:0:
256,192,104349,1,0,0:0:0:0:
256,192,104428,1,0,0:0:0:0:
256,192,104506,1,8,0:0:0:0:
256,192,104664,1,8,0:0:0:0:
256,192,104822,1,4,0:0:0:0:
256,192,104980,1,8,0:0:0:0:
256,192,105059,1,0,0:0:0:0:
256,192,105138,1,8,0:0:0:0:
256,192,105217,1,8,0:0:0:0:
256,192,105296,1,0,0:0:0:0:
256,192,105454,1,8,0:0:0:0:
256,192,105612,1,8,0:0:0:0:
256,192,105691,1,0,0:0:0:0:
256,192,105770,1,8,0:0:0:0:
256,192,105928,1,0,0:0:0:0:
256,192,106006,1,0,0:0:0:0:
256,192,106085,1,8,0:0:0:0:
256,192,106164,1,0,0:0:0:0:
256,192,106243,1,8,0:0:0:0:
256,192,106401,1,0,0:0:0:0:
256,192,106559,1,0,0:0:0:0:
256,192,106717,1,12,0:0:0:0:
256,192,107033,1,8,0:0:0:0:
256,192,107112,1,0,0:0:0:0:
256,192,107191,1,0,0:0:0:0:
256,192,107270,1,0,0:0:0:0:
256,192,107349,1,8,0:0:0:0:
256,192,107428,1,8,0:0:0:0:
256,192,107506,1,0,0:0:0:0:
256,192,107585,1,0,0:0:0:0:
256,192,107664,1,8,0:0:0:0:
256,192,107743,1,8,0:0:0:0:
256,192,107822,1,0,0:0:0:0:
256,192,107901,1,8,0:0:0:0:
256,192,107980,1,0,0:0:0:0:
256,192,108059,1,0,0:0:0:0:
256,192,108138,1,8,0:0:0:0:
256,192,108217,1,8,0:0:0:0:
256,192,108296,1,0,0:0:0:0:
256,192,108375,1,0,0:0:0:0:
256,192,108454,1,8,0:0:0:0:
256,192,108533,1,0,0:0:0:0:
256,192,108612,1,8,0:0:0:0:
256,192,108691,1,8,0:0:0:0:
256,192,108770,1,0,0:0:0:0:
256,192,108849,1,8,0:0:0:0:
256,192,108928,1,0,0:0:0:0:
256,192,109006,1,0,0:0:0:0:
256,192,109085,1,8,0:0:0:0:
256,192,109164,1,0,0:0:0:0:
256,192,109243,1,8,0:0:0:0:
256,192,109322,1,8,0:0:0:0:
256,192,109401,1,0,0:0:0:0:
256,192,109480,1,0,0:0:0:0:
256,192,109559,1,8,0:0:0:0:
256,192,109638,1,0,0:0:0:0:
256,192,109717,1,8,0:0:0:0:
256,192,109796,1,0,0:0:0:0:
288,192,109875,1,8,0:0:0:0:
256,192,109954,1,0,0:0:0:0:
256,192,110033,1,8,0:0:0:0:
256,192,110112,1,0,0:0:0:0:
256,192,110191,1,8,0:0:0:0:
256,192,110270,1,8,0:0:0:0:
256,192,110349,1,8,0:0:0:0:
256,192,110428,1,8,0:0:0:0:
256,192,110506,1,0,0:0:0:0:
256,192,110585,1,8,0:0:0:0:
256,192,110664,1,8,0:0:0:0:
256,192,110743,1,8,0:0:0:0:
256,192,110822,1,0,0:0:0:0:
256,192,110980,1,0,0:0:0:0:
256,192,111138,1,8,0:0:0:0:
256,192,111217,1,8,0:0:0:0:
256,192,111296,1,8,0:0:0:0:
256,192,111454,1,0,0:0:0:0:
256,192,111612,1,8,0:0:0:0:
256,192,111691,1,0,0:0:0:0:
256,192,111770,1,8,0:0:0:0:
256,192,111928,1,8,0:0:0:0:
256,192,111980,1,0,0:0:0:0:
