osu file format v14

[General]
AudioFilename: audio.mp3
AudioLeadIn: 0
PreviewTime: 71585
Countdown: 0
SampleSet: Soft
StackLeniency: 0.2
Mode: 0
LetterboxInBreaks: 0
WidescreenStoryboard: 1

[Editor]
Bookmarks: 928,11033,21138,31243,41349,51454,61559,71664,76717,81770,86822,91875,101980,112085
DistanceSpacing: 0.9
BeatDivisor: 4
GridSize: 4
TimelineZoom: 1.9

[Metadata]
Title:Grayed Out -Antifront-
TitleUnicode:Grayed Out -Antifront-
Artist:Getty vs. DJ DiA
ArtistUnicode:Getty vs. DJ DiA
Creator:Realazy
Version:toybot's Another
Source:BMS
Tags:Hakura xLolicore- Jager-kun toybot Ayyri Linada Pachiru Worminators HighTec LCFC LowComboFC わっふゑ vs. でこちんハンマー BOFU2016 - Legendary Again - SUPERALLOYS Pumpcore
BeatmapID:1352602
BeatmapSetID:578755

[Difficulty]
HPDrainRate:5
CircleSize:4
OverallDifficulty:7.5
ApproachRate:9
SliderMultiplier:1.5
SliderTickRate:1

[Events]
//Background and Video events
0,0,"why is this anime.jpg",0,0
//Break Periods
//Storyboard Layer 0 (Background)
//Storyboard Layer 1 (Fail)
//Storyboard Layer 2 (Pass)
//Storyboard Layer 3 (Foreground)
//Storyboard Sound Samples

[TimingPoints]
928,315.789473684211,4,2,1,50,1,0
928,-200,4,2,1,50,0,0
9770,-133.333333333333,4,1,1,60,0,0
11033,-100,4,1,1,65,0,0
16085,-90.9090909090909,4,1,2,65,0,0
16243,-90.9090909090909,4,1,1,65,0,0
18612,-90.9090909090909,4,1,0,65,0,0
19875,-90.9090909090909,4,1,1,60,0,0
20112,-90.9090909090909,4,1,6,60,0,0
20349,-83.3333333333333,4,1,6,60,0,0
20664,-83.3333333333333,4,1,1,55,0,0
20822,-83.3333333333333,4,1,1,50,0,0
20980,-83.3333333333333,4,1,1,45,0,0
21138,-100,4,1,1,65,0,0
22401,-100,4,1,1,70,0,0
23664,-100,4,1,1,75,0,0
24928,-100,4,1,1,80,0,0
25796,-100,4,1,1,5,0,0
25875,-55.5555555555556,4,1,4,55,0,0
26191,-100,4,1,1,75,0,0
28717,-90.9090909090909,4,1,1,55,0,0
29033,-125,4,1,1,50,0,0
29349,-200,4,1,1,45,0,0
29980,-100,4,1,2,70,0,0
30138,-100,4,1,2,5,0,0
30217,-100,4,1,2,70,0,0
30375,-100,4,1,2,5,0,0
30454,-100,4,1,2,70,0,0
30533,-100,4,1,2,5,0,0
30612,-100,4,1,2,70,0,0
30928,-66.6666666666667,4,1,1,40,0,0
31243,-100,4,1,1,70,0,0
35980,-66.6666666666667,4,1,4,50,0,0
36296,-133.333333333333,4,1,1,70,0,0
36612,-100,4,1,1,70,0,0
41033,-66.6666666666667,4,1,4,50,0,0
41349,-133.333333333333,4,1,6,70,0,0
41506,-133.333333333333,4,1,2,70,0,0
41664,-100,4,1,2,70,0,0
46085,-66.6666666666667,4,1,2,70,0,0
50191,-100,4,1,2,60,0,0
50585,-100,4,1,1,5,0,0
50664,-100,4,1,2,60,0,0
50743,-100,4,1,1,5,0,0
50822,-100,4,1,2,60,0,0
50980,-100,4,1,4,60,0,0
51059,-100,4,1,4,5,0,0
51138,-66.6666666666667,4,1,5,60,0,0
51454,-200,4,1,1,35,0,0
60296,-200,4,1,2,40,0,0
60612,-200,4,1,4,40,0,0
60928,-111.111111111111,4,1,1,40,0,0
61559,-111.111111111111,4,1,2,45,0,0
62822,-111.111111111111,4,1,2,50,0,0
64085,-111.111111111111,4,1,2,55,0,0
65349,-111.111111111111,4,1,2,60,0,0
66296,-66.6666666666667,4,1,4,50,0,0
66612,-100,4,1,1,60,0,0
66664,-100,4,1,1,5,0,0
66770,-100,4,1,1,60,0,0
66822,-100,4,1,1,5,0,0
66928,-100,4,1,1,60,0,0
66980,-100,4,1,1,5,0,0
67085,-100,4,1,1,60,0,0
67138,-100,4,1,1,5,0,0
67243,-100,4,1,1,60,0,0
67296,-100,4,1,1,5,0,0
67401,-100,4,1,1,60,0,0
67454,-100,4,1,1,5,0,0
67559,-100,4,1,1,60,0,0
67612,-100,4,1,1,5,0,0
67717,-100,4,1,1,60,0,0
67770,-100,4,1,1,5,0,0
67875,-100,4,1,1,60,0,0
67928,-100,4,1,1,5,0,0
68033,-100,4,1,1,60,0,0
68085,-100,4,1,1,5,0,0
68191,-100,4,1,1,60,0,0
68243,-100,4,1,1,5,0,0
68349,-100,4,1,1,60,0,0
68401,-100,4,1,1,5,0,0
68506,-100,4,1,1,60,0,0
68559,-100,4,1,1,5,0,0
68664,-100,4,1,1,60,0,0
68717,-100,4,1,1,5,0,0
68822,-100,4,1,1,60,0,0
68875,-100,4,1,1,5,0,0
68980,-100,4,1,1,60,0,0
69033,-100,4,1,1,5,0,0
69138,-133.333333333333,4,1,1,40,0,0
70401,-66.6666666666667,4,1,2,70,0,0
70559,-66.6666666666667,4,1,2,5,0,0
70638,-66.6666666666667,4,1,2,70,0,0
70796,-66.6666666666667,4,1,2,5,0,0
70875,-66.6666666666667,4,1,2,70,0,0
70954,-66.6666666666667,4,1,2,5,0,0
71033,-66.6666666666667,4,1,2,70,0,0
71349,-66.6666666666667,4,1,1,50,0,0
71664,-80,4,1,1,80,0,0
76243,-100,4,1,1,80,0,0
76401,-100,4,2,1,80,0,0
76717,-80,4,1,1,80,0,0
80585,-80,4,1,1,5,0,0
80664,-80,4,1,1,80,0,0
80901,-80,4,1,1,5,0,0
80980,-80,4,1,1,80,0,0
81454,-80,4,1,3,80,0,0
81770,-80,4,1,2,80,0,0
86506,-66.6666666666667,4,1,2,80,0,0
90612,-66.6666666666667,4,1,2,75,0,0
90928,-100,4,1,2,75,0,0
91243,-200,4,1,2,75,0,0
91559,-100,4,1,4,70,0,0
91875,-125,4,1,6,70,0,0
92191,-83.3333333333333,4,1,1,70,0,0
94401,-83.3333333333333,4,1,4,70,0,0
94717,-83.3333333333333,4,1,1,70,0,0
96454,-133.333333333333,4,1,1,70,0,0
96928,-83.3333333333333,4,1,4,70,0,0
97243,-83.3333333333333,4,1,1,70,0,0
99454,-83.3333333333333,4,1,4,70,0,0
99770,-83.3333333333333,4,1,1,70,0,0
100717,-83.3333333333333,4,1,0,70,0,0
100875,-83.3333333333333,4,1,1,70,0,0
101664,-83.3333333333333,4,1,3,70,0,0
101980,-133.333333333333,4,1,6,70,0,0
102296,-80,4,1,3,70,0,0
102454,-80,4,1,2,70,0,0
109875,-66.6666666666667,4,1,2,70,0,0
110822,-133.333333333333,4,1,1,50,0,0
111928,-200,4,1,1,50,0,0
112085,-200,4,2,1,5,0,0

[Colours]
Combo1 : 141,141,141
Combo2 : 121,123,200
Combo3 : 253,225,168
Combo4 : 255,85,89

[HitObjects]
21,215,928,6,0,P|82:175|154:189,1,150,6|2,0:1|0:1,0:0:0:0:
242,190,1875,1,0,0:0:0:0:
241,202,2033,1,0,0:0:0:0:
198,109,2191,6,0,P|271:105|326:153,1,150,2|2,0:1|0:1,0:0:0:0:
402,199,3138,1,0,0:0:0:0:
395,208,3296,1,0,0:0:0:0:
404,106,3454,6,0,P|469:139|492:208,1,150,2|2,0:1|0:1,0:0:0:0:
300,221,4717,2,0,P|346:191|401:198,1,112.5,2|0,0:1|0:0,0:0:0:0:
371,339,5349,2,0,P|358:304|364:268,1,75,2|0,0:1|0:0,0:0:0:0:
491,244,5822,1,0,0:0:0:0:
435,299,5980,6,0,L|281:311,1,150,6|2,0:1|0:1,0:0:0:0:
150,258,6928,1,0,0:0:0:0:
149,246,7085,1,0,0:0:0:0:
84,203,7243,6,0,L|238:215,1,150,2|2,0:1|0:1,0:0:0:0:
363,146,8191,1,0,0:0:0:0:
364,134,8348,1,0,0:0:0:0:
429,91,8506,6,0,L|275:103,1,150,2|2,0:1|0:1,0:0:0:0:
161,46,9454,1,0,0:0:0:0:
70,169,9770,6,0,L|76:226,2,56.2500021457673,8|0|0,0:0|0:0|0:0,0:0:0:0:
149,195,10243,2,0,P|186:204|257:172,1,112.500004291535,0|2,0:0|0:2,0:0:0:0:
190,125,10717,1,0,0:0:0:0:
214,280,10875,1,2,0:2:0:0:
188,115,11033,5,6,0:0:0:0:
280,130,11191,1,0,0:0:0:0:
372,145,11349,1,2,0:0:0:0:
453,97,11506,6,0,L|530:83,1,75,2|2,0:2|0:0,0:0:0:0:
439,218,11822,2,0,L|516:204,1,75,2|2,0:2|0:0,0:0:0:0:
425,339,12138,1,2,0:2:0:0:
498,325,12296,5,2,0:0:0:0:
379,274,12454,1,0,0:0:0:0:
379,274,12533,1,0,0:0:0:0:
379,274,12612,1,2,0:0:0:0:
277,365,12770,2,0,L|192:354,1,75,2|0,0:2|0:0,0:0:0:0:
16,260,13085,5,2,0:2:0:0:
95,264,13243,1,2,0:0:0:0:
167,229,13401,1,2,0:2:0:0:
202,158,13559,5,2,0:0:0:0:
290,291,13717,1,0,0:0:0:0:
290,291,13796,1,0,0:0:0:0:
290,291,13875,1,2,0:0:0:0:
347,149,14033,2,0,L|342:67,1,75,2|2,0:2|0:0,0:0:0:0:
280,206,14349,5,2,0:2:0:0:
423,103,14506,1,2,0:0:0:0:
258,46,14664,1,2,0:2:0:0:
115,149,14822,5,2,0:0:0:0:
145,160,14900,1,0,0:0:0:0:
178,158,14979,1,0,0:0:0:0:
208,145,15058,1,0,0:0:0:0:
230,122,15138,2,0,L|239:174,1,37.5,2|0,0:0|2:0,0:0:0:0:
338,267,15296,2,0,L|258:254,1,75,2|0,0:2|0:0,0:0:0:0:
404,217,15612,5,2,0:2:0:0:
197,304,15770,1,2,0:0:0:0:
412,234,15928,5,2,0:2:0:0:
189,287,16085,2,0,L|105:274,1,82.5000025177003,4|0,0:0|0:0,0:0:0:0:
33,258,16322,1,0,0:0:0:0:
33,258,16401,1,2,0:0:0:0:
155,124,16559,2,0,B|171:162|171:162|165:211,1,82.5000025177003,2|2,0:2|0:0,0:0:0:0:
43,336,16875,2,0,B|27:298|27:298|33:249,1,82.5000025177003,2|2,0:2|0:0,0:0:0:0:
140,362,17191,1,2,0:2:0:0:
249,225,17349,5,2,0:0:0:0:
284,205,17427,1,0,0:0:0:0:
325,203,17506,1,0,0:0:0:0:
363,219,17585,1,0,0:0:0:0:
389,250,17664,1,2,0:0:0:0:
316,367,17822,2,0,L|311:285,1,82.5000025177003,2|2,0:2|0:0,0:0:0:0:
459,179,18138,5,2,0:2:0:0:
405,371,18296,1,2,0:0:0:0:
284,205,18454,1,2,0:2:0:0:
438,283,18612,6,0,L|490:279,3,41.2500012588501,4|0|0|0,0:0|0:0|0:0|0:0,0:0:0:0:
501,251,18928,1,0,0:0:0:0:
511,216,19006,1,0,0:0:0:0:
506,181,19085,1,2,0:2:0:0:
487,151,19164,1,0,0:0:0:0:
456,132,19243,6,0,L|446:185,1,41.2500012588501,4|0,0:0|0:0,0:0:0:0:
364,212,19401,1,2,0:2:0:0:
330,227,19480,1,0,0:0:0:0:
293,222,19559,1,0,0:0:0:0:
263,199,19638,1,0,0:0:0:0:
233,176,19717,1,2,0:2:0:0:
196,171,19796,1,0,0:0:0:0:
161,186,19875,6,0,P|148:224|155:264,1,82.5000025177003,4|0,0:0|0:0,0:0:0:0:
198,327,20112,1,2,0:0:0:0:
206,338,20191,1,0,0:0:0:0:
91,307,20349,6,0,L|285:286,1,179.999994506836,0|0,0:0|0:0,0:0:0:0:
354,274,20822,1,0,0:0:0:0:
439,261,20980,1,0,0:0:0:0:
439,261,21059,1,0,0:0:0:0:
439,260,21138,6,0,P|446:224|439:188,1,75,2|0,0:0|0:0,0:0:0:0:
313,80,21454,1,2,0:0:0:0:
313,80,21612,2,0,P|305:116|312:152,1,75,2|2,0:2|0:0,0:0:0:0:
463,106,21928,2,0,L|388:114,1,75,2|2,0:2|0:0,0:0:0:0:
256,224,22243,1,2,0:2:0:0:
49,106,22401,6,0,L|123:114,1,75,2|0,0:0|0:0,0:0:0:0:
72,260,22717,1,2,0:0:0:0:
72,260,22875,2,0,P|65:224|72:188,1,75,2|2,0:2|0:0,0:0:0:0:
199,80,23191,2,0,P|206:116|199:152,1,75,2|2,0:2|0:0,0:0:0:0:
152,312,23506,1,2,0:2:0:0:
276,248,23664,6,0,L|188:240,1,75,2|0,0:0|0:0,0:0:0:0:
127,231,23901,1,0,0:0:0:0:
111,229,23980,1,2,0:0:0:0:
236,328,24138,2,0,L|244:376,2,37.5,2|0|2,0:2|0:0|0:0,0:0:0:0:
162,153,24454,2,0,L|74:145,1,75,2|2,0:2|0:0,0:0:0:0:
256,76,24770,1,2,0:2:0:0:
424,146,24928,6,0,L|349:152,1,75,2|0,0:0|0:0,0:0:0:0:
271,162,25164,1,0,0:0:0:0:
256,164,25243,1,2,0:0:0:0:
374,71,25401,5,2,0:2:0:0:
399,227,25559,1,2,0:0:0:0:
371,57,25717,5,2,0:2:0:0:
401,241,25875,2,0,B|357:249|313:241|297:197|305:173|305:173|309:217|257:229,1,202.499993820191,4|0,0:0|2:0,0:0:0:0:
200,240,26191,6,0,L|148:236,1,37.5,4|0,0:0|2:0,0:0:0:0:
72,208,26349,2,0,L|80:292,1,75,0|0,0:0|0:0,0:0:0:0:
228,80,26664,2,0,L|176:76,1,37.5,4|0,0:0|2:0,0:0:0:0:
100,48,26822,2,0,L|108:132,1,75,0|0,0:0|0:0,0:0:0:0:
304,200,27138,2,0,L|311:125,1,75,4|0,0:0|0:0,0:0:0:0:
376,64,27454,5,4,0:0:0:0:
408,52,27532,1,0,0:0:0:0:
443,55,27611,1,0,0:0:0:0:
473,70,27690,1,0,0:0:0:0:
496,97,27769,1,0,0:0:0:0:
505,130,27848,1,0,0:0:0:0:
501,164,27927,1,4,0:0:0:0:
484,195,28006,1,0,0:0:0:0:
500,228,28085,6,0,L|464:220,1,37.5,0|0,0:0|0:0,0:0:0:0:
424,288,28243,2,0,L|388:280,1,37.5,0|0,0:0|0:0,0:0:0:0:
512,244,28401,6,0,L|476:236,1,37.5,4|0,0:0|0:0,0:0:0:0:
436,304,28559,2,0,L|400:296,1,37.5,0|0,0:0|0:0,0:0:0:0:
284,208,28717,6,0,P|228:200|168:252,1,123.75000377655,2|0,0:0|2:0,0:0:0:0:
175,212,29033,6,0,P|151:249|151:293,1,90,0|0,0:0|2:0,0:0:0:0:
140,288,29349,6,0,P|148:328|224:364,1,131.25,0|0,0:0|2:0,0:0:0:0:
296,328,29980,5,8,2:1:0:0:
64,288,30217,1,8,2:1:0:0:
284,224,30454,1,8,2:1:0:0:
292,232,30533,1,0,0:0:0:0:
300,240,30612,6,0,L|256:244,1,37.5,8|0,2:1|0:0,0:0:0:0:
137,342,30770,2,0,L|183:347,1,37.5,0|0,0:0|0:0,0:0:0:0:
296,328,30928,6,0,B|235:322|235:322|204:349|204:349|125:341,1,168.750006437302,0|0,0:0|2:0,0:0:0:0:
25,295,31243,6,0,P|45:245|98:235,1,112.5,2|0,0:0|2:0,0:0:0:0:
178,267,31559,2,0,L|171:192,1,75,2|0,0:0|0:0,0:0:0:0:
91,78,31875,2,0,L|84:152,1,75,2|0,0:0|0:0,0:0:0:0:
251,221,32191,6,0,L|247:178,1,37.5,2|0,0:0|0:0,0:0:0:0:
169,76,32349,2,0,L|165:113,1,37.5,0|0,0:0|0:0,0:0:0:0:
245,237,32506,5,2,0:0:0:0:
335,225,32664,1,0,0:0:0:0:
172,125,32822,1,2,0:0:0:0:
82,113,32980,1,0,0:0:0:0:
256,41,33138,5,2,0:0:0:0:
275,72,33216,1,0,0:0:0:0:
307,90,33295,1,0,0:0:0:0:
344,90,33374,1,0,0:0:0:0:
377,72,33454,2,0,L|458:85,1,75,2|0,0:0|0:0,0:0:0:0:
377,243,33770,1,0,0:0:0:0:
485,177,33928,6,0,L|434:185,1,37.5,0|0,0:0|0:0,0:0:0:0:
328,246,34085,2,0,L|379:254,1,37.5,2|0,0:0|0:0,0:0:0:0:
462,306,34243,1,0,0:0:0:0:
357,153,34401,5,2,0:0:0:0:
322,138,34479,1,0,0:0:0:0:
285,141,34558,1,0,0:0:0:0:
253,160,34637,1,0,0:0:0:0:
234,192,34717,2,0,L|242:107,1,75,2|0,0:0|0:0,0:0:0:0:
176,66,35033,5,2,0:0:0:0:
311,216,35191,1,2,0:0:0:0:
313,228,35270,1,0,0:0:0:0:
315,240,35349,1,2,0:0:0:0:
163,150,35506,1,0,0:0:0:0:
319,69,35664,6,0,L|404:85,1,75,0|2,0:0|0:0,0:0:0:0:
460,144,35901,1,0,0:0:0:0:
471,141,35980,6,0,P|432:125|337:206,1,168.750006437302,4|0,0:0|2:0,0:0:0:0:
321,265,36296,6,0,L|330:358,1,84.3750032186509,0|0,0:0|2:0,0:0:0:0:
329,348,36612,1,2,0:0:0:0:
299,363,36690,1,0,0:0:0:0:
267,363,36769,1,0,0:0:0:0:
237,350,36848,1,0,0:0:0:0:
217,325,36928,5,2,0:0:0:0:
110,262,37085,1,0,0:0:0:0:
6,321,37243,2,0,L|9:358,2,37.5,2|0|0,0:0|0:0|0:0,0:0:0:0:
192,244,37559,6,0,L|199:155,1,75,2|0,0:0|0:0,0:0:0:0:
107,81,37875,1,2,0:0:0:0:
143,89,37953,1,0,0:0:0:0:
179,81,38032,1,0,0:0:0:0:
208,57,38111,1,0,0:0:0:0:
223,23,38191,6,0,L|278:16,1,37.5,2|0,0:0|0:0,0:0:0:0:
324,84,38349,2,0,L|368:92,1,37.5,0|0,0:0|0:0,0:0:0:0:
400,180,38506,2,0,L|420:294,1,112.5,2|0,0:0|2:0,0:0:0:0:
419,290,38822,6,0,P|440:245|426:199,1,75,0|0,0:0|0:0,0:0:0:0:
311,167,39138,1,2,0:0:0:0:
299,202,39216,1,0,0:0:0:0:
273,228,39295,1,0,0:0:0:0:
237,238,39374,1,0,0:0:0:0:
201,229,39453,5,2,0:0:0:0:
364,284,39612,2,0,L|327:290,1,37.5,2|0,0:0|0:0,0:0:0:0:
171,333,39770,2,0,L|208:338,1,37.5,2|0,0:0|0:0,0:0:0:0:
339,380,39928,1,0,0:0:0:0:
199,217,40085,6,0,L|189:121,1,75,2|2,0:0|0:0,0:0:0:0:
13,140,40401,2,0,L|5:188,1,37.5,2|0,0:0|0:0,0:0:0:0:
102,184,40559,2,0,L|102:227,1,37.5,2|0,0:0|0:0,0:0:0:0:
0,259,40717,5,2,0:0:0:0:
93,81,40875,1,2,0:0:0:0:
165,296,41033,2,0,B|177:258|177:258|142:315|93:314|36:286,1,168.750006437302,4|0,0:0|2:0,0:0:0:0:
66,298,41349,6,0,L|141:294,1,56.2500021457673,2|0,0:0|0:0,0:0:0:0:
276,195,41664,2,0,P|242:179|205:181,1,75,14|0,0:0|0:0,0:0:0:0:
222,363,41980,1,2,0:0:0:0:
362,271,42138,2,0,L|288:278,1,75,0|10,0:0|0:0,0:0:0:0:
209,363,42454,1,0,0:0:0:0:
201,171,42612,6,0,P|238:168|271:184,1,75,2|0,0:0|0:0,0:0:0:0:
356,357,42928,1,10,0:0:0:0:
366,196,43085,2,0,L|361:270,1,75,0|2,0:0|0:0,0:0:0:0:
393,290,43322,1,0,0:0:0:0:
430,291,43401,1,0,0:0:0:0:
463,275,43480,1,0,0:0:0:0:
484,244,43559,2,0,L|475:190,3,37.5,10|0|0|0,0:0|0:0|0:0|0:0,0:0:0:0:
496,171,43875,5,2,0:0:0:0:
511,342,44033,1,0,0:0:0:0:
395,207,44191,2,0,L|313:199,1,75,10|0,0:0|0:0,0:0:0:0:
170,291,44506,1,2,0:0:0:0:
320,285,44664,2,0,P|283:277|255:254,1,75,0|10,0:0|0:0,0:0:0:0:
285,128,44980,1,0,0:0:0:0:
395,207,45138,6,0,L|411:312,1,75,2|2,0:0|0:0,0:0:0:0:
422,356,45375,1,0,0:0:0:0:
425,367,45454,1,10,0:0:0:0:
320,285,45612,1,0,0:0:0:0:
481,217,45770,2,0,L|497:322,1,75,2|0,0:0|0:0,0:0:0:0:
316,169,46085,6,0,L|321:103,3,56.2500021457673,8|0|0|0,0:0|0:0|0:0|0:0,0:0:0:0:
271,113,46401,1,14,0:0:0:0:
236,89,46479,1,0,0:0:0:0:
195,88,46558,1,2,0:0:0:0:
160,111,46637,1,0,0:0:0:0:
144,149,46717,2,0,L|160:229,1,56.2500021457673,10|0,0:0|0:0,0:0:0:0:
132,284,46875,2,0,L|120:228,1,56.2500021457673,2|0,0:0|0:0,0:0:0:0:
232,216,47033,5,10,0:0:0:0:
257,249,47111,1,0,0:0:0:0:
295,266,47190,1,2,0:0:0:0:
336,264,47269,1,0,0:0:0:0:
372,243,47349,2,0,L|444:255,1,56.2500021457673,10|0,0:0|0:0,0:0:0:0:
504,216,47506,2,0,L|432:228,1,56.2500021457673,2|0,0:0|0:0,0:0:0:0:
396,160,47664,6,0,P|389:129|388:88,3,56.2500021457673,14|0|2|0,0:0|0:0|0:0|0:0,0:0:0:0:
312,60,47980,2,0,P|305:90|304:132,3,56.2500021457673,10|0|2|0,0:0|0:0|0:0|0:0,0:0:0:0:
256,192,48296,1,10,0:0:0:0:
235,211,48374,1,0,0:0:0:0:
210,223,48453,1,2,0:0:0:0:
182,226,48532,1,0,0:0:0:0:
155,221,48611,1,10,0:0:0:0:
130,208,48690,1,0,0:0:0:0:
111,188,48769,1,2,0:0:0:0:
98,163,48848,1,0,0:0:0:0:
95,135,48928,6,0,L|100:68,1,56.2500021457673,14|0,0:0|0:0,0:0:0:0:
176,116,49085,2,0,L|181:49,1,56.2500021457673,10|0,0:0|0:0,0:0:0:0:
256,192,49243,6,0,L|261:259,1,56.2500021457673,10|0,0:0|0:0,0:0:0:0:
337,210,49401,2,0,L|342:277,1,56.2500021457673,10|0,0:0|0:0,0:0:0:0:
424,156,49559,5,14,0:0:0:0:
437,154,49637,1,2,0:0:0:0:
451,153,49716,1,10,0:0:0:0:
465,152,49795,1,2,0:0:0:0:
479,150,49875,2,0,P|447:142|410:120,1,56.2500021457673,10|2,0:0|0:0,0:0:0:0:
322,67,50033,2,0,P|331:98|330:141,1,56.2500021457673,10|2,0:0|0:0,0:0:0:0:
274,244,50191,6,0,P|316:208|371:208,1,112.5,14|0,0:0|2:0,0:0:0:0:
439,248,50506,2,0,L|449:325,1,75,8|8,0:0|0:0,0:0:0:0:
273,371,50822,2,0,L|279:324,1,37.5,8|0,0:0|0:0,0:0:0:0:
352,291,50980,5,2,0:0:0:0:
352,291,51059,1,0,0:0:0:0:
352,291,51138,2,0,B|289:299|289:299|253:326|253:326|161:338,1,168.750006437302,2|0,0:0|2:0,0:0:0:0:
116,311,51454,6,0,P|77:256|141:234,1,150,6|2,0:0|0:0,0:0:0:0:
217,270,52401,2,0,L|260:264,1,37.5,0|0,0:0|0:0,0:0:0:0:
315,216,52717,2,0,P|324:170|312:136,1,75,0|0,0:0|0:0,0:0:0:0:
248,106,53191,1,0,0:0:0:0:
248,106,53349,2,0,P|238:141|246:178,1,75,2|0,0:0|0:0,0:0:0:0:
429,117,53980,5,2,0:0:0:0:
429,117,54138,2,0,L|422:64,1,37.5,0|0,0:0|0:0,0:0:0:0:
386,216,54612,2,0,L|475:209,1,75,2|0,0:0|0:0,0:0:0:0:
377,293,55085,1,0,0:0:0:0:
317,247,55243,6,0,L|228:240,1,75,2|0,0:0|0:0,0:0:0:0:
63,312,55717,1,0,0:0:0:0:
132,355,55875,2,0,P|167:361|231:306,1,112.5,2|0,0:0|0:0,0:0:0:0:
253,161,56506,6,0,L|242:74,1,75,6|0,0:0|0:0,0:0:0:0:
176,46,56980,1,0,0:0:0:0:
115,98,57138,2,0,P|78:106|41:101,1,75,2|0,0:0|0:0,0:0:0:0:
6,230,57770,5,2,0:0:0:0:
129,194,58085,2,0,L|138:235,1,37.5,0|0,0:0|0:0,0:0:0:0:
207,275,58401,2,0,L|217:190,1,75,2|0,0:0|0:0,0:0:0:0:
329,112,59033,5,2,0:0:0:0:
405,130,59191,1,0,0:0:0:0:
481,148,59349,2,0,L|488:200,1,37.5,0|0,0:0|0:0,0:0:0:0:
416,270,59664,2,0,P|390:280|308:237,1,112.5,2|0,0:0|0:0,0:0:0:0:
376,204,60296,5,2,0:0:0:0:
328,349,60454,1,0,0:0:0:0:
226,234,60612,1,0,0:0:0:0:
376,204,60770,1,0,0:0:0:0:
247,317,60928,6,0,L|155:310,1,67.4999979400635,2|0,0:0|0:0,0:0:0:0:
65,160,61243,2,0,L|157:167,1,67.4999979400635,2|0,0:0|0:0,0:0:0:0:
226,234,61559,6,0,L|212:86,1,134.999995880127,4|2,0:0|0:0,0:0:0:0:
291,52,62033,1,0,0:0:0:0:
424,92,62191,2,0,P|390:92|359:105,1,67.4999979400635,2|0,0:0|0:0,0:0:0:0:
309,163,62428,1,0,0:0:0:0:
309,163,62506,2,0,P|309:200|320:248,1,67.4999979400635,2|0,0:0|0:0,0:0:0:0:
157,346,62822,6,0,P|157:309|146:261,1,67.4999979400635,2|0,0:0|0:0,0:0:0:0:
238,329,63138,1,2,0:0:0:0:
78,315,63296,1,2,0:2:0:0:
224,238,63454,2,0,L|230:127,1,101.249996910095,2|0,0:0|2:0,0:0:0:0:
229,136,63770,2,0,L|147:147,1,67.4999979400635,2|2,0:0|0:2,0:0:0:0:
85,111,64085,5,2,0:0:0:0:
193,49,64243,1,0,0:0:0:0:
193,49,64322,1,0,0:0:0:0:
193,49,64401,1,2,0:0:0:0:
251,145,64559,2,0,L|317:136,1,67.4999979400635,2|2,0:2|0:0,0:0:0:0:
400,58,64875,2,0,L|333:49,1,67.4999979400635,2|2,0:2|0:0,0:0:0:0:
300,221,65191,1,2,0:2:0:0:
416,160,65349,6,0,P|426:209|417:241,1,67.4999979400635,2|0,0:0|0:0,0:0:0:0:
375,285,65585,1,0,0:0:0:0:
375,285,65664,1,2,0:0:0:0:
501,360,65822,2,0,L|410:350,1,67.4999979400635,2|2,0:2|0:0,0:0:0:0:
351,361,66138,1,2,0:2:0:0:
217,321,66296,6,0,B|309:338|277:267|376:285,1,168.750006437302,2|0,0:0|2:0,0:0:0:0:
448,248,66612,6,0,L|452:193,1,37.5,6|0,0:0|2:0,0:0:0:0:
495,130,66770,2,0,L|401:140,1,75,0|0,0:0|0:0,0:0:0:0:
257,44,67085,2,0,L|261:99,1,37.5,6|0,0:0|2:0,0:0:0:0:
304,162,67243,2,0,L|210:152,1,75,0|0,0:0|0:0,0:0:0:0:
121,118,67559,2,0,L|46:125,1,75,6|0,0:0|0:0,0:0:0:0:
33,277,67875,5,6,0:0:0:0:
164,263,68033,1,0,0:0:0:0:
96,213,68191,1,0,0:0:0:0:
293,342,68349,5,6,0:0:0:0:
104,331,68506,1,0,0:0:0:0:
214,196,68664,1,0,0:0:0:0:
201,372,68822,5,6,0:0:0:0:
148,143,68980,1,0,0:0:0:0:
328,258,69138,6,0,L|377:253,1,28.1250010728836,4|0,0:0|2:0,0:0:0:0:
348,272,69296,2,0,L|397:267,1,28.1250010728836,0|0,0:0|2:0,0:0:0:0:
368,286,69454,2,0,L|417:281,1,28.1250010728836,0|0,0:0|2:0,0:0:0:0:
388,300,69612,2,0,L|437:295,1,28.1250010728836,0|0,0:0|2:0,0:0:0:0:
496,246,69770,5,0,0:0:0:0:
498,230,69928,1,0,0:0:0:0:
500,214,70085,1,0,0:0:0:0:
502,198,70243,1,0,0:0:0:0:
435,117,70401,6,0,B|388:123|388:123|378:121|378:121|369:126|369:126|317:134,1,112.500004291535,8|0,0:0|0:0,0:0:0:0:
258,182,70638,2,0,B|305:176|305:176|315:178|315:178|324:173|324:173|376:165,1,112.500004291535,8|0,0:0|0:0,0:0:0:0:
443,107,70875,2,0,L|370:118,1,56.2500021457673,8|0,0:0|0:0,0:0:0:0:
297,261,71033,5,8,0:0:0:0:
316,280,71111,1,0,0:0:0:0:
342,292,71190,1,0,0:0:0:0:
369,295,71269,1,0,0:0:0:0:
397,289,71349,2,0,P|334:277|266:382,1,168.750006437302,0|0,0:0|2:0,0:0:0:0:
190,366,71664,6,0,L|79:356,1,93.75,2|0,0:0|0:0,0:0:0:0:
23,334,71901,1,0,0:0:0:0:
23,334,71980,1,2,0:0:0:0:
0,207,72138,2,0,P|48:185|108:205,1,93.75,2|2,0:2|0:0,0:0:0:0:
117,108,72454,2,0,P|160:138|172:200,1,93.75,2|2,0:2|0:0,0:0:0:0:
242,263,72770,1,2,0:2:0:0:
326,235,72928,5,2,0:0:0:0:
347,207,73006,1,0,0:0:0:0:
355,173,73085,1,0,0:0:0:0:
347,139,73164,1,0,0:0:0:0:
326,111,73243,2,0,L|247:103,1,46.875,2|0,0:0|0:0,0:0:0:0:
157,113,73401,2,0,L|250:122,1,93.75,2|2,0:2|0:0,0:0:0:0:
211,37,73717,5,2,0:2:0:0:
196,198,73875,1,2,0:0:0:0:
357,213,74033,1,2,0:2:0:0:
372,52,74191,6,0,P|322:50|285:88,1,93.75,2|0,0:0|0:0,0:0:0:0:
252,143,74428,1,0,0:0:0:0:
252,143,74506,2,0,L|260:211,1,46.875,2|0,0:0|0:0,0:0:0:0:
165,281,74664,2,0,P|112:292|44:210,1,140.625,2|0,0:2|2:0,0:0:0:0:
90,174,74980,2,0,L|81:75,1,93.75,2|2,0:2|0:0,0:0:0:0:
177,11,75296,1,2,0:2:0:0:
176,194,75454,6,0,L|165:114,1,46.875,2|0,0:0|0:0,0:0:0:0:
224,90,75612,1,0,0:0:0:0:
224,90,75691,1,0,0:0:0:0:
224,90,75770,1,2,0:0:0:0:
123,255,75928,2,0,P|189:238|248:274,1,140.625,2|0,0:2|2:0,0:0:0:0:
312,319,76243,6,0,L|411:308,2,75,0|2|0,0:0|0:0|0:0,0:0:0:0:
462,339,76717,6,0,P|466:293|443:252,1,93.75,6|0,0:0|0:0,0:0:0:0:
371,225,76954,1,0,0:0:0:0:
371,225,77033,1,2,0:0:0:0:
449,117,77191,2,0,P|402:181|290:161,1,187.5,2|2,0:2|0:2,0:0:0:0:
239,120,77585,1,0,0:0:0:0:
239,120,77664,2,0,L|242:9,1,93.75,2|2,0:0|0:2,0:0:0:0:
8,87,77980,5,2,0:0:0:0:
32,111,78058,1,0,0:0:0:0:
45,144,78137,1,0,0:0:0:0:
43,178,78216,1,0,0:0:0:0:
28,210,78296,2,0,P|46:195|68:187,1,46.875,2|0,0:0|0:0,0:0:0:0:
233,269,78454,2,0,P|208:205|144:183,1,140.625,2|0,0:2|2:0,0:0:0:0:
85,264,78770,1,2,0:2:0:0:
85,264,78928,2,0,L|95:363,1,93.75,2|2,0:0|0:2,0:0:0:0:
233,269,79243,6,0,B|293:248|337:290|337:290|313:296|289:269,1,140.625,2|0,0:0|2:0,0:0:0:0:
309,286,79559,2,0,L|302:204,1,46.875,2|0,0:0|0:0,0:0:0:0:
365,186,79717,2,0,P|405:208|451:205,1,93.75,2|2,0:2|0:0,0:0:0:0:
233,269,80033,2,0,P|192:246|146:249,1,93.75,2|2,0:2|0:0,0:0:0:0:
175,325,80349,1,0,0:0:0:0:
246,183,80506,6,0,L|239:101,1,46.875,2|0,0:0|0:0,0:0:0:0:
143,70,80664,1,0,0:0:0:0:
141,93,80742,1,0,0:0:0:0:
139,116,80821,1,2,0:0:0:0:
320,111,80980,5,0,0:0:0:0:
117,199,81138,1,2,0:0:0:0:
251,56,81296,5,0,0:0:0:0:
186,254,81454,2,0,L|191:320,1,46.875,10|0,0:0|0:0,0:0:0:0:
266,223,81612,2,0,L|261:157,1,46.875,10|0,0:0|0:0,0:0:0:0:
109,289,81770,5,4,0:0:0:0:
264,338,81928,1,0,0:0:0:0:
95,285,82085,2,0,P|41:285|4:311,1,93.75,10|2,0:0|0:2,0:0:0:0:
186,254,82401,5,2,0:0:0:0:
36,141,82559,2,0,P|65:176|110:188,1,93.75,2|10,0:2|0:0,0:0:0:0:
239,136,82875,1,2,0:2:0:0:
104,15,83033,6,0,L|113:109,1,93.75,2|0,0:0|0:0,0:0:0:0:
265,239,83349,1,10,0:0:0:0:
187,202,83506,2,0,P|240:159|308:169,1,140.625,2|0,0:2|2:0,0:0:0:0:
368,224,83822,2,0,L|437:237,1,46.875,2|0,0:2|2:0,0:0:0:0:
378,235,83980,2,0,L|491:226,1,93.75,10|2,0:0|0:2,0:0:0:0:
478,236,84217,1,0,0:0:0:0:
485,244,84296,6,0,P|495:192|474:146,1,93.75,2|0,0:0|0:0,0:0:0:0:
304,80,84612,2,0,P|293:131|314:177,1,93.75,10|2,0:0|0:2,0:0:0:0:
381,58,84928,5,2,0:0:0:0:
222,161,85085,2,0,L|123:152,1,93.75,2|10,0:2|0:0,0:0:0:0:
184,78,85401,5,2,0:2:0:0:
263,243,85559,1,2,0:0:0:0:
292,260,85637,1,0,0:0:0:0:
327,265,85716,1,2,0:0:0:0:
361,256,85795,1,2,0:0:0:0:
388,235,85874,1,10,0:0:0:0:
324,136,86033,6,0,L|321:183,1,46.875,2|0,0:2|0:0,0:0:0:0:
246,297,86191,2,0,L|249:250,1,46.875,2|0,0:0|0:0,0:0:0:0:
202,104,86349,2,0,L|198:150,1,46.875,2|0,0:2|0:0,0:0:0:0:
133,312,86506,6,0,P|59:301|74:227,1,168.750006437302,10|0,0:0|2:0,0:0:0:0:
181,247,86822,5,14,0:0:0:0:
208,244,86900,1,0,0:0:0:0:
236,241,86979,1,2,0:0:0:0:
264,238,87058,1,0,0:0:0:0:
292,235,87138,2,0,P|298:207|295:180,3,56.2500021457673,10|0|2|0,0:0|0:0|0:0|0:0,0:0:0:0:
220,141,87455,5,10,0:0:0:0:
192,138,87533,1,0,0:0:0:0:
164,135,87612,1,2,0:0:0:0:
136,132,87691,1,0,0:0:0:0:
109,129,87771,2,0,P|102:101|105:74,3,56.2500021457673,10|0|2|0,0:0|0:0|0:0|0:0,0:0:0:0:
193,39,88085,5,14,0:0:0:0:
229,59,88163,1,0,0:0:0:0:
271,61,88242,1,2,0:0:0:0:
309,45,88321,1,0,0:0:0:0:
337,15,88401,2,0,L|329:94,1,56.2500021457673,10|0,0:0|0:0,0:0:0:0:
405,149,88559,2,0,L|413:70,1,56.2500021457673,2|0,0:0|0:0,0:0:0:0:
491,54,88717,5,10,0:0:0:0:
321,176,88875,1,2,0:0:0:0:
321,176,88954,1,0,0:0:0:0:
320,176,89033,2,0,P|293:182|265:182,3,56.2500021457673,10|0|2|0,0:0|0:0|0:0|0:0,0:0:0:0:
380,234,89349,5,14,0:0:0:0:
343,213,89427,1,0,0:0:0:0:
301,211,89506,1,10,0:0:0:0:
262,226,89585,1,0,0:0:0:0:
233,257,89664,2,0,P|221:281|222:309,1,56.2500021457673,10|0,0:0|0:0,0:0:0:0:
147,331,89822,2,0,P|174:335|196:352,1,56.2500021457673,10|0,0:0|0:0,0:0:0:0:
298,315,89980,5,14,0:0:0:0:
319,332,90058,1,2,0:0:0:0:
345,341,90137,1,10,0:0:0:0:
373,340,90216,1,2,0:0:0:0:
399,329,90295,1,10,0:0:0:0:
424,317,90375,1,2,0:0:0:0:
452,316,90454,1,10,0:0:0:0:
478,325,90533,1,2,0:0:0:0:
500,343,90612,6,0,L|488:210,1,112.500004291535,14|0,0:0|0:0,0:0:0:0:
393,232,90849,1,0,0:0:0:0:
402,238,90928,2,0,L|394:149,1,75,0|0,0:0|0:0,0:0:0:0:
295,127,91164,1,0,0:0:0:0:
304,133,91243,6,0,L|298:72,1,56.25,0|0,0:0|0:0,0:0:0:0:
321,57,91559,6,0,L|184:43,1,112.5,2|0,0:0|0:0,0:0:0:0:
63,135,91875,6,0,P|106:143|148:123,1,90,2|0,0:0|0:0,0:0:0:0:
56,144,92191,6,0,P|116:152|174:58,2,179.999994506836,2|2|2,0:0|0:0|0:0,0:0:0:0:
9,71,92980,1,0,0:0:0:0:
83,234,93138,1,2,0:0:0:0:
154,174,93296,6,0,L|254:180,1,89.9999972534181,0|2,0:0|0:0,0:0:0:0:
233,314,93612,2,0,L|133:308,1,89.9999972534181,0|2,0:0|0:0,0:0:0:0:
305,251,93928,5,0,0:0:0:0:
351,354,94085,1,2,0:0:0:0:
408,267,94243,1,0,0:0:0:0:
250,330,94401,2,0,L|97:321,1,134.999995880127,4|0,0:0|2:0,0:0:0:0:
51,270,94717,6,0,P|38:227|47:183,1,89.9999972534181,2|0,0:0|0:0,0:0:0:0:
141,138,95033,2,0,P|154:181|145:225,1,89.9999972534181,2|0,0:0|0:0,0:0:0:0:
55,82,95349,1,2,0:0:0:0:
231,157,95506,2,0,L|339:142,1,89.9999972534181,0|2,0:0|0:0,0:0:0:0:
484,69,95822,6,0,B|439:62|439:62|387:86,1,89.9999972534181,0|2,0:0|0:0,0:0:0:0:
426,247,96138,2,0,B|470:253|470:253|522:229,1,89.9999972534181,0|2,0:0|0:0,0:0:0:0:
456,161,96375,1,0,0:0:0:0:
456,161,96454,6,0,L|383:171,2,56.2500021457673,0|2|0,0:0|0:0|0:0,0:0:0:0:
328,267,96928,6,0,P|274:274|203:213,1,134.999995880127,2|0,0:0|2:0,0:0:0:0:
172,159,97243,2,0,L|178:68,1,89.9999972534181,2|0,0:0|0:0,0:0:0:0:
340,259,97559,2,0,L|334:350,1,89.9999972534181,2|0,0:0|0:0,0:0:0:0:
288,190,97875,1,2,0:0:0:0:
421,294,98033,6,0,P|465:299|507:284,1,89.9999972534181,0|2,0:0|0:0,0:0:0:0:
252,354,98349,2,0,P|207:348|165:363,1,89.9999972534181,0|2,0:0|0:0,0:0:0:0:
334,348,98664,2,0,L|340:259,1,89.9999972534181,0|2,0:0|0:0,0:0:0:0:
207,132,98980,5,0,0:0:0:0:
226,222,99138,1,2,0:0:0:0:
139,193,99296,1,0,0:0:0:0:
291,162,99454,2,0,P|306:106|262:35,1,134.999995880127,4|0,0:0|2:0,0:0:0:0:
207,82,99770,6,0,L|99:73,1,89.9999972534181,2|0,0:0|0:0,0:0:0:0:
36,190,100085,2,0,L|144:199,1,89.9999972534181,2|0,0:0|0:0,0:0:0:0:
41,106,100401,1,2,0:0:0:0:
76,275,100559,2,0,L|184:284,1,89.9999972534181,0|4,0:0|0:0,0:0:0:0:
258,220,100875,6,0,L|249:153,2,44.999998626709,2|0|2,0:0|0:0|0:0,0:0:0:0:
329,334,101191,2,0,L|323:378,2,44.999998626709,0|0|0,0:0|0:0|0:0,0:0:0:0:
343,324,101428,1,0,0:0:0:0:
357,314,101506,1,0,0:0:0:0:
371,304,101585,1,0,0:0:0:0:
385,294,101664,6,0,L|455:305,1,44.999998626709,8|0,0:0|0:0,0:0:0:0:
376,201,101822,2,0,L|446:212,1,44.999998626709,8|0,0:0|0:0,0:0:0:0:
367,108,101980,6,0,L|360:31,1,56.2500021457673,2|0,0:0|0:0,0:0:0:0:
378,118,102296,2,0,L|370:12,1,93.75,8|0,0:0|0:0,0:0:0:0:
464,130,102612,5,2,0:0:0:0:
328,204,102770,2,0,P|281:207|239:188,1,93.75,0|10,0:0|0:0,0:0:0:0:
296,130,103085,5,0,0:0:0:0:
379,276,103243,2,0,P|425:279|467:260,1,93.75,2|0,0:0|0:0,0:0:0:0:
408,203,103559,5,10,0:0:0:0:
308,322,103717,2,0,B|206:302|245:377|110:352,1,187.5,0|0,0:0|0:0,0:0:0:0:
5,242,104191,1,10,0:0:0:0:
35,224,104269,1,0,0:0:0:0:
69,221,104348,1,0,0:0:0:0:
102,234,104427,1,0,0:0:0:0:
125,260,104506,6,0,L|113:142,1,93.75,2|0,0:0|0:0,0:0:0:0:
211,102,104822,2,0,L|223:220,1,93.75,10|0,0:0|0:0,0:0:0:0:
354,290,105138,5,2,0:0:0:0:
189,314,105296,2,0,B|223:301|223:301|318:318,1,93.75,0|10,0:0|0:0,0:0:0:0:
435,336,105612,1,0,0:0:0:0:
344,196,105770,6,0,L|354:290,1,93.75,2|2,0:0|0:0,0:0:0:0:
363,367,106006,1,2,0:0:0:0:
363,367,106085,1,10,0:0:0:0:
428,209,106243,5,0,0:0:0:0:
279,311,106401,1,2,0:0:0:0:
437,229,106559,5,0,0:0:0:0:
288,331,106717,2,0,P|231:341|180:245,1,140.625,8|0,0:0|2:0,0:0:0:0:
210,211,107033,6,0,L|198:134,3,46.875,14|0|2|0,0:0|0:0|0:0|0:0,0:0:0:0:
164,97,107349,2,0,L|176:174,3,46.875,10|0|2|0,0:0|0:0|0:0|0:0,0:0:0:0:
303,168,107664,6,0,L|315:91,3,46.875,10|0|2|0,0:0|0:0|0:0|0:0,0:0:0:0:
349,54,107980,2,0,L|337:131,3,46.875,10|0|2|0,0:0|0:0|0:0|0:0,0:0:0:0:
377,221,108296,5,14,0:0:0:0:
407,238,108374,1,0,0:0:0:0:
441,241,108453,1,2,0:0:0:0:
474,228,108532,1,0,0:0:0:0:
498,203,108612,2,0,P|501:174|488:139,3,46.875,10|0|2|0,0:0|0:0|0:0|0:0,0:0:0:0:
483,123,108928,5,10,0:0:0:0:
446,152,109006,1,0,0:0:0:0:
431,195,109085,1,2,0:0:0:0:
441,241,109164,1,0,0:0:0:0:
473,275,109243,2,0,L|415:284,1,46.875,10|0,0:0|0:0,0:0:0:0:
404,318,109401,2,0,L|357:325,1,46.875,0|0,0:0|0:0,0:0:0:0:
264,258,109559,6,0,P|257:235|256:212,1,46.875,14|0,0:0|0:0,0:0:0:0:
334,201,109717,2,0,P|340:223|341:246,1,46.875,10|0,0:0|0:0,0:0:0:0:
250,268,109875,6,0,P|244:241|242:213,1,56.2500021457673,10|0,0:0|0:0,0:0:0:0:
347,190,110033,2,0,P|353:217|355:245,1,56.2500021457673,10|0,0:0|0:0,0:0:0:0:
203,336,110191,5,14,0:0:0:0:
181,317,110269,1,2,0:0:0:0:
164,295,110348,1,10,0:0:0:0:
152,270,110427,1,2,0:0:0:0:
146,242,110506,1,10,0:0:0:0:
147,214,110585,1,2,0:0:0:0:
154,187,110664,1,10,0:0:0:0:
166,162,110743,1,2,0:0:0:0:
184,140,110822,6,0,L|262:149,1,56.2500021457673,2|0,0:0|0:0,0:0:0:0:
318,185,111138,1,0,0:0:0:0:
318,185,111217,1,0,0:0:0:0:
318,185,111296,1,0,0:0:0:0:
248,227,111454,1,0,0:0:0:0:
309,99,111612,2,0,L|387:108,1,56.2500021457673,0|0,0:0|0:0,0:0:0:0:
434,58,111928,6,0,L|485:63,1,37.5
