osu file format v14

[General]
AudioFilename: audio.mp3
AudioLeadIn: 0
PreviewTime: 71585
Countdown: 0
SampleSet: Soft
StackLeniency: 0.2
Mode: 0
LetterboxInBreaks: 0
WidescreenStoryboard: 1

[Editor]
DistanceSpacing: 1.6
BeatDivisor: 4
GridSize: 16
TimelineZoom: 1.9

[Metadata]
Title:Grayed Out -Antifront-
TitleUnicode:Grayed Out -Antifront-
Artist:Getty vs. DJ DiA
ArtistUnicode:Getty vs. DJ DiA
Creator:Realazy
Version:Achromatic
Source:BMS
Tags:Hakura xLolicore- Jager-kun toybot Ayyri Linada Pachiru Worminators HighTec LCFC LowComboFC わっふゑ vs. でこちんハンマー BOFU2016 - Legendary Again - SUPERALLOYS Pumpcore
BeatmapID:1477241
BeatmapSetID:578755

[Difficulty]
HPDrainRate:6
CircleSize:3.8
OverallDifficulty:9.3
ApproachRate:9.6
SliderMultiplier:1.96
SliderTickRate:1

[Events]
//Background and Video events
0,0,"why is this anime.jpg",0,0
//Break Periods
//Storyboard Layer 0 (Background)
//Storyboard Layer 1 (Fail)
//Storyboard Layer 2 (Pass)
//Storyboard Layer 3 (Foreground)
//Storyboard Sound Samples

[TimingPoints]
928,315.789473684211,4,2,1,50,1,0
928,-200,4,2,1,50,0,0
9770,-200,4,2,1,50,0,0
11033,-100,4,1,1,65,0,0
16085,-100,4,1,2,65,0,0
16243,-100,4,1,1,65,0,0
18612,-100,4,1,0,65,0,0
19875,-133.333333333333,4,1,1,60,0,0
20112,-133.333333333333,4,1,6,60,0,0
20664,-133.333333333333,4,1,1,55,0,0
20822,-133.333333333333,4,1,1,50,0,0
20980,-133.333333333333,4,1,1,45,0,0
21138,-100,4,1,1,65,0,0
22401,-100,4,1,1,70,0,0
23664,-100,4,1,1,75,0,0
24928,-100,4,1,1,80,0,0
25796,-100,4,1,1,80,0,0
25875,-83.3333333333333,4,1,4,55,0,0
26191,-100,4,1,1,75,0,0
29980,-74.0740740740741,4,1,2,70,0,0
30138,-74.0740740740741,4,1,2,5,0,0
30217,-74.0740740740741,4,1,2,70,0,0
30375,-74.0740740740741,4,1,2,5,0,0
30454,-74.0740740740741,4,1,2,70,0,0
30533,-74.0740740740741,4,1,2,5,0,0
30612,-74.0740740740741,4,1,2,70,0,0
30928,-200,4,1,1,40,0,0
31164,-200,4,1,1,5,0,0
31243,-100,4,1,1,70,0,0
31796,-100,4,1,1,5,0,0
31875,-100,4,1,1,70,0,0
32112,-100,4,1,1,5,0,0
32191,-100,4,1,1,70,0,0
32270,-100,4,1,1,5,0,0
32349,-100,4,1,1,70,0,0
32428,-100,4,1,1,5,0,0
32506,-100,4,1,1,70,0,0
32585,-100,4,1,1,5,0,0
32664,-100,4,1,1,70,0,0
32743,-100,4,1,1,5,0,0
32822,-100,4,1,1,70,0,0
32901,-100,4,1,1,5,0,0
32980,-100,4,1,1,70,0,0
33059,-100,4,1,1,5,0,0
33138,-100,4,1,1,70,0,0
33928,-100,4,1,1,70,0,0
34006,-100,4,1,1,5,0,0
34085,-100,4,1,1,70,0,0
34164,-100,4,1,1,5,0,0
34243,-100,4,1,1,70,0,0
34322,-100,4,1,1,5,0,0
34401,-100,4,1,1,70,0,0
34480,-100,4,1,1,5,0,0
34559,-100,4,1,1,70,0,0
35980,-285.714285714286,4,1,4,50,0,0
36217,-285.714285714286,4,1,4,5,0,0
36296,-200,4,1,1,70,0,0
36533,-200,4,1,1,5,0,0
36612,-100,4,1,1,70,0,0
37243,-100,4,1,1,50,0,0
37559,-100,4,1,1,70,0,0
38506,-100,4,1,1,50,0,0
38980,-100,4,1,1,70,0,0
41033,-80,4,1,4,50,0,0
41270,-80,4,1,4,5,0,0
41349,-200,4,1,6,70,0,0
41506,-100,4,1,2,70,0,0
41585,-100,4,1,2,5,0,0
41664,-100,4,1,2,70,0,0
43954,-100,4,1,2,5,0,0
44033,-100,4,1,2,70,0,0
46085,-79.9999999999999,4,1,2,70,0,0
46401,-100,4,1,2,70,0,0
50191,-100,4,1,2,60,0,0
50270,-100,4,1,2,5,0,0
50349,-100,4,1,2,60,0,0
50585,-100,4,1,1,5,0,0
50664,-100,4,1,2,60,0,0
50743,-100,4,1,1,5,0,0
50822,-100,4,1,2,60,0,0
50980,-100,4,1,4,60,0,0
51138,-133.333333333333,4,1,5,60,0,0
51454,-200,4,1,1,35,0,0
60296,-153.846153846153,4,1,2,40,0,0
60612,-153.846153846153,4,1,4,40,0,0
60928,-100,4,1,1,40,0,0
61559,-100,4,1,2,45,0,0
62822,-100,4,1,2,50,0,0
64085,-100,4,1,2,55,0,0
65349,-100,4,1,2,60,0,0
66296,-76.9230769230769,4,1,4,50,0,0
66612,-90.9090909090909,4,1,1,60,0,0
66691,-90.9090909090909,4,1,1,5,0,0
66770,-90.9090909090909,4,1,1,60,0,0
66849,-90.9090909090909,4,1,1,5,0,0
66928,-90.9090909090909,4,1,1,60,0,0
67006,-90.9090909090909,4,1,1,5,0,0
67085,-90.9090909090909,4,1,1,60,0,0
67164,-90.9090909090909,4,1,1,5,0,0
67243,-83.3333333333333,4,1,1,60,0,0
67322,-83.3333333333333,4,1,1,5,0,0
67401,-83.3333333333333,4,1,1,60,0,0
67480,-83.3333333333333,4,1,1,5,0,0
67559,-83.3333333333333,4,1,1,60,0,0
67638,-83.3333333333333,4,1,1,5,0,0
67717,-83.3333333333333,4,1,1,60,0,0
67796,-83.3333333333333,4,1,1,5,0,0
67875,-76.9230769230769,4,1,1,60,0,0
67954,-76.9230769230769,4,1,1,5,0,0
68033,-76.9230769230769,4,1,1,60,0,0
68112,-76.9230769230769,4,1,1,5,0,0
68191,-76.9230769230769,4,1,1,60,0,0
68270,-76.9230769230769,4,1,1,5,0,0
68349,-71.4285714285714,4,1,1,60,0,0
68428,-76.9230769230769,4,1,1,5,0,0
68506,-71.4285714285714,4,1,1,60,0,0
68585,-71.4285714285714,4,1,1,5,0,0
68664,-71.4285714285714,4,1,1,60,0,0
68743,-71.4285714285714,4,1,1,5,0,0
68822,-71.4285714285714,4,1,1,60,0,0
68901,-71.4285714285714,4,1,1,5,0,0
68980,-71.4285714285714,4,1,1,60,0,0
69059,-71.4285714285714,4,1,1,5,0,0
69138,-100,4,1,1,40,0,0
70401,-100,4,1,2,70,0,0
70559,-100,4,1,2,5,0,0
70638,-100,4,1,2,70,0,0
70796,-100,4,1,2,5,0,0
70875,-100,4,1,2,70,0,0
70954,-100,4,1,2,5,0,0
71033,-100,4,1,2,70,0,0
71349,-200,4,1,1,50,0,0
71664,-90.9090909090909,4,1,1,80,0,1
76401,-90.9090909090909,4,2,1,80,0,0
76717,-90.9090909090909,4,1,1,80,0,1
80585,-90.9090909090909,4,1,1,5,0,1
80664,-90.9090909090909,4,1,1,80,0,1
80901,-90.9090909090909,4,1,1,80,0,1
80980,-90.9090909090909,4,1,1,80,0,1
81454,-90.9090909090909,4,1,3,80,0,0
81770,-90.9090909090909,4,1,2,80,0,1
86506,-90.9090909090909,4,1,2,80,0,0
86822,-90.9090909090909,4,1,2,80,0,1
90612,-100,4,1,2,60,0,0
91559,-76.9230769230769,4,1,4,70,0,0
91875,-133.333333333333,4,1,6,70,0,0
92112,-133.333333333333,4,1,6,5,0,0
92191,-100,4,1,1,70,0,0
94401,-200,4,1,4,70,0,0
94638,-200,4,1,4,5,0,0
94717,-100,4,1,1,70,0,0
96928,-76.9230769230769,4,1,4,70,0,0
97164,-76.9230769230769,4,1,4,5,0,0
97243,-100,4,1,1,70,0,0
99454,-200,4,1,4,70,0,0
99691,-200,4,1,4,5,0,0
99770,-100,4,1,1,70,0,0
100717,-100,4,1,0,70,0,0
100875,-100,4,1,1,70,0,0
101664,-100,4,1,3,70,0,0
101980,-153.846153846153,4,1,6,70,0,0
102217,-153.846153846153,4,1,6,5,0,0
102296,-100,4,1,3,70,0,0
102454,-100,4,1,2,70,0,0
110822,-133.333333333333,4,1,1,40,0,0
111928,-133.333333333333,4,1,1,50,0,0

[Colours]
Combo1 : 141,141,141
Combo2 : 121,123,200
Combo3 : 253,225,168
Combo4 : 255,85,89

[HitObjects]
129,346,928,5,6,0:1:0:0:
127,326,1559,1,2,0:1:0:0:
183,257,1875,1,0,0:0:0:0:
183,257,2033,1,0,0:0:0:0:
183,257,2191,5,2,0:1:0:0:
181,237,2822,1,2,0:1:0:0:
212,165,3138,2,0,L|203:116,1,49,0|0,0:0|0:1,0:0:0:0:
282,201,3454,5,2,0:1:0:0:
301,197,4085,1,2,0:1:0:0:
320,193,4717,1,2,0:1:0:0:
339,189,5349,1,2,0:1:0:0:
389,92,5980,5,6,0:1:0:0:
369,94,6612,1,2,0:1:0:0:
300,38,6928,1,0,0:0:0:0:
300,38,7085,1,0,0:0:0:0:
300,38,7243,5,2,0:1:0:0:
280,40,7875,1,2,0:1:0:0:
231,102,8191,2,0,L|247:148,1,49
163,62,8506,5,2,0:1:0:0:
144,68,9138,1,2,0:1:0:0:
125,74,9770,5,8,0:0:0:0:
87,247,9928,1,0,0:0:0:0:
192,179,10085,1,0,0:0:0:0:
184,177,10164,1,0,0:0:0:0:
176,175,10243,1,0,0:0:0:0:
20,141,10401,1,0,0:0:0:0:
87,247,10559,5,2,0:2:0:0:
195,103,10717,1,0,0:0:0:0:
87,247,10875,1,2,0:2:0:0:
143,4,11033,5,6,0:0:0:0:
308,108,11191,1,0,0:0:0:0:
307,98,11270,1,0,0:0:0:0:
306,88,11349,1,2,0:0:0:0:
176,175,11506,2,0,L|185:273,1,98,2|2,0:2|0:0,0:0:0:0:
309,118,11822,2,0,L|300:216,1,98,2|2,0:2|0:0,0:0:0:0:
176,61,12138,1,2,0:2:0:0:
87,247,12296,6,0,P|63:255|39:256,1,49,2|0,0:0|0:0,0:0:0:0:
176,175,12454,1,0,0:0:0:0:
176,175,12533,1,0,0:0:0:0:
176,175,12612,2,0,P|200:176|223:184,1,49,2|0,0:0|0:0,0:0:0:0:
406,289,12770,2,0,B|370:274|334:289|334:289|298:304|262:289,1,147,2|0,0:2|0:0,0:0:0:0:
263,290,13085,1,2,0:2:0:0:
393,167,13243,1,2,0:0:0:0:
369,364,13401,1,2,0:2:0:0:
393,167,13559,5,2,0:0:0:0:
191,258,13717,1,0,0:0:0:0:
192,248,13796,1,0,0:0:0:0:
192,238,13875,1,2,0:0:0:0:
355,289,14033,2,0,P|308:303|262:289,1,98,2|2,0:2|0:0,0:0:0:0:
146,167,14349,2,0,P|192:152|238:166,1,98,2|2,0:2|0:0,0:0:0:0:
29,288,14664,1,2,0:2:0:0:
29,142,14822,6,0,L|33:94,1,49,2|0,0:0|0:0,0:0:0:0:
150,215,14980,1,0,0:0:0:0:
150,215,15059,1,0,0:0:0:0:
150,215,15138,2,0,L|146:167,1,49,2|0,0:0|0:0,0:0:0:0:
29,288,15296,2,0,B|83:288|83:288|118:305|118:305|171:305,1,147,2|0,0:2|0:0,0:0:0:0:
171,305,15612,1,2,0:2:0:0:
29,142,15770,1,2,0:0:0:0:
50,378,15928,1,2,0:2:0:0:
238,166,16085,5,4,0:0:0:0:
351,298,16243,1,0,0:0:0:0:
358,291,16322,1,0,0:0:0:0:
365,284,16401,2,0,P|368:259|366:235,1,49,2|0,0:0|0:0,0:0:0:0:
284,95,16559,2,0,B|238:81|238:81|189:93,1,98,2|2,0:2|0:0,0:0:0:0:
322,170,16875,2,0,B|357:137|357:137|370:89,1,98,2|2,0:2|0:0,0:0:0:0:
238,166,17191,2,0,B|248:212,1,49,2|0,0:2|0:0,0:0:0:0:
182,336,17349,6,0,P|158:329|134:329,1,49,2|0,0:0|0:0,0:0:0:0:
10,222,17506,1,0,0:0:0:0:
10,222,17585,1,0,0:0:0:0:
10,222,17664,2,0,P|33:228|57:228,1,49,2|0,0:0|0:0,0:0:0:0:
168,119,17822,2,0,P|229:82|297:105,1,147,2|0,0:2|0:0,0:0:0:0:
297,105,18138,1,2,0:2:0:0:
167,264,18296,1,2,0:0:0:0:
97,72,18454,1,2,0:2:0:0:
167,264,18612,5,4,0:0:0:0:
203,289,18691,1,0,0:0:0:0:
246,298,18770,1,0,0:0:0:0:
289,288,18849,1,0,0:0:0:0:
324,259,18928,1,0,0:0:0:0:
345,219,19006,1,0,0:0:0:0:
346,176,19085,1,2,0:2:0:0:
329,135,19164,1,0,0:0:0:0:
297,105,19243,5,4,0:0:0:0:
347,131,19322,1,0,0:0:0:0:
378,179,19401,1,2,0:2:0:0:
382,235,19480,1,0,0:0:0:0:
358,287,19559,1,0,0:0:0:0:
314,321,19638,1,0,0:0:0:0:
257,328,19717,1,2,0:2:0:0:
203,309,19796,1,0,0:0:0:0:
167,264,19875,6,0,P|159:228|170:193,1,73.5000028038026,4|0,0:0|0:0,0:0:0:0:
304,197,20112,2,0,P|276:221|241:229,1,73.5000028038026,2|0,0:0|0:0,0:0:0:0:
178,112,20349,1,0,0:0:0:0:
178,112,20664,1,0,0:0:0:0:
134,117,20822,1,0,0:0:0:0:
97,121,20980,1,0,0:0:0:0:
373,19,21138,6,0,L|382:116,1,98,2|0,0:0|0:0,0:0:0:0:
385,141,21375,1,0,0:0:0:0:
387,162,21454,1,2,0:0:0:0:
289,241,21612,2,0,L|298:143,1,98,2|2,0:2|0:0,0:0:0:0:
486,85,21928,2,0,L|476:182,1,98,2|2,0:2|0:0,0:0:0:0:
474,207,22164,1,0,0:0:0:0:
472,228,22243,1,2,0:2:0:0:
405,374,22401,5,2,0:0:0:0:
297,249,22559,1,0,0:0:0:0:
297,249,22638,1,0,0:0:0:0:
297,249,22717,1,2,0:0:0:0:
183,342,22875,2,0,P|135:353|89:337,1,98,2|2,0:2|0:0,0:0:0:0:
247,168,23191,2,0,P|294:157|340:173,1,98,2|2,0:2|0:0,0:0:0:0:
137,265,23506,1,2,0:2:0:0:
141,269,23664,5,2,0:0:0:0:
253,75,23822,1,0,0:0:0:0:
253,75,23901,1,0,0:0:0:0:
253,75,23980,1,2,0:0:0:0:
390,258,24138,2,0,B|340:266|340:266|296:248,1,98,2|2,0:2|0:0,0:0:0:0:
183,342,24454,2,0,B|233:350|233:350|276:332,1,98,2|2,0:2|0:0,0:0:0:0:
47,257,24770,1,2,0:2:0:0:
51,261,24928,5,2,0:0:0:0:
304,256,25085,1,0,0:0:0:0:
304,256,25164,1,0,0:0:0:0:
304,256,25243,1,2,0:0:0:0:
97,158,25401,2,0,L|-1:169,1,98,2|2,0:2|0:0,0:0:0:0:
259,153,25717,2,0,L|307:158,1,49,2|0,0:2|0:0,0:0:0:0:
476,158,25875,6,0,B|440:147|405:165|405:165|377:150|377:150|341:168|306:158,1,176.399994616699,4|0,0:0|0:0,0:0:0:0:
449,310,26191,6,0,L|448:261,1,49,4|0,0:0|0:0,0:0:0:0:
402,28,26349,2,0,L|402:77,1,49,0|0,0:0|0:0,0:0:0:0:
410,36,26506,2,0,L|410:85,1,49,0|0,0:0|0:0,0:0:0:0:
361,323,26664,6,0,L|361:267,1,49,4|0,0:0|0:0,0:0:0:0:
315,14,26822,2,0,L|315:69,1,49,0|0,0:0|0:0,0:0:0:0:
323,24,26980,2,0,L|323:79,1,49,0|0,0:0|0:0,0:0:0:0:
274,337,27138,6,0,L|274:281,1,49,4|0,0:0|0:0,0:0:0:0:
229,0,27296,2,0,L|229:61,1,49,0|0,0:0|0:0,0:0:0:0:
188,351,27454,5,4,0:0:0:0:
175,365,27533,1,0,0:0:0:0:
155,378,27612,1,0,0:0:0:0:
128,384,27691,1,0,0:0:0:0:
96,378,27770,1,0,0:0:0:0:
67,358,27849,1,0,0:0:0:0:
49,322,27928,1,4,0:0:0:0:
55,279,28006,1,0,0:0:0:0:
85,243,28085,5,0,0:0:0:0:
135,231,28164,1,0,0:0:0:0:
189,235,28243,1,0,0:0:0:0:
239,266,28322,1,0,0:0:0:0:
290,302,28401,1,4,0:0:0:0:
356,300,28480,1,0,0:0:0:0:
399,243,28559,1,0,0:0:0:0:
373,173,28638,1,0,0:0:0:0:
294,158,28717,5,2,0:0:0:0:
294,158,29980,6,0,B|322:223|322:223|300:291,1,132.300000504684,8|0,2:1|0:0,0:0:0:0:
115,301,30217,2,0,B|157:242|157:242|227:227,1,132.300000504684,8|0,2:1|0:0,0:0:0:0:
329,384,30454,2,0,L|258:375,1,66.1500002523422,8|0,2:1|0:0,0:0:0:0:
354,220,30612,5,8,2:1:0:0:
425,229,30691,1,0,0:0:0:0:
497,238,30770,1,0,0:0:0:0:
490,223,30849,1,0,0:0:0:0:
483,207,30928,6,0,P|473:169|477:129,1,73.5,0|0,0:0|0:0,0:0:0:0:
507,22,31243,5,2,0:0:0:0:
507,22,31559,6,0,L|360:31,1,147,2|0,0:0|0:0,0:0:0:0:
512,34,31875,2,0,L|365:43,1,147,2|0,0:0|0:0,0:0:0:0:
392,206,32191,6,0,P|396:182|393:157,1,49,2|0,0:0|0:0,0:0:0:0:
291,4,32349,2,0,P|286:27|289:52,1,49,0|0,0:0|0:0,0:0:0:0:
384,214,32506,6,0,P|388:190|385:165,1,49,2|0,0:0|0:0,0:0:0:0:
283,12,32664,2,0,P|278:35|281:60,1,49,0|0,0:0|0:0,0:0:0:0:
376,222,32822,6,0,P|380:198|377:173,1,49,2|0,0:0|0:0,0:0:0:0:
275,20,32980,2,0,P|270:43|273:68,1,49,0|0,0:0|0:0,0:0:0:0:
368,229,33138,5,2,0:0:0:0:
327,256,33217,1,0,0:0:0:0:
279,265,33296,1,0,0:0:0:0:
232,253,33375,1,0,0:0:0:0:
193,224,33454,2,0,P|172:211|148:207,1,49,2|0,0:0|0:0,0:0:0:0:
17,240,33612,1,0,0:0:0:0:
17,240,33928,6,0,L|65:234,1,49,0|0,0:0|0:0,0:0:0:0:
176,108,34085,2,0,L|127:113,1,49,2|0,0:0|0:0,0:0:0:0:
25,247,34243,6,0,L|73:241,1,49,0|0,0:0|0:0,0:0:0:0:
184,115,34401,2,0,L|135:120,1,49,2|0,0:0|0:0,0:0:0:0:
34,254,34559,5,0,0:0:0:0:
43,261,34638,1,0,0:0:0:0:
51,269,34717,1,2,0:0:0:0:
100,264,34796,1,0,0:0:0:0:
149,260,34875,2,0,L|197:254,1,49,0|0,0:0|0:0,0:0:0:0:
341,381,35033,6,0,P|335:357|337:332,1,49,2|0,0:0|0:0,0:0:0:0:
440,173,35191,1,2,0:0:0:0:
440,173,35270,1,0,0:0:0:0:
440,173,35349,2,0,P|445:196|443:221,1,49,2|0,0:0|0:0,0:0:0:0:
260,375,35506,6,0,P|254:351|256:326,1,49,0|0,0:0|0:0,0:0:0:0:
359,167,35664,2,0,P|364:190|362:215,1,49,0|0,0:0|0:0,0:0:0:0:
179,369,35822,1,2,0:0:0:0:
179,369,35901,1,0,0:0:0:0:
179,369,35980,6,0,L|127:368,1,51.4499984298707,4|0,0:0|0:0,0:0:0:0:
16,298,36296,6,0,L|89:299,1,73.5,0|0,0:0|0:0,0:0:0:0:
219,205,36612,5,2,0:0:0:0:
191,165,36691,1,0,0:0:0:0:
144,180,36770,1,0,0:0:0:0:
144,229,36849,1,0,0:0:0:0:
191,245,36928,6,0,P|194:270|189:293,1,49,2|0,0:0|0:0,0:0:0:0:
67,200,37085,2,0,P|64:175|69:152,1,49,0|0,0:0|0:0,0:0:0:0:
162,43,37243,2,0,L|154:20,6,24.5,2|0|0|0|0|0|0,0:0|0:0|0:0|0:0|0:0|0:0|0:0,0:0:0:0:
231,99,37559,6,0,P|256:95|280:97,1,49,2|0,0:0|0:0,0:0:0:0:
267,202,37717,2,0,P|242:206|218:204,1,49,0|0,0:0|0:0,0:0:0:0:
162,43,37875,5,2,0:0:0:0:
205,18,37954,1,0,0:0:0:0:
253,8,38033,1,0,0:0:0:0:
301,15,38112,1,0,0:0:0:0:
345,36,38191,2,0,L|393:31,1,49,2|0,0:0|0:0,0:0:0:0:
512,174,38349,5,0,0:0:0:0:
438,167,38427,1,0,0:0:0:0:
364,160,38506,2,0,L|341:162,6,24.5,2|0|0|0|0|0|0,0:0|0:0|0:0|0:0|0:0|0:0|0:0,0:0:0:0:
340,162,38980,6,0,P|345:185|343:210,1,49,0|0,0:0|0:0,0:0:0:0:
210,329,39138,2,0,P|227:312|250:302,1,49,2|0,0:0|0:0,0:0:0:0:
420,359,39296,2,0,P|396:351|376:337,1,49,0|0,0:0|0:0,0:0:0:0:
253,229,39454,5,2,0:0:0:0:
246,222,39533,1,0,0:0:0:0:
239,215,39612,5,2,0:0:0:0:
225,272,39691,1,0,0:0:0:0:
210,329,39770,6,0,L|222:376,1,49,2|0,0:0|0:0,0:0:0:0:
140,216,39928,2,0,L|127:263,1,49,0|0,0:0|0:0,0:0:0:0:
210,103,40085,5,2,0:0:0:0:
210,103,40164,1,0,0:0:0:0:
210,103,40243,2,0,P|187:108|162:107,1,49,2|0,0:0|0:0,0:0:0:0:
314,0,40401,5,2,0:0:0:0:
314,0,40480,1,0,0:0:0:0:
314,0,40559,2,0,P|338:-1|362:3,1,49,2|0,0:0|0:0,0:0:0:0:
466,106,40717,5,2,0:0:0:0:
463,154,40796,1,0,0:0:0:0:
386,213,40875,5,2,0:0:0:0:
389,261,40954,1,0,0:0:0:0:
465,319,41033,6,0,P|465:239|388:261,1,183.75,4|0,0:0|0:0,0:0:0:0:
376,330,41349,6,0,P|390:297|388:261,1,73.5,2|0,0:0|0:0,0:0:0:0:
315,128,41664,5,14,0:0:0:0:
196,380,41822,5,0,0:0:0:0:
187,356,41979,1,2,0:0:0:0:
68,104,42138,5,0,0:0:0:0:
187,356,42296,5,10,0:0:0:0:
196,332,42453,1,0,0:0:0:0:
315,80,42612,5,2,0:0:0:0:
196,332,42770,5,0,0:0:0:0:
187,308,42927,1,10,0:0:0:0:
68,56,43085,5,0,0:0:0:0:
187,308,43243,5,2,0:0:0:0:
187,308,43559,5,10,0:0:0:0:
212,313,43638,1,0,0:0:0:0:
279,351,43717,5,0,0:0:0:0:
304,356,43796,1,0,0:0:0:0:
377,382,43875,5,0,0:0:0:0:
386,358,44032,1,0,0:0:0:0:
505,90,44191,5,10,0:0:0:0:
386,358,44349,5,0,0:0:0:0:
377,334,44506,1,2,0:0:0:0:
262,65,44665,5,0,0:0:0:0:
377,334,44823,5,10,0:0:0:0:
386,310,44980,1,0,0:0:0:0:
505,42,45138,5,2,0:0:0:0:
377,286,45296,5,2,0:0:0:0:
377,334,45375,1,0,0:0:0:0:
377,382,45454,5,10,0:0:0:0:
133,276,45612,1,0,0:0:0:0:
344,139,45770,5,2,0:0:0:0:
245,378,45928,1,0,0:0:0:0:
241,83,46085,6,0,P|173:81|231:119,1,183.75,8|0,0:0|0:0,0:0:0:0:
358,40,46401,6,0,L|309:41,1,49,14|0,0:0|0:0,0:0:0:0:
333,214,46559,2,0,L|381:212,1,49,2|0,0:0|0:0,0:0:0:0:
230,119,46717,6,0,L|181:120,1,49,10|0,0:0|0:0,0:0:0:0:
205,293,46875,2,0,L|253:291,1,49,2|0,0:0|0:0,0:0:0:0:
102,198,47033,6,0,L|53:199,1,49,10|0,0:0|0:0,0:0:0:0:
77,372,47191,2,0,L|125:370,1,49,2|0,0:0|0:0,0:0:0:0:
345,322,47349,5,10,0:0:0:0:
295,317,47427,1,0,0:0:0:0:
253,291,47506,1,2,0:0:0:0:
232,249,47585,1,0,0:0:0:0:
232,200,47664,6,0,L|233:151,1,49,14|0,0:0|0:0,0:0:0:0:
419,95,47822,2,0,L|417:143,1,49,2|0,0:0|0:0,0:0:0:0:
140,228,47980,6,0,L|141:179,1,49,10|0,0:0|0:0,0:0:0:0:
327,123,48138,2,0,L|325:171,1,49,2|0,0:0|0:0,0:0:0:0:
251,339,48296,5,10,0:0:0:0:
251,339,48375,1,0,0:0:0:0:
251,339,48454,2,0,L|252:290,1,49,2|0,0:0|0:0,0:0:0:0:
425,184,48612,2,0,L|423:232,1,49,10|0,0:0|0:0,0:0:0:0:
260,74,48770,1,2,0:0:0:0:
260,74,48849,1,0,0:0:0:0:
260,74,48928,6,0,L|259:25,1,49,14|0,0:0|0:0,0:0:0:0:
33,194,49085,2,0,L|32:145,1,49,10|0,0:0|0:0,0:0:0:0:
253,87,49243,6,0,L|252:38,1,49,10|0,0:0|0:0,0:0:0:0:
26,207,49401,2,0,L|25:158,1,49,10|0,0:0|0:0,0:0:0:0:
250,343,49559,5,14,0:0:0:0:
295,303,49637,1,2,0:0:0:0:
353,286,49716,1,2,0:0:0:0:
413,297,49795,1,2,0:0:0:0:
470,350,49875,5,10,0:0:0:0:
413,297,49953,1,2,0:0:0:0:
395,223,50032,1,10,0:0:0:0:
414,149,50111,1,2,0:0:0:0:
483,61,50191,6,0,L|432:63,1,49,14|0,0:0|0:0,0:0:0:0:
252,38,50349,1,0,0:0:0:0:
252,38,50428,1,0,0:0:0:0:
252,38,50506,2,0,L|301:40,1,49,0|0,0:0|0:0,0:0:0:0:
414,149,50664,2,0,L|363:151,1,49,8|0,0:0|0:0,0:0:0:0:
155,165,50822,5,8,0:0:0:0:
195,95,50901,1,0,0:0:0:0:
273,114,50980,1,2,0:0:0:0:
279,193,51059,1,0,0:0:0:0:
206,223,51138,2,0,P|190:279|207:335,1,110.250004205704,2|0,0:0|0:0,0:0:0:0:
280,382,51454,5,6,0:0:0:0:
284,362,52085,1,2,0:0:0:0:
288,341,52717,6,0,P|293:293|271:250,1,98,0|0,0:0|0:0,0:0:0:0:
116,333,53191,1,0,0:0:0:0:
116,333,53349,2,0,L|211:309,1,98,2|0,0:0|0:0,0:0:0:0:
210,309,53980,6,0,L|203:260,1,49,2|0,0:0|0:0,0:0:0:0:
129,205,54296,2,0,L|122:254,1,49,0|0,0:0|0:0,0:0:0:0:
203,149,54612,2,0,P|250:157|294:138,1,98,2|0,0:0|0:0,0:0:0:0:
236,26,55085,1,0,0:0:0:0:
236,26,55243,6,0,L|239:74,2,49,2|0|0,0:0|0:0|0:0,0:0:0:0:
294,138,55717,1,0,0:0:0:0:
294,138,55875,2,0,B|341:124|341:124|387:139,1,98,2|0,0:0|0:0,0:0:0:0:
387,139,56506,6,0,L|403:235,1,98,6|0,0:0|0:0,0:0:0:0:
291,315,56980,1,0,0:0:0:0:
291,315,57138,2,0,L|307:219,1,98,2|0,0:0|0:0,0:0:0:0:
307,218,57770,6,0,P|260:233|214:219,1,98,2|0,0:0|0:0,0:0:0:0:
161,91,58243,1,0,0:0:0:0:
161,91,58401,2,0,P|207:76|253:90,1,98,2|0,0:0|0:0,0:0:0:0:
253,90,59033,6,0,L|259:138,1,49,2|0,0:0|0:0,0:0:0:0:
141,216,59349,2,0,L|147:167,1,49,0|0,0:0|0:0,0:0:0:0:
259,293,59664,2,0,P|305:305|351:288,1,98,2|0,0:0|0:0,0:0:0:0:
302,221,60138,1,0,0:0:0:0:
160,352,60296,6,0,P|144:351|128:351,1,31.8499985420228,2|0,0:0|0:0,0:0:0:0:
0,269,60454,1,8,0:0:0:0:
0,269,60533,1,0,0:0:0:0:
0,269,60612,2,0,P|24:288|55:295,1,63.6999970840455,4|0,0:0|0:0,0:0:0:0:
145,114,60928,5,2,0:0:0:0:
124,126,61006,1,0,0:0:0:0:
103,139,61085,1,0,0:0:0:0:
82,152,61164,1,0,0:0:0:0:
61,164,61243,2,0,L|62:212,1,49,2|0,0:0|0:0,0:0:0:0:
160,352,61401,2,0,L|161:303,1,49,0|0,0:0|0:0,0:0:0:0:
257,146,61559,6,0,B|350:135|350:135|397:161,1,147,4|0,0:0|0:0,0:0:0:0:
333,215,61875,1,2,0:0:0:0:
459,105,62033,1,0,0:0:0:0:
400,280,62191,1,2,0:0:0:0:
459,105,62349,1,0,0:0:0:0:
499,303,62506,1,2,0:0:0:0:
459,105,62664,1,0,0:0:0:0:
310,305,62822,5,2,0:0:0:0:
186,131,62980,1,0,0:0:0:0:
186,131,63059,1,0,0:0:0:0:
186,131,63138,2,0,L|184:179,1,49,2|0,0:0|0:0,0:0:0:0:
86,309,63296,2,0,B|131:283|131:283|176:291,1,98,2|2,0:2|0:0,0:0:0:0:
372,362,63612,2,0,B|327:388|327:388|281:380,1,98,2|2,0:2|0:0,0:0:0:0:
369,184,63928,1,2,0:2:0:0:
502,373,64085,5,2,0:0:0:0:
316,295,64243,1,0,0:0:0:0:
316,295,64322,1,0,0:0:0:0:
316,295,64401,2,0,L|359:271,1,49,2|0,0:0|0:0,0:0:0:0:
445,138,64559,2,0,P|457:184|443:231,1,98,2|2,0:2|0:0,0:0:0:0:
231,343,64875,2,0,P|219:297|233:250,1,98,2|2,0:2|0:0,0:0:0:0:
372,96,65191,1,2,0:2:0:0:
358,271,65349,5,2,0:0:0:0:
196,121,65506,1,0,0:0:0:0:
196,121,65585,1,0,0:0:0:0:
196,121,65664,2,0,B|201:147|196:169,1,49,2|0,0:0|0:0,0:0:0:0:
27,156,65822,2,0,L|124:147,1,98,2|2,0:2|0:0,0:0:0:0:
231,366,66138,2,0,L|182:361,1,49,2|0,0:2|0:0,0:0:0:0:
320,306,66296,6,0,P|360:364|357:293,1,191.099991252137,2|0,0:0|0:0,0:0:0:0:
202,251,66612,6,0,L|149:262,1,53.9000016448975,6|0,0:0|0:0,0:0:0:0:
88,49,66770,2,0,L|140:60,1,53.9000016448975,0|0,0:0|0:0,0:0:0:0:
254,262,66928,2,0,L|201:250,1,53.9000016448975,0|0,0:0|0:0,0:0:0:0:
445,78,67085,6,0,P|456:102|459:128,1,53.9000016448975,6|0,0:0|0:0,0:0:0:0:
319,306,67243,2,0,P|331:279|332:249,1,58.7999982055665
458,22,67401,2,0,P|446:48|445:78,1,58.7999982055665
509,217,67559,6,0,B|478:222|478:222|450:217,1,58.7999982055665,6|0,0:0|0:0,0:0:0:0:
247,70,67717,2,0,B|278:65|278:65|305:69,1,58.7999982055665,0|0,0:0|0:0,0:0:0:0:
121,258,67875,6,0,L|118:324,1,63.6999970840455,6|0,0:0|0:0,0:0:0:0:
295,174,68033,2,0,L|352:141,1,63.6999970840455,0|0,0:0|0:0,0:0:0:0:
136,63,68191,2,0,L|78:28,1,63.6999970840455,0|0,0:0|0:0,0:0:0:0:
289,305,68349,6,8,P|256:290|231:264,1,68.5999979064942,6|8,0:0|0:0,0:0:0:0:
251,3,68506,2,0,P|255:37|245:72,1,68.5999979064942
7,184,68665,2,0,P|35:162|70:153,1,68.5999979064942,0|0,0:0|0:0,0:0:0:0:
295,373,68822,6,0,L|288:304,1,68.5999979064942,6|0,0:0|0:0,0:0:0:0:
0,261,68980,2,0,L|6:329,1,68.5999979064942,6|0,0:0|0:0,0:0:0:0:
199,162,69138,5,4,0:0:0:0:
196,152,69296,1,0,0:0:0:0:
187,147,69454,1,0,0:0:0:0:
176,149,69611,1,0,0:0:0:0:
170,156,69769,1,0,0:0:0:0:
170,167,69927,1,0,0:0:0:0:
176,175,70085,1,0,0:0:0:0:
187,176,70243,1,0,0:0:0:0:
194,170,70401,6,0,P|242:154|292:163,1,98,8|0,0:0|0:0,0:0:0:0:
304,363,70638,2,0,P|266:327|249:279,1,98,8|0,0:0|0:0,0:0:0:0:
416,171,70875,2,0,P|412:196|403:220,1,49,8|0,0:0|0:0,0:0:0:0:
196,359,71033,5,8,0:0:0:0:
127,340,71111,1,0,0:0:0:0:
58,364,71191,5,0,0:0:0:0:
65,346,71270,1,0,0:0:0:0:
72,326,71349,6,0,P|75:290|68:254,1,73.5,0|0,0:0|0:0,0:0:0:0:
1,117,71664,5,2,0:0:0:0:
250,178,71822,1,0,0:0:0:0:
250,178,71901,1,0,0:0:0:0:
250,178,71980,2,0,L|197:191,1,53.9000016448975,2|0,0:0|0:0,0:0:0:0:
84,86,72138,2,0,L|189:108,1,107.800003289795,2|2,0:2|0:0,0:0:0:0:
311,295,72454,2,0,L|205:272,1,107.800003289795,2|2,0:2|0:0,0:0:0:0:
335,130,72770,1,2,0:2:0:0:
360,358,72928,6,0,P|336:371|309:374,1,53.9000016448975,2|0,0:0|0:0,0:0:0:0:
207,315,73085,5,0,0:0:0:0:
205,272,73164,1,0,0:0:0:0:
251,199,73243,5,2,0:0:0:0:
253,156,73322,1,0,0:0:0:0:
206,81,73401,6,0,P|283:73|335:130,1,161.700004934693,2|0,0:2|0:0,0:0:0:0:
341,235,73717,1,2,0:2:0:0:
337,17,73875,1,2,0:0:0:0:
341,235,74033,1,2,0:2:0:0:
0,189,74191,6,0,P|50:172|101:186,1,107.800003289795,2|0,0:0|0:0,0:0:0:0:
118,201,74428,1,0,0:0:0:0:
133,216,74506,1,2,0:0:0:0:
57,367,74664,2,0,B|39:316|39:316|52:264,1,107.800003289795,2|2,0:2|0:0,0:0:0:0:
200,162,74980,2,0,B|218:213|218:213|204:264,1,107.800003289795,2|2,0:2|0:0,0:0:0:0:
52,59,75296,1,2,0:2:0:0:
168,330,75454,6,0,P|194:339|221:338,1,53.9000016448975,2|0,0:0|0:0,0:0:0:0:
343,279,75612,5,0,0:0:0:0:
341,235,75691,1,0,0:0:0:0:
278,175,75770,5,2,0:0:0:0:
280,131,75849,1,0,0:0:0:0:
343,71,75928,6,0,B|284:85|284:85|188:52,1,161.700004934693,2|0,0:2|0:0,0:0:0:0:
88,11,76243,5,0,0:0:0:0:
122,96,76401,1,2,0:0:0:0:
31,82,76559,1,2,0:0:0:0:
287,0,76717,5,2,0:0:0:0:
180,207,76875,1,0,0:0:0:0:
180,207,76954,1,0,0:0:0:0:
180,207,77033,1,2,0:0:0:0:
88,10,77191,2,0,P|141:7|188:31,1,107.800003289795,2|2,0:2|0:0,0:0:0:0:
213,292,77506,2,0,P|159:296|112:271,1,107.800003289795,2|2,0:2|0:0,0:0:0:0:
325,94,77822,1,2,0:2:0:0:
220,345,77980,6,0,L|212:291,1,53.9000016448975,2|0,0:0|0:0,0:0:0:0:
270,220,78138,5,0,0:0:0:0:
312,226,78216,1,0,0:0:0:0:
387,181,78296,5,2,0:0:0:0:
430,187,78374,1,0,0:0:0:0:
503,141,78454,6,0,P|510:218|453:271,1,161.700004934693,2|0,0:2|0:0,0:0:0:0:
368,333,78770,1,2,0:2:0:0:
311,137,78928,1,2,0:0:0:0:
368,333,79085,1,2,0:2:0:0:
440,63,79243,6,0,L|333:46,1,107.800003289795,2|0,0:0|0:0,0:0:0:0:
313,54,79480,1,0,0:0:0:0:
293,62,79559,1,2,0:0:0:0:
130,257,79717,2,0,P|181:267|229:245,1,107.800003289795,2|2,0:2|0:0,0:0:0:0:
218,57,80033,2,0,P|166:46|118:68,1,107.800003289795,2|2,0:2|0:0,0:0:0:0:
311,137,80349,1,0,0:0:0:0:
53,278,80506,6,0,P|51:251|57:224,1,53.9000016448975,2|0,0:0|0:0,0:0:0:0:
311,137,80664,1,0,0:0:0:0:
345,202,80742,1,0,0:0:0:0:
332,276,80822,2,0,P|328:302|334:328,1,53.9000016448975,2|0,0:0|0:0,0:0:0:0:
324,63,80980,2,0,P|328:37|322:11,1,53.9000016448975,0|0,0:0|0:0,0:0:0:0:
118,183,81138,5,2,0:0:0:0:
118,183,81217,1,0,0:0:0:0:
118,183,81296,2,0,L|171:183,1,53.9000016448975,0|0,0:0|0:0,0:0:0:0:
484,155,81454,5,10,0:0:0:0:
39,153,81612,1,10,0:0:0:0:
387,106,81770,5,4,0:0:0:0:
257,321,81928,1,0,0:0:0:0:
257,321,82006,1,0,0:0:0:0:
257,321,82085,1,10,0:0:0:0:
136,104,82243,2,0,P|188:98|234:125,1,107.800003289795,2|2,0:2|0:0,0:0:0:0:
403,263,82559,1,2,0:2:0:0:
171,183,82717,1,10,0:0:0:0:
400,32,82875,1,2,0:2:0:0:
133,52,83033,6,0,P|139:78|136:104,1,53.9000016448975,2|0,0:0|0:0,0:0:0:0:
64,244,83191,5,0,0:0:0:0:
106,240,83269,1,0,0:0:0:0:
171,183,83349,5,10,0:0:0:0:
213,187,83427,1,0,0:0:0:0:
278,244,83506,6,0,B|390:235|390:235|350:264,1,161.700004934693,2|0,0:2|0:0,0:0:0:0:
303,341,83822,1,2,0:2:0:0:
331,143,83980,1,10,0:0:0:0:
303,341,84138,2,0,L|249:336,1,53.9000016448975,2|0,0:2|0:0,0:0:0:0:
109,382,84296,6,0,P|130:333|125:280,1,107.800003289795,2|0,0:0|0:0,0:0:0:0:
116,260,84533,1,0,0:0:0:0:
106,240,84612,1,10,0:0:0:0:
13,109,84770,2,0,B|5:161|5:161|24:212,1,107.800003289795,2|2,0:2|0:0,0:0:0:0:
267,120,85085,2,0,B|275:68|275:68|255:16,1,107.800003289795,2|10,0:2|0:0,0:0:0:0:
106,240,85401,1,2,0:2:0:0:
360,55,85559,6,0,B|414:63,1,53.9000016448975,2|0,0:0|0:0,0:0:0:0:
322,261,85717,1,2,0:0:0:0:
294,190,85795,1,2,0:0:0:0:
267,120,85875,2,0,B|275:66,1,53.9000016448975,10|0,0:0|0:0,0:0:0:0:
349,331,86033,2,0,B|341:416,1,53.9000016448975,2|0,0:2|0:0,0:0:0:0:
106,240,86191,6,0,B|160:248,1,53.9000016448975,2|0,0:0|0:0,0:0:0:0:
421,207,86349,2,0,B|367:199,1,53.9000016448975,2|0,0:2|0:0,0:0:0:0:
100,142,86506,1,10,0:0:0:0:
99,131,86584,1,0,0:0:0:0:
98,120,86663,1,0,0:0:0:0:
97,109,86742,1,0,0:0:0:0:
97,99,86822,6,0,L|103:45,1,53.9000016448975,14|0,0:0|0:0,0:0:0:0:
259,145,86980,2,0,L|252:91,1,53.9000016448975,2|0,0:0|0:0,0:0:0:0:
60,242,87138,6,0,L|39:192,1,53.9000016448975,10|0,0:0|0:0,0:0:0:0:
306,256,87296,2,0,L|326:206,1,53.9000016448975,2|0,0:0|0:0,0:0:0:0:
48,361,87454,6,0,L|5:328,1,53.9000016448975,10|0,0:0|0:0,0:0:0:0:
320,376,87612,2,0,L|362:343,1,53.9000016448975,2|0,0:0|0:0,0:0:0:0:
406,162,87770,5,10,0:0:0:0:
366,123,87849,1,0,0:0:0:0:
315,149,87927,1,2,0:0:0:0:
326,205,88006,1,0,0:0:0:0:
382,213,88085,6,0,L|435:222,1,53.9000016448975,14|0,0:0|0:0,0:0:0:0:
512,48,88243,2,0,L|462:59,1,53.9000016448975,2|0,0:0|0:0,0:0:0:0:
235,227,88401,6,0,L|288:236,1,53.9000016448975,10|0,0:0|0:0,0:0:0:0:
364,35,88559,2,0,L|311:45,1,53.9000016448975,2|0,0:0|0:0,0:0:0:0:
28,151,88717,5,10,0:0:0:0:
56,196,88796,1,0,0:0:0:0:
87,240,88875,6,0,L|140:249,1,53.9000016448975,2|0,0:0|0:0,0:0:0:0:
216,22,89033,2,0,L|163:32,1,53.9000016448975,10|0,0:0|0:0,0:0:0:0:
225,356,89191,5,2,0:0:0:0:
279,365,89269,1,0,0:0:0:0:
334,373,89349,6,0,L|383:352,1,53.9000016448975,14|0,0:0|0:0,0:0:0:0:
337,53,89506,2,0,L|287:73,1,53.9000016448975,10|0,0:0|0:0,0:0:0:0:
463,371,89664,6,0,L|512:350,1,53.9000016448975,10|0,0:0|0:0,0:0:0:0:
485,68,89822,2,0,L|435:88,1,53.9000016448975,10|0,0:0|0:0,0:0:0:0:
116,293,89980,5,14,0:0:0:0:
45,258,90058,1,2,0:0:0:0:
25,182,90137,1,10,0:0:0:0:
69,118,90216,1,2,0:0:0:0:
147,109,90295,1,10,0:0:0:0:
205,162,90374,1,2,0:0:0:0:
261,215,90454,1,10,0:0:0:0:
339,206,90533,1,2,0:0:0:0:
383,140,90612,6,0,L|370:43,1,98,14|0,0:0|0:0,0:0:0:0:
486,105,90849,1,0,0:0:0:0:
486,105,90928,2,0,L|473:202,1,98,0|0,0:0|0:0,0:0:0:0:
404,335,91243,1,0,0:0:0:0:
339,206,91401,1,0,0:0:0:0:
112,313,91559,6,0,P|147:229|238:223,1,191.099991252137,2|0,0:0|0:0,0:0:0:0:
339,206,91875,6,0,P|292:231|238:223,1,110.250004205704,2|0,0:0|0:0,0:0:0:0:
267,54,92191,6,0,B|285:100|285:100|278:149,1,98,2|0,0:0|0:0,0:0:0:0:
89,161,92506,2,0,B|82:112|82:112|99:66,1,98,2|0,0:0|0:0,0:0:0:0:
272,317,92822,1,2,0:0:0:0:
272,317,92980,6,0,L|174:303,1,98,0|2,0:0|0:0,0:0:0:0:
375,135,93296,2,0,L|277:148,1,98,0|2,0:0|0:0,0:0:0:0:
478,317,93612,2,0,L|380:303,1,98,0|2,0:0|0:0,0:0:0:0:
272,317,93928,6,0,L|223:310,1,49,0|0,0:0|0:0,0:0:0:0:
375,135,94085,2,0,L|326:141,1,49,2|0,0:0|0:0,0:0:0:0:
478,317,94243,2,0,L|429:310,1,49,0|0,0:0|0:0,0:0:0:0:
494,161,94401,6,0,P|506:195|503:231,1,73.5,4|0,0:0|0:0,0:0:0:0:
325,213,94717,6,0,L|423:207,1,98,2|0,0:0|0:0,0:0:0:0:
488,33,95033,2,0,L|390:39,1,98,2|0,0:0|0:0,0:0:0:0:
249,268,95349,1,2,0:0:0:0:
249,268,95506,6,0,P|232:223|239:176,1,98,0|2,0:0|0:0,0:0:0:0:
400,158,95822,2,0,P|369:195|324:212,1,98,0|2,0:0|0:0,0:0:0:0:
229,83,96138,2,0,P|276:90|314:121,1,98,0|2,0:0|0:0,0:0:0:0:
319,167,96375,1,0,0:0:0:0:
324,212,96454,1,0,0:0:0:0:
227,340,96612,6,0,L|276:340,1,49,2|0,0:0|0:0,0:0:0:0:
156,260,96770,2,0,L|107:260,1,49,0|0,0:0|0:0,0:0:0:0:
31,369,96928,6,0,P|-13:311|57:328,1,191.099991252137,2|0,0:0|0:0,0:0:0:0:
129,352,97243,6,0,P|128:303|107:260,1,98,2|0,0:0|0:0,0:0:0:0:
0,159,97559,2,0,P|1:207|22:251,1,98,2|0,0:0|0:0,0:0:0:0:
164,100,97875,1,2,0:0:0:0:
164,100,98033,6,0,B|68:85,1,98,0|2,0:0|0:0,0:0:0:0:
252,244,98349,2,0,B|156:259,1,98,0|2,0:0|0:0,0:0:0:0:
340,100,98664,2,0,B|244:85,1,98,0|2,0:0|0:0,0:0:0:0:
164,100,98980,6,0,B|115:92,1,49,0|0,0:0|0:0,0:0:0:0:
252,244,99138,2,0,B|203:251,1,49,2|0,0:0|0:0,0:0:0:0:
340,100,99296,2,0,B|291:92,1,49,0|0,0:0|0:0,0:0:0:0:
407,144,99454,6,0,P|418:110|414:73,1,73.5,4|0,0:0|0:0,0:0:0:0:
339,7,99770,6,0,B|323:53|323:53|339:99,1,98,2|0,0:0|0:0,0:0:0:0:
493,216,100085,2,0,B|509:170|509:170|493:124,1,98,2|0,0:0|0:0,0:0:0:0:
333,275,100401,1,2,0:0:0:0:
333,275,100559,1,0,0:0:0:0:
165,51,100717,6,0,P|167:75|163:99,1,49,4|0,0:0|0:0,0:0:0:0:
66,257,100875,1,2,0:0:0:0:
64,208,100953,1,0,0:0:0:0:
62,159,101032,1,2,0:0:0:0:
288,79,101191,1,0,0:0:0:0:
286,127,101269,1,0,0:0:0:0:
284,176,101348,5,0,0:0:0:0:
315,156,101427,1,0,0:0:0:0:
351,151,101506,1,0,0:0:0:0:
386,162,101585,1,0,0:0:0:0:
414,185,101664,5,8,0:0:0:0:
160,381,101822,1,8,0:0:0:0:
118,62,101980,2,0,P|142:102|144:149,1,95.5499956260683,2|0,0:0|0:0,0:0:0:0:
91,252,102296,5,8,0:0:0:0:
386,162,102454,5,0,0:0:0:0:
413,152,102612,1,2,0:0:0:0:
118,62,102770,5,0,0:0:0:0:
413,152,102928,5,10,0:0:0:0:
440,162,103086,1,0,0:0:0:0:
145,252,103243,5,2,0:0:0:0:
440,162,103401,5,0,0:0:0:0:
467,152,103559,1,10,0:0:0:0:
172,62,103717,5,0,0:0:0:0:
467,152,103875,5,2,0:0:0:0:
494,162,104033,1,0,0:0:0:0:
199,252,104191,5,10,0:0:0:0:
202,222,104270,1,0,0:0:0:0:
254,138,104349,5,0,0:0:0:0:
257,108,104428,1,0,0:0:0:0:
309,24,104506,5,2,0:0:0:0:
312,54,104664,1,0,0:0:0:0:
439,270,104822,5,10,0:0:0:0:
312,54,104980,5,0,0:0:0:0:
309,84,105138,1,2,0:0:0:0:
182,300,105296,5,0,0:0:0:0:
309,84,105454,5,10,0:0:0:0:
312,114,105612,1,0,0:0:0:0:
439,330,105770,5,2,0:0:0:0:
309,24,105928,5,2,0:0:0:0:
309,84,106007,1,2,0:0:0:0:
309,144,106086,5,10,0:0:0:0:
266,374,106243,1,0,0:0:0:0:
424,228,106401,5,2,0:0:0:0:
183,262,106559,1,0,0:0:0:0:
493,274,106717,6,0,P|486:210|424:227,1,147,8|0,0:0|0:0,0:0:0:0:
351,346,107033,6,0,L|398:339,1,49,14|0,0:0|0:0,0:0:0:0:
347,195,107191,2,0,L|299:201,1,49,2|0,0:0|0:0,0:0:0:0:
174,339,107349,6,0,L|221:349,1,49,10|0,0:0|0:0,0:0:0:0:
221,195,107507,2,0,L|173:184,1,49,2|0,0:0|0:0,0:0:0:0:
10,271,107664,6,0,L|50:296,1,49,10|0,0:0|0:0,0:0:0:0:
103,152,107822,2,0,L|62:126,1,49,2|0,0:0|0:0,0:0:0:0:
240,271,107980,5,10,0:0:0:0:
280,246,108058,1,0,0:0:0:0:
298,201,108137,1,2,0:0:0:0:
287,155,108216,1,0,0:0:0:0:
249,124,108296,6,0,L|246:75,1,49,14|0,0:0|0:0,0:0:0:0:
439,191,108454,2,0,L|436:142,1,49,2|0,0:0|0:0,0:0:0:0:
180,215,108612,6,0,L|177:166,1,49,10|0,0:0|0:0,0:0:0:0:
370,282,108770,2,0,L|367:233,1,49,2|0,0:0|0:0,0:0:0:0:
111,306,108928,5,10,0:0:0:0:
111,306,109006,1,0,0:0:0:0:
111,306,109085,2,0,L|108:257,1,49,2|0,0:0|0:0,0:0:0:0:
301,373,109243,2,0,L|298:324,1,49,10|0,0:0|0:0,0:0:0:0:
153,147,109401,1,0,0:0:0:0:
153,147,109480,1,0,0:0:0:0:
153,147,109559,6,0,L|201:152,1,49,14|0,0:0|0:0,0:0:0:0:
475,178,109717,2,0,L|426:183,1,49,10|0,0:0|0:0,0:0:0:0:
181,266,109875,6,0,L|229:271,1,49,10|0,0:0|0:0,0:0:0:0:
503,297,110033,2,0,L|454:302,1,49,10|0,0:0|0:0,0:0:0:0:
153,376,110191,5,14,0:0:0:0:
108,306,110269,1,2,0:0:0:0:
114,226,110348,1,10,0:0:0:0:
169,163,110427,1,2,0:0:0:0:
249,147,110506,5,10,0:0:0:0:
196,210,110584,1,2,0:0:0:0:
114,226,110663,1,10,0:0:0:0:
42,188,110742,1,2,0:0:0:0:
4,116,110822,5,2,0:0:0:0:
53,271,110980,1,0,0:0:0:0:
196,210,111138,5,0,0:0:0:0:
225,207,111217,1,0,0:0:0:0:
288,249,111296,5,0,0:0:0:0:
317,252,111375,1,0,0:0:0:0:
380,210,111454,6,0,P|382:191|380:173,1,36.7500014019013,0|0,0:0|0:0,0:0:0:0:
385,286,111612,2,0,P|384:304|385:322,1,36.7500014019013,0|0,0:0|0:0,0:0:0:0:
503,244,111770,5,0,0:0:0:0:
503,244,111928,2,0,L|447:244,1,55.125002102852
