osu file format v14

[General]
AudioFilename: audio.mp3
AudioLeadIn: 0
PreviewTime: 71937
Countdown: 0
SampleSet: Soft
StackLeniency: 0.7
Mode: 2
LetterboxInBreaks: 0
WidescreenStoryboard: 1

[Editor]
Bookmarks: 1240,1871,2187,2503,2818,3134,3450,3766,4397,5029,5661,5976,6292,6924,7240,7555,7871,8187,8503,8818,9450,10082,11345,21450,26503,31871,41976,51766,56818,61871,66924,71976,82397,92187,102608,112378
DistanceSpacing: 1
BeatDivisor: 8
GridSize: 4
TimelineZoom: 2.6

[Metadata]
Title:Grayed Out -Antifront-
TitleUnicode:Grayed Out -Antifront-
Artist:Getty vs. DJ DiA
ArtistUnicode:Getty vs. DJ DiA
Creator:Nelly
Version:Salad
Source:
Tags:lacrima myle jemzuu ajamez mappers' guild mg featured artist fa electronic instrumental video game wacca lily わっふゑ vs. でこちんハンマー BOFU2016 - Legendary Again - SUPERALLOYS Pumpcore
BeatmapID:3180522
BeatmapSetID:1541235

[Difficulty]
HPDrainRate:4
CircleSize:3
OverallDifficulty:7
ApproachRate:7
SliderMultiplier:1.4
SliderTickRate:1

[Events]
//Background and Video events
0,0,"bg.jpg",0,0
//Break Periods
2,51965,55918
2,57018,59708
//Storyboard Layer 0 (Background)
//Storyboard Layer 1 (Fail)
//Storyboard Layer 2 (Pass)
//Storyboard Layer 3 (Foreground)
//Storyboard Layer 4 (Overlay)
//Storyboard Sound Samples

[TimingPoints]
1240,315.789473684211,4,2,1,50,1,0
1240,-250,4,2,1,50,0,0
1871,-250,4,2,3,50,0,0
1911,-250,4,2,1,50,0,0
2503,-250,4,2,3,50,0,0
2542,-250,4,2,1,50,0,0
3134,-250,4,2,3,50,0,0
3174,-250,4,2,1,50,0,0
3726,-250,4,2,1,5,0,0
3766,-250,4,2,1,50,0,0
4358,-250,4,2,1,5,0,0
4397,-250,4,2,1,50,0,0
4990,-250,4,2,1,5,0,0
5029,-250,4,2,1,50,0,0
5661,-250,4,2,3,50,0,0
5700,-250,4,2,1,50,0,0
5937,-250,4,2,1,5,0,0
5976,-250,4,2,1,50,0,0
6924,-250,4,2,3,50,0,0
6963,-250,4,2,1,50,0,0
7555,-250,4,2,3,50,0,0
7595,-250,4,2,1,50,0,0
8187,-250,4,2,3,50,0,0
8226,-250,4,2,1,50,0,0
8779,-250,4,2,1,5,0,0
8818,-250,4,2,1,50,0,0
9411,-250,4,2,1,5,0,0
9450,-250,4,2,1,50,0,0
10042,-250,4,2,1,5,0,0
10082,-100,4,2,1,50,0,0
11345,-100,4,2,1,60,0,0
11661,-100,4,2,2,60,0,0
21450,-100,4,2,1,60,0,0
26503,-100,4,2,1,70,0,0
30924,-100,4,2,1,80,0,0
31871,-100,4,2,1,80,0,0
33450,-100,4,2,1,80,0,0
33766,-100,4,2,1,80,0,0
34871,-100,4,2,1,80,0,0
35187,-100,4,2,1,80,0,0
36292,-100,4,2,1,80,0,0
36608,-100,4,2,1,80,0,0
39766,-100,4,2,1,80,0,0
40555,-100,4,2,1,80,0,0
41345,-100,4,2,1,80,0,0
41661,-100,4,2,1,80,0,0
41976,-100,4,2,1,80,0,0
43871,-100,4,2,1,80,0,0
44187,-100,4,2,1,80,0,0
47661,-100,4,2,1,80,0,0
47976,-100,4,2,1,80,0,0
51450,-100,4,2,1,80,0,0
51766,-100,4,2,1,80,0,0
60608,-100,4,2,1,60,0,0
66608,-100,4,2,1,60,0,0
66924,-100,4,2,1,70,0,0
69450,-100,4,2,1,70,0,0
71345,-100,4,2,1,70,0,0
71976,-100,4,2,2,80,0,1
74187,-100,4,2,2,80,0,1
74503,-100,4,2,2,80,0,1
76713,-100,4,2,2,80,0,1
77029,-100,4,2,2,80,0,1
79240,-100,4,2,2,80,0,1
79555,-100,4,2,2,80,0,1
81292,-100,4,2,2,80,0,1
81766,-100,4,2,2,80,0,1
82082,-100,4,2,2,80,0,0
82397,-100,4,2,1,80,0,1
86345,-100,4,2,1,80,0,1
86818,-100,4,2,1,80,0,0
87134,-100,4,2,1,80,0,1
90924,-100,4,2,1,70,0,0
91871,-100,4,2,1,70,0,0
92503,-100,4,2,2,80,0,0
97240,-100,4,2,2,80,0,0
97555,-100,4,2,2,80,0,0
101503,-100,4,2,2,80,0,0
101976,-100,4,2,1,80,0,0
104503,-100,4,2,1,80,0,0
104818,-100,4,2,1,80,0,0
106713,-100,4,2,1,80,0,0
107029,-100,4,2,1,80,0,0
107345,-100,4,2,1,80,0,0
108292,-100,4,2,1,80,0,0
108608,-100,4,2,1,80,0,0
111134,-100,4,2,2,60,0,0

[Colours]
Combo1 : 240,106,140
Combo2 : 199,167,177

[HitObjects]
476,338,1240,6,0,P|409:324|476:59,1,448,6|2,0:0|0:0,0:0:0:0:
273,43,4397,5,2,0:0:0:0:
267,162,5029,1,2,0:0:0:0:
262,281,5661,5,0,0:0:0:0:
370,288,5976,1,2,0:0:0:0:
70,338,6292,6,0,P|136:324|70:59,1,448,6|2,0:0|0:0,0:0:0:0:
273,43,9450,5,2,0:0:0:0:
69,40,10082,1,2,0:0:0:0:
66,115,10240,1,2,0:0:0:0:
63,190,10397,1,2,0:0:0:0:
203,270,10713,1,2,0:0:0:0:
211,202,10871,1,2,0:0:0:0:
173,145,11029,1,2,0:0:0:0:
107,127,11187,1,2,0:0:0:0:
276,69,11345,6,0,L|345:71,2,70,6|0|2,0:0|0:0|0:0,0:0:0:0:
206,166,11818,2,0,L|346:160,2,140,2|2|2,0:0|0:0|0:0,0:0:0:0:
135,207,12608,6,0,L|122:275,2,70,2|0|2,0:0|0:0|0:0,0:0:0:0:
206,166,13082,1,2,0:0:0:0:
346,148,13397,2,0,L|415:150,2,70,2|2|2,0:0|0:0|0:0,0:0:0:0:
177,267,13871,6,0,L|108:269,2,70,2|0|2,0:0|0:0|0:0,0:0:0:0:
248,267,14345,2,0,L|388:273,2,140,2|2|2,0:0|0:0|0:0,0:0:0:0:
319,179,15134,6,0,L|332:111,2,70,2|0|2,0:0|0:0|0:0,0:0:0:0:
248,186,15608,1,2,0:0:0:0:
108,196,15924,2,0,L|39:198,2,70,2|2|2,0:0|0:0|0:0,0:0:0:0:
276,291,16397,6,0,L|345:293,2,70,2|0|2,0:0|0:0|0:0,0:0:0:0:
205,207,16871,2,0,L|345:201,2,140,2|2|2,0:0|0:0|0:0,0:0:0:0:
134,210,17661,5,2,0:0:0:0:
126,142,17818,1,0,0:0:0:0:
164,85,17976,1,2,0:0:0:0:
230,67,18134,1,2,0:0:0:0:
370,65,18450,2,0,L|439:67,2,70,2|2|2,0:0|0:0|0:0,0:0:0:0:
201,165,18924,6,0,L|132:167,2,70,2|0|2,0:0|0:0|0:0,0:0:0:0:
271,165,19397,2,0,L|411:171,2,140,2|2|2,0:0|0:0|0:0,0:0:0:0:
199,279,20187,6,0,L|194:210,1,70,2|0,0:0|0:0,0:0:0:0:
266,329,20503,2,0,L|271:260,1,70,2|2,0:0|0:0,0:0:0:0:
129,165,20976,2,0,L|116:233,2,70,2|2|2,0:0|0:0|0:0,0:0:0:0:
298,143,21450,6,0,P|344:189|299:229,1,140,6|2,0:0|0:0,0:0:0:0:
228,230,21924,2,0,L|88:224,2,140
298,234,22713,5,2,0:0:0:0:
158,336,23029,2,0,L|298:330,2,140,2|2|2,0:0|0:0|0:0,0:0:0:0:
229,301,23818,1,0,0:0:0:0:
390,284,23976,5,2,0:0:0:0:
264,169,24292,2,0,L|404:175,2,140,2|2|2,0:0|0:0|0:0,0:0:0:0:
208,299,25082,1,0,0:0:0:0:
177,253,25240,5,2,0:0:0:0:
164,199,25397,1,2,0:0:0:0:
170,143,25555,1,2,0:0:0:0:
193,93,25713,1,2,0:0:0:0:
233,54,25871,1,2,0:0:0:0:
284,30,26029,1,2,0:0:0:0:
319,27,26108,1,0,0:0:0:0:
354,25,26187,1,2,0:0:0:0:
88,165,26503,5,10,0:0:0:0:
18,167,26661,1,2,0:0:0:0:
88,165,26818,1,2,0:0:0:0:
158,251,26976,1,10,0:0:0:0:
88,249,27134,1,2,0:0:0:0:
158,251,27292,1,2,0:0:0:0:
327,253,27450,1,10,0:0:0:0:
329,183,27608,1,10,0:0:0:0:
160,169,27766,5,10,0:0:0:0:
158,99,27924,1,2,0:0:0:0:
228,92,28082,1,2,0:0:0:0:
298,86,28240,1,10,0:0:0:0:
228,92,28397,1,2,0:0:0:0:
158,99,28555,1,10,0:0:0:0:
157,132,28634,1,2,0:0:0:0:
156,169,28713,1,2,0:0:0:0:
324,197,28871,1,10,0:0:0:0:
359,196,28950,1,2,0:0:0:0:
394,195,29029,1,2,0:0:0:0:
190,289,30292,5,10,0:0:0:0:
85,282,30529,1,10,0:0:0:0:
190,289,30766,1,10,0:0:0:0:
260,283,30924,1,2,0:0:0:0:
261,246,31003,1,2,0:0:0:0:
262,213,31082,1,2,0:0:0:0:
93,184,31240,2,0,P|48:140|94:96,1,140,10|2,0:0|0:0,0:0:0:0:
361,97,31871,6,0,L|221:91,2,140,6|2|2,0:0|0:0|0:0,0:0:0:0:
432,102,32661,1,2,0:0:0:0:
265,187,32818,6,0,L|260:256,1,70,2|2,0:0|0:0,0:0:0:0:
345,224,33134,2,0,L|350:293,1,70,2|2,0:0|0:0,0:0:0:0:
265,341,33450,1,2,0:0:0:0:
264,304,33529,1,2,0:0:0:0:
263,271,33608,1,2,0:0:0:0:
345,224,33766,2,0,L|414:226,2,70,2|2|0,0:0|0:0|0:0,0:0:0:0:
176,223,34240,6,0,L|107:225,2,70,2|2|2,0:0|0:0|0:0,0:0:0:0:
240,202,34713,1,2,0:0:0:0:
268,140,34871,1,2,0:0:0:0:
241,78,35029,1,2,0:0:0:0:
176,56,35187,1,2,0:0:0:0:
345,36,35345,5,2,0:0:0:0:
429,53,35503,1,2,0:0:0:0:
430,86,35582,1,2,0:0:0:0:
431,123,35661,1,2,0:0:0:0:
347,145,35818,2,0,L|278:147,2,70,2|2|2,0:0|0:0|0:0,0:0:0:0:
177,297,36292,2,0,P|133:253|177:208,1,140,2|6,0:0|0:0,0:0:0:0:
445,188,36924,5,2,0:0:0:0:
446,151,37003,1,0,0:0:0:0:
447,118,37082,1,0,0:0:0:0:
362,233,37240,2,0,L|359:93,1,140,2|2,0:0|0:0,0:0:0:0:
443,68,37713,1,2,0:0:0:0:
275,48,37871,6,0,L|206:46,1,70,2|2,0:0|0:0,0:0:0:0:
275,138,38187,2,0,L|344:136,1,70,2|2,0:0|0:0,0:0:0:0:
274,293,38503,1,2,0:0:0:0:
273,256,38582,1,2,0:0:0:0:
272,223,38661,1,2,0:0:0:0:
355,191,38818,2,0,L|424:193,2,70,2|2|0,0:0|0:0|0:0,0:0:0:0:
186,190,39292,6,0,L|117:192,2,70,2|2|2,0:0|0:0|0:0,0:0:0:0:
256,189,39766,1,2,0:0:0:0:
172,338,39924,2,0,L|170:269,1,70,2|2,0:0|0:0,0:0:0:0:
241,250,40240,1,2,0:0:0:0:
87,284,40555,5,2,0:0:0:0:
79,216,40713,1,2,0:0:0:0:
117,159,40871,1,2,0:0:0:0:
183,141,41029,1,2,0:0:0:0:
351,141,41187,1,2,0:0:0:0:
352,104,41266,1,2,0:0:0:0:
353,71,41345,1,2,0:0:0:0:
212,301,41661,6,0,L|210:232,1,70,2|0,0:0|0:0,0:0:0:0:
377,152,41976,6,0,P|423:196|379:241,1,140,6|2,0:0|0:0,0:0:0:0:
295,240,42450,2,0,L|292:100,1,140,2|2,0:0|0:0,0:0:0:0:
123,74,42924,6,0,P|77:118|121:163,1,140,2|8,0:0|0:0,0:0:0:0:
205,245,43397,2,0,L|65:242,1,140,2|2,0:0|0:0,0:0:0:0:
150,359,43871,1,8,0:0:0:0:
151,322,43950,1,0,0:0:0:0:
152,289,44029,1,0,0:0:0:0:
320,269,44187,6,0,L|389:267,1,70,2|2,0:0|0:0,0:0:0:0:
221,197,44503,6,0,P|177:151|223:108,1,140,8|2,0:0|0:0,0:0:0:0:
308,103,44976,2,0,L|448:100,1,140,2|2,0:0|0:0,0:0:0:0:
279,190,45450,5,2,0:0:0:0:
195,207,45608,1,2,0:0:0:0:
194,240,45687,1,2,0:0:0:0:
193,277,45766,1,2,0:0:0:0:
277,296,45924,1,2,0:0:0:0:
445,299,46082,2,0,L|447:230,1,70,2|2,0:0|0:0,0:0:0:0:
279,211,46397,1,6,0:0:0:0:
139,202,46713,6,0,L|137:133,1,70,2|2,0:0|0:0,0:0:0:0:
222,46,47029,2,0,L|82:43,2,140,2|2|2,0:0|0:0|0:0,0:0:0:0:
257,47,47740,1,2,0:0:0:0:
291,48,47818,1,2,0:0:0:0:
459,53,47976,6,0,P|504:97|461:142,1,140,6|2,0:0|0:0,0:0:0:0:
377,143,48450,1,2,0:0:0:0:
293,143,48608,1,2,0:0:0:0:
292,176,48687,1,2,0:0:0:0:
291,213,48766,1,2,0:0:0:0:
375,230,48924,2,0,L|377:299,1,70,2|2,0:0|0:0,0:0:0:0:
208,340,49240,5,6,0:0:0:0:
141,330,49397,1,2,0:0:0:0:
108,271,49555,1,2,0:0:0:0:
135,209,49713,1,2,0:0:0:0:
303,184,49871,2,0,L|372:182,3,70,6|2|2|2,0:0|0:0|0:0|0:0,0:0:0:0:
204,94,50503,5,2,0:0:0:0:
120,106,50661,1,2,0:0:0:0:
119,139,50740,1,2,0:0:0:0:
118,176,50818,1,2,0:0:0:0:
201,196,50976,1,2,0:0:0:0:
285,211,51134,1,2,0:0:0:0:
286,244,51213,1,2,0:0:0:0:
287,281,51292,1,2,0:0:0:0:
119,290,51450,6,0,P|74:245|119:200,1,140,10|6,0:0|0:0,0:0:0:0:
435,178,56818,5,6,0:0:0:0:
443,40,60608,5,2,0:0:0:0:
446,115,60766,1,2,0:0:0:0:
449,190,60924,1,2,0:0:0:0:
309,270,61240,1,2,0:0:0:0:
301,202,61397,1,2,0:0:0:0:
339,145,61555,1,2,0:0:0:0:
405,127,61713,1,2,0:0:0:0:
236,84,61871,6,0,L|96:81,3,140,6|2|2|2,0:0|0:0|0:0|0:0,0:0:0:0:
236,201,63134,6,0,L|376:198,2,140,2|2|2,0:0|0:0|0:0,0:0:0:0:
96,302,64082,2,0,L|94:233,1,70,2|0,0:0|0:0,0:0:0:0:
262,150,64397,6,0,L|402:147,2,140,2|2|2,0:0|0:0|0:0,0:0:0:0:
122,155,65345,1,2,0:0:0:0:
262,277,65661,5,2,0:0:0:0:
332,275,65818,1,2,0:0:0:0:
262,277,65976,1,2,0:0:0:0:
192,279,66134,1,2,0:0:0:0:
262,277,66292,1,2,0:0:0:0:
430,239,66450,1,2,0:0:0:0:
431,202,66529,1,0,0:0:0:0:
432,169,66608,1,2,0:0:0:0:
166,106,66924,5,10,0:0:0:0:
96,108,67082,1,2,0:0:0:0:
166,106,67240,1,2,0:0:0:0:
234,194,67397,1,10,0:0:0:0:
164,201,67555,1,2,0:0:0:0:
234,194,67713,1,2,0:0:0:0:
402,177,67871,1,10,0:0:0:0:
404,107,68029,1,10,0:0:0:0:
237,28,68187,5,10,0:0:0:0:
167,35,68345,1,2,0:0:0:0:
237,28,68503,1,2,0:0:0:0:
307,35,68661,1,10,0:0:0:0:
237,28,68818,1,2,0:0:0:0:
167,35,68976,1,10,0:0:0:0:
166,68,69055,1,2,0:0:0:0:
165,105,69134,1,2,0:0:0:0:
333,151,69292,1,10,0:0:0:0:
368,150,69371,1,2,0:0:0:0:
403,149,69450,6,0,L|416:217,7,70,2|0|0|0|0|0|0|0,0:0|0:0|0:0|0:0|0:0|0:0|0:0|0:0,0:0:0:0:
248,305,70713,5,10,0:0:0:0:
143,298,70950,1,10,0:0:0:0:
248,305,71187,1,10,0:0:0:0:
318,299,71345,1,2,0:0:0:0:
319,262,71424,1,2,0:0:0:0:
320,229,71503,1,2,0:0:0:0:
152,209,71661,1,10,0:0:0:0:
278,105,71976,6,0,L|347:107,2,70,14|0|8,0:0|0:0|0:0,0:0:0:0:
194,207,72450,2,0,L|334:201,2,140,2|2|2,0:0|0:0|0:0,0:0:0:0:
363,333,73240,5,8,0:0:0:0:
447,318,73397,1,10,0:0:0:0:
448,281,73476,1,10,0:0:0:0:
449,248,73555,1,10,0:0:0:0:
281,218,73713,2,0,P|237:174|281:129,1,140,10|2,0:0|0:0,0:0:0:0:
367,118,74187,2,0,L|369:49,1,70,10|2,0:0|0:0,0:0:0:0:
200,32,74503,6,0,L|131:34,2,70,10|0|8,0:0|0:0|0:0,0:0:0:0:
285,134,74976,2,0,L|145:128,2,140,2|2|2,0:0|0:0|0:0,0:0:0:0:
117,333,75766,5,8,0:0:0:0:
33,318,75924,1,10,0:0:0:0:
34,281,76003,1,10,0:0:0:0:
35,248,76082,1,10,0:0:0:0:
203,218,76240,2,0,P|247:174|203:129,1,140,10|2,0:0|0:0,0:0:0:0:
32,113,76713,2,0,L|30:44,1,70,10|10,0:0|0:0,0:0:0:0:
199,19,77029,6,0,L|268:17,2,70,14|0|8,0:0|0:0|0:0,0:0:0:0:
284,105,77503,2,0,L|424:111,2,140,2|2|2,0:0|0:0|0:0,0:0:0:0:
116,99,78292,5,8,0:0:0:0:
32,114,78450,1,10,0:0:0:0:
33,151,78529,1,10,0:0:0:0:
34,183,78608,1,10,0:0:0:0:
203,308,78766,2,0,P|247:264|203:219,1,140,10|2,0:0|0:0,0:0:0:0:
117,208,79240,2,0,L|115:139,1,70,10|2,0:0|0:0,0:0:0:0:
283,93,79555,6,0,L|352:91,2,70,10|0|8,0:0|0:0|0:0,0:0:0:0:
198,179,80029,2,0,L|338:185,2,140,2|2|2,0:0|0:0|0:0,0:0:0:0:
366,337,80818,5,8,0:0:0:0:
450,322,80976,1,10,0:0:0:0:
449,285,81055,1,10,0:0:0:0:
448,252,81134,1,10,0:0:0:0:
280,222,81292,2,0,P|236:178|280:133,1,140,10|2,0:0|0:0,0:0:0:0:
451,117,81766,2,0,L|453:48,1,70,10|10,0:0|0:0,0:0:0:0:
368,150,82082,6,0,L|366:81,1,70,2|0,0:0|0:0,0:0:0:0:
198,40,82397,6,0,P|153:83|197:128,1,140,6|2,0:0|0:0,0:0:0:0:
283,216,82871,2,0,L|143:210,1,140,0|2,0:0|0:0,0:0:0:0:
312,341,83345,6,0,L|318:201,1,140,2|10,0:0|0:0,0:0:0:0:
234,114,83818,2,0,L|374:108,1,140,2|0,0:0|0:0,0:0:0:0:
459,105,84292,1,8,0:0:0:0:
460,138,84371,1,0,0:0:0:0:
461,175,84450,1,0,0:0:0:0:
293,216,84608,6,0,L|224:214,1,70,2|2,0:0|0:0,0:0:0:0:
392,311,84924,6,0,P|437:266|392:223,1,140,8|2,0:0|0:0,0:0:0:0:
308,218,85397,2,0,L|168:212,1,140
337,147,85871,5,2,0:0:0:0:
421,131,86029,1,2,0:0:0:0:
422,94,86108,1,2,0:0:0:0:
423,61,86187,1,2,0:0:0:0:
254,37,86345,1,2,0:0:0:0:
122,32,86661,1,2,0:0:0:0:
275,121,86818,2,0,L|277:190,1,70,6|0,0:0|0:0,0:0:0:0:
122,282,87134,6,0,L|120:213,1,70,2|2,0:0|0:0,0:0:0:0:
205,187,87450,1,2,0:0:0:0:
289,99,87608,2,0,L|149:93,1,140,2|2,0:0|0:0,0:0:0:0:
234,192,88082,1,2,0:0:0:0:
235,225,88161,1,2,0:0:0:0:
236,262,88240,1,2,0:0:0:0:
402,353,88397,6,0,P|447:308|404:263,1,140,6|2,0:0|0:0,0:0:0:0:
320,262,88871,1,2,0:0:0:0:
236,262,89029,1,2,0:0:0:0:
235,229,89108,1,2,0:0:0:0:
234,193,89187,1,2,0:0:0:0:
318,175,89345,2,0,L|320:106,1,70,2|2,0:0|0:0,0:0:0:0:
151,171,89661,5,6,0:0:0:0:
143,103,89818,1,2,0:0:0:0:
181,46,89976,1,2,0:0:0:0:
247,28,90134,1,2,0:0:0:0:
415,30,90292,2,0,L|484:32,3,70,6|2|2|2,0:0|0:0|0:0|0:0,0:0:0:0:
316,26,90924,5,2,0:0:0:0:
232,38,91082,1,0,0:0:0:0:
231,71,91161,1,0,0:0:0:0:
230,108,91240,1,0,0:0:0:0:
313,128,91397,1,0,0:0:0:0:
397,220,91555,2,0,L|399:151,1,70
232,286,91871,5,8,0:0:0:0:
226,187,92187,1,6,0:0:0:0:
366,76,92503,6,0,L|226:70,2,140,8|8|8,0:0|0:0|0:0,0:0:0:0:
282,238,93292,2,0,L|280:169,1,70,2|8,0:0|0:0,0:0:0:0:
365,115,93608,6,0,L|505:121,2,140,2|2|2,0:0|0:0|0:0,0:0:0:0:
295,108,94397,2,0,L|293:177,1,70,10|2,0:0|0:0,0:0:0:0:
124,226,94713,5,8,0:0:0:0:
250,313,95029,2,0,L|110:319,2,140,8|8|8,0:0|0:0|0:0,0:0:0:0:
334,204,95818,2,0,L|332:273,1,70,2|8,0:0|0:0,0:0:0:0:
247,299,96134,6,0,L|242:159,1,140,2|2,0:0|0:0,0:0:0:0:
327,128,96608,1,10,0:0:0:0:
328,91,96687,1,10,0:0:0:0:
329,58,96766,1,10,0:0:0:0:
259,36,96924,1,8,0:0:0:0:
329,32,97082,1,0,0:0:0:0:
161,94,97240,6,0,L|159:163,1,70,8|8,0:0|0:0,0:0:0:0:
327,210,97555,6,0,L|467:204,2,140,12|8|8,0:0|0:0|0:0,0:0:0:0:
242,215,98345,2,0,L|240:284,1,70,2|8,0:0|0:0,0:0:0:0:
155,336,98661,6,0,L|295:342,2,140,2|2|2,0:0|0:0|0:0,0:0:0:0:
71,328,99450,2,0,L|69:259,1,70,8|10,0:0|0:0,0:0:0:0:
238,219,99766,5,8,0:0:0:0:
112,115,100082,2,0,L|252:121,2,140,8|8|8,0:0|0:0|0:0,0:0:0:0:
42,110,100871,1,2,0:0:0:0:
210,312,101029,5,8,0:0:0:0:
294,296,101187,1,8,0:0:0:0:
295,259,101266,1,8,0:0:0:0:
296,226,101345,1,8,0:0:0:0:
127,202,101503,1,8,0:0:0:0:
294,134,101976,2,0,L|296:65,1,70,8|0,0:0|0:0,0:0:0:0:
211,169,102292,6,0,L|209:100,1,70,2|0,0:0|0:0,0:0:0:0:
378,70,102608,6,0,P|423:114|380:159,1,140,6|2,0:0|0:0,0:0:0:0:
296,160,103082,2,0,L|293:300,1,140,2|2,0:0|0:0,0:0:0:0:
125,246,103555,6,0,L|265:243,1,140,2|8,0:0|0:0,0:0:0:0:
350,162,104029,2,0,L|210:159,1,140,2|2,0:0|0:0,0:0:0:0:
125,156,104503,1,8,0:0:0:0:
124,189,104582,1,0,0:0:0:0:
123,226,104661,1,0,0:0:0:0:
290,246,104818,6,0,L|292:315,1,70,2|2,0:0|0:0,0:0:0:0:
123,343,105134,6,0,P|78:298|123:253,1,140,8|2,0:0|0:0,0:0:0:0:
208,177,105608,2,0,L|68:174,1,140,2|2,0:0|0:0,0:0:0:0:
237,81,106082,5,2,0:0:0:0:
321,98,106240,1,2,0:0:0:0:
322,131,106318,1,2,0:0:0:0:
323,168,106397,1,2,0:0:0:0:
239,187,106555,1,2,0:0:0:0:
71,187,106713,2,0,L|69:256,1,70,2|2,0:0|0:0,0:0:0:0:
237,273,107029,1,6,0:0:0:0:
377,281,107345,6,0,L|379:212,1,70,2|2,0:0|0:0,0:0:0:0:
294,118,107661,2,0,L|434:115,2,140,2|2|2,0:0|0:0|0:0,0:0:0:0:
259,119,108371,1,2,0:0:0:0:
225,120,108450,1,2,0:0:0:0:
56,131,108608,6,0,P|13:176|58:220,1,140,6|2,0:0|0:0,0:0:0:0:
143,221,109082,1,2,0:0:0:0:
227,221,109240,1,2,0:0:0:0:
228,254,109318,1,2,0:0:0:0:
229,291,109397,1,2,0:0:0:0:
145,364,109555,2,0,L|143:295,1,70,2|2,0:0|0:0,0:0:0:0:
311,295,109871,5,6,0:0:0:0:
362,252,110029,1,2,0:0:0:0:
351,186,110187,1,2,0:0:0:0:
288,162,110345,1,2,0:0:0:0:
119,151,110503,2,0,L|50:153,3,70,6|2|2|2,0:0|0:0|0:0|0:0,0:0:0:0:
217,337,111134,6,0,P|263:294|220:248,1,140,2|2,0:0|0:0,0:0:0:0:
184,246,111529,1,2,0:0:0:0:
149,244,111608,1,2,0:0:0:0:
233,163,111766,2,0,L|302:165,2,70,2|2|2,0:0|0:0|0:0,0:0:0:0:
148,162,112240,1,2,0:0:0:0:
