osu file format v14

[General]
AudioFilename: audio.mp3
AudioLeadIn: 0
PreviewTime: 71937
Countdown: 0
SampleSet: Soft
StackLeniency: 0.7
Mode: 2
LetterboxInBreaks: 0
WidescreenStoryboard: 1

[Editor]
Bookmarks: 1240,1871,2187,2503,2818,3134,3450,3766,4397,5029,5661,5976,6292,6924,7240,7555,7871,8187,8503,8818,9450,10082,11345,21450,26503,31871,41976,51766,56818,61871,66924,71976,82397,92187,102608,112378
DistanceSpacing: 1
BeatDivisor: 8
GridSize: 4
TimelineZoom: 2.6

[Metadata]
Title:Grayed Out -Antifront-
TitleUnicode:Grayed Out -Antifront-
Artist:Getty vs. DJ DiA
ArtistUnicode:Getty vs. DJ DiA
Creator:Nelly
Version:Rain
Source:
Tags:lacrima myle jemzuu ajamez mappers' guild mg featured artist fa electronic instrumental video game wacca lily わっふゑ vs. でこちんハンマー BOFU2016 - Legendary Again - SUPERALLOYS Pumpcore
BeatmapID:3180521
BeatmapSetID:1541235

[Difficulty]
HPDrainRate:6
CircleSize:4
OverallDifficulty:9
ApproachRate:9
SliderMultiplier:1.9
SliderTickRate:2

[Events]
//Background and Video events
0,0,"bg.jpg",0,0
//Break Periods
2,51966,56218
2,57018,60008
//Storyboard Layer 0 (Background)
//Storyboard Layer 1 (Fail)
//Storyboard Layer 2 (Pass)
//Storyboard Layer 3 (Foreground)
//Storyboard Layer 4 (Overlay)
//Storyboard Sound Samples

[TimingPoints]
1240,315.789473684211,4,2,1,50,1,0
1240,-111.111111111111,4,2,1,50,0,0
1871,-111.111111111111,4,2,3,50,0,0
1911,-111.111111111111,4,2,1,50,0,0
2503,-111.111111111111,4,2,3,50,0,0
2542,-111.111111111111,4,2,1,50,0,0
3134,-111.111111111111,4,2,3,50,0,0
3174,-111.111111111111,4,2,1,50,0,0
3726,-111.111111111111,4,2,1,5,0,0
3766,-111.111111111111,4,2,1,50,0,0
4358,-111.111111111111,4,2,1,5,0,0
4397,-111.111111111111,4,2,1,50,0,0
4990,-111.111111111111,4,2,1,5,0,0
5029,-111.111111111111,4,2,1,50,0,0
5661,-111.111111111111,4,2,3,50,0,0
5700,-111.111111111111,4,2,1,50,0,0
5937,-111.111111111111,4,2,1,5,0,0
5976,-111.111111111111,4,2,1,50,0,0
6924,-111.111111111111,4,2,3,50,0,0
6963,-111.111111111111,4,2,1,50,0,0
7555,-111.111111111111,4,2,3,50,0,0
7595,-111.111111111111,4,2,1,50,0,0
8187,-111.111111111111,4,2,3,50,0,0
8226,-111.111111111111,4,2,1,50,0,0
8779,-111.111111111111,4,2,1,5,0,0
8818,-111.111111111111,4,2,1,50,0,0
9411,-111.111111111111,4,2,1,5,0,0
9450,-111.111111111111,4,2,1,50,0,0
10042,-111.111111111111,4,2,1,5,0,0
10082,-100,4,2,1,50,0,0
11345,-100,4,2,1,60,0,0
11661,-100,4,2,2,60,0,0
21450,-100,4,2,1,60,0,0
26503,-100,4,2,1,70,0,0
30924,-100,4,2,1,80,0,0
31871,-100,4,2,1,80,0,0
33450,-100,4,2,1,80,0,0
33766,-100,4,2,1,80,0,0
34871,-100,4,2,1,80,0,0
35187,-100,4,2,1,80,0,0
36292,-100,4,2,1,80,0,0
36608,-100,4,2,1,80,0,0
39766,-100,4,2,1,80,0,0
40555,-100,4,2,1,80,0,0
41345,-100,4,2,1,80,0,0
41661,-100,4,2,1,80,0,0
41976,-100,4,2,1,80,0,0
43871,-100,4,2,1,80,0,0
44187,-100,4,2,1,80,0,0
47661,-100,4,2,1,80,0,0
47976,-100,4,2,1,80,0,0
51450,-100,4,2,1,80,0,0
51766,-100,4,2,1,80,0,0
60608,-100,4,2,1,60,0,0
66608,-100,4,2,1,60,0,0
66924,-100,4,2,1,70,0,0
69450,-100,4,2,1,70,0,0
71345,-100,4,2,1,70,0,0
71976,-100,4,2,2,80,0,1
74187,-100,4,2,2,80,0,1
74503,-100,4,2,2,80,0,1
76713,-100,4,2,2,80,0,1
77029,-100,4,2,2,80,0,1
79240,-100,4,2,2,80,0,1
79555,-100,4,2,2,80,0,1
81292,-100,4,2,2,80,0,1
81766,-100,4,2,2,80,0,1
82082,-100,4,2,2,80,0,0
82397,-100,4,2,1,80,0,1
86345,-100,4,2,1,80,0,1
86818,-100,4,2,1,80,0,0
87134,-100,4,2,1,80,0,1
90924,-100,4,2,1,70,0,0
91871,-100,4,2,1,70,0,0
92503,-100,4,2,2,80,0,0
97240,-100,4,2,2,80,0,0
97555,-100,4,2,2,80,0,0
101503,-100,4,2,2,80,0,0
101976,-100,4,2,1,80,0,0
104503,-100,4,2,1,80,0,0
104818,-100,4,2,1,80,0,0
106713,-100,4,2,1,80,0,0
107029,-100,4,2,1,80,0,0
107345,-100,4,2,1,80,0,0
108292,-100,4,2,1,80,0,0
108608,-100,4,2,1,80,0,0
111134,-100,4,2,2,60,0,0

[Colours]
Combo1 : 240,106,140
Combo2 : 199,167,177

[HitObjects]
460,332,1240,6,0,B|460:74|460:74|460:160|460:160|287:160|287:160|287:332|287:332|117:332|117:332|117:160|117:160|287:156|287:156|117:156,1,1367.99995825195,6|2,0:0|0:0,0:0:0:0:
427,332,4397,5,2,0:0:0:0:
427,332,5029,1,2,0:0:0:0:
291,102,5661,5,0,0:0:0:0:
427,97,5976,1,2,0:0:0:0:
52,332,6292,6,0,B|52:74|52:74|52:160|52:160|224:160|224:160|224:332|224:332|394:332|394:332|394:160|394:160|224:156|224:156|394:156,1,1367.99995825195,6|2,0:0|0:0,0:0:0:0:
85,332,9450,5,2,0:0:0:0:
85,332,10082,1,2,0:0:0:0:
181,329,10240,1,2,0:0:0:0:
337,320,10397,5,2,0:0:0:0:
216,217,10634,2,0,L|214:168,1,47.5,0|2,0:0|0:0,0:0:0:0:
305,78,10871,1,2,0:0:0:0:
214,75,11029,1,2,0:0:0:0:
58,71,11187,1,2,0:0:0:0:
305,169,11345,5,6,0:0:0:0:
210,189,11503,2,0,L|203:235,2,47.5,0|0|2,0:0|0:0|0:0,0:0:0:0:
362,159,11818,2,0,L|365:254,1,95,2|0,0:0|0:0,0:0:0:0:
461,323,12134,2,0,L|464:228,1,95,2|0,0:0|0:0,0:0:0:0:
416,220,12371,1,0,0:0:0:0:
368,213,12450,1,2,0:0:0:0:
216,190,12608,5,2,0:0:0:0:
311,190,12766,1,0,0:0:0:0:
353,172,12845,1,0,0:0:0:0:
371,129,12924,1,2,0:0:0:0:
353,86,13003,1,0,0:0:0:0:
311,69,13082,1,2,0:0:0:0:
158,237,13240,1,0,0:0:0:0:
252,229,13397,2,0,L|268:135,2,95,2|2|2,0:0|0:0|0:0,0:0:0:0:
99,310,13871,6,0,L|96:215,1,95,2|0,0:0|0:0,0:0:0:0:
144,207,14108,1,0,0:0:0:0:
192,200,14187,1,2,0:0:0:0:
344,183,14345,2,0,L|347:88,1,95,2|0,0:0|0:0,0:0:0:0:
251,47,14661,1,2,0:0:0:0:
345,69,14818,2,0,L|352:115,2,47.5,0|0|2,0:0|0:0|0:0,0:0:0:0:
192,152,15134,5,2,0:0:0:0:
287,167,15292,1,0,0:0:0:0:
297,213,15371,1,0,0:0:0:0:
280,257,15450,1,2,0:0:0:0:
244,286,15529,1,0,0:0:0:0:
197,291,15608,1,2,0:0:0:0:
350,326,15766,1,0,0:0:0:0:
197,291,15924,2,0,L|292:286,2,95,2|2|2,0:0|0:0|0:0,0:0:0:0:
444,122,16397,5,2,0:0:0:0:
349,142,16555,2,0,L|342:188,2,47.5,0|0|2,0:0|0:0|0:0,0:0:0:0:
502,229,16871,2,0,L|505:324,1,95,2|0,0:0|0:0,0:0:0:0:
409,352,17187,2,0,L|406:257,1,95,2|0,0:0|0:0,0:0:0:0:
464,268,17424,2,0,L|465:220,1,47.5,0|2,0:0|0:0,0:0:0:0:
312,191,17661,5,2,0:0:0:0:
218,191,17818,1,0,0:0:0:0:
176,173,17897,1,0,0:0:0:0:
158,130,17976,1,2,0:0:0:0:
176,87,18055,1,0,0:0:0:0:
218,70,18134,1,2,0:0:0:0:
371,68,18292,1,0,0:0:0:0:
277,76,18450,2,0,L|261:169,2,95,2|2|2,0:0|0:0|0:0,0:0:0:0:
123,167,18924,6,0,L|120:261,1,95,2|0,0:0|0:0,0:0:0:0:
168,270,19161,1,0,0:0:0:0:
216,276,19240,1,2,0:0:0:0:
367,291,19397,2,0,L|370:197,1,95,2|0,0:0|0:0,0:0:0:0:
274,173,19713,1,2,0:0:0:0:
180,89,19871,1,0,0:0:0:0:
227,87,19950,1,0,0:0:0:0:
274,85,20029,1,2,0:0:0:0:
121,31,20187,5,2,0:0:0:0:
26,75,20345,2,0,L|19:121,2,47.5,0|0|2,0:0|0:0|0:0,0:0:0:0:
178,239,20661,2,0,P|174:148|93:108,1,190,2|2,0:0|0:0,0:0:0:0:
188,32,21134,2,0,L|94:29,1,95,2|2,0:0|0:0,0:0:0:0:
323,129,21450,5,6,0:0:0:0:
228,147,21608,2,0,L|225:241,1,95,0|2,0:0|0:0,0:0:0:0:
378,314,21924,2,0,L|188:319,2,190
226,242,22713,6,0,L|223:148,1,95,2|0,0:0|0:0,0:0:0:0:
319,122,23029,1,2,0:0:0:0:
167,34,23187,2,0,L|357:39,2,190
319,259,23976,6,0,L|322:165,1,95,2|0,0:0|0:0,0:0:0:0:
226,95,24292,2,0,L|416:90,2,190,2|2|2,0:0|0:0|0:0,0:0:0:0:
130,100,25082,1,0,0:0:0:0:
282,164,25240,6,0,L|285:258,1,95,2|2,0:0|0:0,0:0:0:0:
190,243,25555,2,0,L|187:337,1,95,2|2,0:0|0:0,0:0:0:0:
91,281,25871,2,0,L|88:187,1,95,2|2,0:0|0:0,0:0:0:0:
184,155,26187,2,0,L|198:107,3,47.5,2|0|0|0,0:0|0:0|0:0|0:0,0:0:0:0:
400,64,26503,6,0,L|494:68,2,95,10|2|2,0:0|0:0|0:0,0:0:0:0:
248,268,26976,2,0,L|245:174,1,95,10|2,0:0|0:0,0:0:0:0:
341,158,27292,1,2,0:0:0:0:
189,148,27450,1,10,0:0:0:0:
341,158,27608,1,10,0:0:0:0:
113,322,27766,6,0,L|110:228,1,95,10|2,0:0|0:0,0:0:0:0:
206,202,28082,1,2,0:0:0:0:
358,132,28240,2,0,L|264:129,1,95,10|2,0:0|0:0,0:0:0:0:
415,224,28555,2,0,L|428:269,2,47.5,10|2|2,0:0|0:0|0:0,0:0:0:0:
262,304,28871,2,0,L|259:257,1,47.5,10|2,0:0|0:0,0:0:0:0:
432,151,29029,6,0,L|240:145,2,190,2|0|0,0:0|0:0|0:0,0:0:0:0:
445,196,29740,2,0,L|431:150,6,47.5
245,296,30292,6,0,L|388:291,2,142.5,10|10|10,0:0|0:0|0:0,0:0:0:0:
92,286,30924,2,0,L|79:240,3,47.5,2|2|2|2,0:0|0:0|0:0|0:0,0:0:0:0:
253,241,31240,2,0,P|285:235|252:165,1,142.5,10|0,0:0|0:0,0:0:0:0:
79,160,31555,1,2,0:0:0:0:
221,41,31871,6,0,L|413:35,2,190,6|2|2,0:0|0:0|0:0,0:0:0:0:
317,119,32661,1,2,0:0:0:0:
166,159,32818,6,0,L|163:253,1,95,2|2,0:0|0:0,0:0:0:0:
259,239,33134,2,0,L|262:333,1,95,2|2,0:0|0:0,0:0:0:0:
109,361,33450,2,0,L|96:315,3,47.5,2|2|2|2,0:0|0:0|0:0|0:0,0:0:0:0:
270,265,33766,2,0,L|364:262,2,95,2|2|0,0:0|0:0|0:0,0:0:0:0:
40,176,34240,6,0,L|134:179,2,95,2|2|2,0:0|0:0|0:0,0:0:0:0:
192,359,34713,2,0,L|195:265,1,95,2|2,0:0|0:0,0:0:0:0:
127,276,34950,2,0,L|124:229,1,47.5,0|2,0:0|0:0,0:0:0:0:
220,201,35187,1,2,0:0:0:0:
448,181,35345,5,2,0:0:0:0:
353,147,35503,2,0,L|340:101,2,47.5,2|2|2,0:0|0:0|0:0,0:0:0:0:
448,181,35818,1,2,0:0:0:0:
296,255,35976,2,0,L|202:252,1,95,2|2,0:0|0:0,0:0:0:0:
431,347,36292,2,0,P|463:341|430:271,1,142.5,2|0,0:0|0:0,0:0:0:0:
253,271,36608,5,6,0:0:0:0:
386,255,36924,2,0,L|399:209,3,47.5,2|0|0|0,0:0|0:0|0:0|0:0,0:0:0:0:
225,143,37240,2,0,L|131:140,1,95,2|0,0:0|0:0,0:0:0:0:
282,336,37555,2,0,L|285:242,1,95,2|2,0:0|0:0,0:0:0:0:
189,219,37871,5,2,0:0:0:0:
341,63,38029,2,0,L|247:60,2,95,2|2|2,0:0|0:0|0:0,0:0:0:0:
188,135,38503,2,0,L|175:181,3,47.5,2|2|2|2,0:0|0:0|0:0|0:0,0:0:0:0:
346,258,38818,2,0,L|440:261,2,95,2|2|0,0:0|0:0|0:0,0:0:0:0:
116,303,39292,5,2,0:0:0:0:
211,292,39450,2,0,L|214:198,1,95,2|2,0:0|0:0,0:0:0:0:
61,159,39766,1,2,0:0:0:0:
156,149,39924,1,2,0:0:0:0:
157,101,40003,1,2,0:0:0:0:
159,54,40082,1,2,0:0:0:0:
312,36,40240,1,2,0:0:0:0:
161,257,40555,5,2,0:0:0:0:
313,335,40713,2,0,L|219:338,2,95,2|2|2,0:0|0:0|0:0,0:0:0:0:
83,331,41187,2,0,L|80:284,1,47.5,2|2,0:0|0:0,0:0:0:0:
254,253,41345,2,0,P|286:247|253:177,1,142.5,2|0,0:0|0:0,0:0:0:0:
157,169,41661,6,0,L|63:166,1,95,2|0,0:0|0:0,0:0:0:0:
399,204,41976,6,0,L|402:110,1,95,6|0,0:0|0:0,0:0:0:0:
306,88,42292,1,2,0:0:0:0:
154,181,42450,2,0,L|248:184,2,95,2|8|2,0:0|0:0|0:0,0:0:0:0:
307,275,42924,6,0,L|401:272,2,95,2|0|8,0:0|0:0|0:0,0:0:0:0:
155,278,43397,2,0,L|152:184,1,95,2|2,0:0|0:0,0:0:0:0:
248,162,43713,1,2,0:0:0:0:
96,129,43871,2,0,L|83:83,3,47.5,8|0|0|0,0:0|0:0|0:0|0:0,0:0:0:0:
257,243,44187,6,0,L|351:240,1,95,2|2,0:0|0:0,0:0:0:0:
199,175,44503,6,0,L|196:81,1,95,8|0,0:0|0:0,0:0:0:0:
292,59,44818,1,2,0:0:0:0:
140,14,44976,2,0,L|234:11,2,95,2|8|2,0:0|0:0|0:0,0:0:0:0:
293,120,45450,5,2,0:0:0:0:
198,243,45608,1,2,0:0:0:0:
196,195,45687,1,2,0:0:0:0:
194,148,45766,1,2,0:0:0:0:
347,187,45924,1,2,0:0:0:0:
119,301,46082,2,0,L|25:298,1,95,2|2,0:0|0:0,0:0:0:0:
119,213,46397,2,0,L|132:167,3,47.5,6|0|0|0,0:0|0:0|0:0|0:0,0:0:0:0:
305,82,46713,6,0,L|399:79,1,95,2|2,0:0|0:0,0:0:0:0:
247,263,47029,2,0,L|244:169,1,95,2|2,0:0|0:0,0:0:0:0:
397,296,47345,2,0,L|400:202,1,95,2|2,0:0|0:0,0:0:0:0:
244,168,47661,2,0,L|231:122,3,47.5,2|2|2|2,0:0|0:0|0:0|0:0,0:0:0:0:
402,66,47976,6,0,L|454:69,2,47.5,6|0|2,0:0|0:0|0:0,0:0:0:0:
249,115,48292,2,0,L|246:209,1,95,2|2,0:0|0:0,0:0:0:0:
399,290,48608,1,2,0:0:0:0:
352,288,48687,1,2,0:0:0:0:
305,286,48766,1,2,0:0:0:0:
153,348,48924,1,2,0:0:0:0:
58,274,49082,2,0,L|105:270,1,47.5,2|2,0:0|0:0,0:0:0:0:
279,262,49240,5,6,0:0:0:0:
326,244,49318,1,2,0:0:0:0:
346,197,49397,1,2,0:0:0:0:
326,151,49476,1,2,0:0:0:0:
277,133,49555,2,0,L|230:129,1,47.5,2|2,0:0|0:0,0:0:0:0:
277,55,49713,2,0,L|324:51,1,47.5,2|2,0:0|0:0,0:0:0:0:
122,317,49871,5,6,0:0:0:0:
104,269,49950,1,2,0:0:0:0:
126,223,50029,1,2,0:0:0:0:
175,209,50108,1,2,0:0:0:0:
349,195,50187,2,0,L|342:149,1,47.5,2|2,0:0|0:0,0:0:0:0:
284,133,50345,2,0,L|237:129,1,47.5,2|2,0:0|0:0,0:0:0:0:
439,316,50503,6,0,L|443:220,1,95,2|2,0:0|0:0,0:0:0:0:
395,198,50740,2,0,L|348:195,1,47.5,2|2,0:0|0:0,0:0:0:0:
443,135,50976,1,2,0:0:0:0:
290,86,51134,2,0,L|277:132,3,47.5,2|2|2|2,0:0|0:0|0:0|0:0,0:0:0:0:
104,297,51450,6,0,P|102:281|187:207,1,142.5,10|0,0:0|0:0,0:0:0:0:
357,206,51766,1,6,0:0:0:0:
114,120,56818,5,6,0:0:0:0:
424,332,60608,5,2,0:0:0:0:
328,329,60766,1,2,0:0:0:0:
172,320,60924,1,2,0:0:0:0:
293,217,61161,2,0,L|295:168,1,47.5,0|2,0:0|0:0,0:0:0:0:
204,78,61397,1,2,0:0:0:0:
295,75,61555,1,2,0:0:0:0:
451,71,61713,1,2,0:0:0:0:
224,293,61871,6,0,L|221:199,1,95,6|0,0:0|0:0,0:0:0:0:
317,167,62187,1,2,0:0:0:0:
165,75,62345,2,0,L|355:68,2,190
317,161,63134,6,0,L|411:164,2,95,2|0|2,0:0|0:0|0:0,0:0:0:0:
163,269,63608,2,0,L|353:262,2,190
315,329,64397,6,0,L|318:235,1,95,2|0,0:0|0:0,0:0:0:0:
222,212,64713,1,2,0:0:0:0:
70,199,64871,2,0,L|67:105,1,95,0|2,0:0|0:0,0:0:0:0:
220,151,65187,2,0,L|223:57,1,95,0|2,0:0|0:0,0:0:0:0:
127,38,65503,1,0,0:0:0:0:
279,25,65661,6,0,L|373:30,1,95,2|2,0:0|0:0,0:0:0:0:
222,101,65976,2,0,L|219:195,1,95,2|2,0:0|0:0,0:0:0:0:
315,152,66292,2,0,L|318:246,1,95,2|2,0:0|0:0,0:0:0:0:
270,258,66529,1,0,0:0:0:0:
99,253,66608,2,0,P|67:247|100:177,1,142.5,2|0,0:0|0:0,0:0:0:0:
273,162,66924,6,0,L|367:165,2,95,10|2|2,0:0|0:0|0:0,0:0:0:0:
45,285,67397,2,0,L|42:191,1,95,10|2,0:0|0:0,0:0:0:0:
137,173,67713,1,2,0:0:0:0:
367,67,67871,2,0,L|273:64,1,95,10|10,0:0|0:0,0:0:0:0:
42,253,68187,6,0,L|136:250,2,95,10|2|2,0:0|0:0|0:0,0:0:0:0:
272,359,68661,2,0,L|275:265,1,95,10|2,0:0|0:0,0:0:0:0:
123,185,68976,1,10,0:0:0:0:
170,183,69055,1,2,0:0:0:0:
217,182,69134,1,2,0:0:0:0:
371,87,69292,2,0,L|323:85,1,47.5,10|2,0:0|0:0,0:0:0:0:
102,371,69450,5,2,0:0:0:0:
99,323,69608,1,0,0:0:0:0:
97,276,69766,1,0,0:0:0:0:
95,228,69924,1,0,0:0:0:0:
93,181,70082,1,0,0:0:0:0:
91,133,70240,1,0,0:0:0:0:
89,86,70397,1,0,0:0:0:0:
87,38,70555,1,0,0:0:0:0:
315,83,70713,6,0,L|172:78,2,142.5,10|10|10,0:0|0:0|0:0,0:0:0:0:
162,169,71345,2,0,L|149:215,3,47.5,2|2|2|2,0:0|0:0|0:0|0:0,0:0:0:0:
323,214,71661,2,0,P|354:220|321:289,1,142.5,10|0,0:0|0:0,0:0:0:0:
148,284,71976,6,0,L|146:188,1,95,14|0,0:0|0:0,0:0:0:0:
194,177,72213,2,0,L|242:176,1,47.5,0|8,0:0|0:0,0:0:0:0:
395,167,72450,2,0,L|398:73,1,95,2|8,0:0|0:0,0:0:0:0:
245,246,72766,2,0,L|242:152,1,95,2|8,0:0|0:0,0:0:0:0:
338,131,73082,1,2,0:0:0:0:
110,224,73240,5,8,0:0:0:0:
204,213,73397,1,10,0:0:0:0:
228,173,73476,1,10,0:0:0:0:
224,126,73555,1,10,0:0:0:0:
193,92,73634,1,10,0:0:0:0:
147,82,73713,1,10,0:0:0:0:
300,43,73871,1,8,0:0:0:0:
147,161,74029,2,0,L|243:159,2,95,2|10|2,0:0|0:0|0:0,0:0:0:0:
377,290,74503,5,10,0:0:0:0:
282,273,74661,2,0,L|269:227,2,47.5,0|0|8,0:0|0:0|0:0,0:0:0:0:
434,230,74976,2,0,L|437:136,1,95,2|8,0:0|0:0,0:0:0:0:
284,150,75292,2,0,L|281:56,1,95,2|8,0:0|0:0,0:0:0:0:
377,35,75608,1,2,0:0:0:0:
149,265,75766,5,8,0:0:0:0:
244,253,75924,1,10,0:0:0:0:
244,205,76003,1,10,0:0:0:0:
245,158,76082,1,10,0:0:0:0:
246,110,76161,1,10,0:0:0:0:
247,63,76240,1,10,0:0:0:0:
399,35,76397,1,8,0:0:0:0:
247,63,76555,2,0,L|244:157,1,95,2|10,0:0|0:0,0:0:0:0:
397,188,76871,1,10,0:0:0:0:
169,223,77029,5,14,0:0:0:0:
74,238,77187,2,0,L|61:284,2,47.5,0|0|8,0:0|0:0|0:0,0:0:0:0:
227,203,77503,2,0,L|230:109,1,95,2|8,0:0|0:0,0:0:0:0:
78,169,77818,2,0,L|75:75,1,95,2|8,0:0|0:0,0:0:0:0:
171,47,78134,1,2,0:0:0:0:
399,29,78292,5,8,0:0:0:0:
304,233,78450,1,10,0:0:0:0:
280,192,78529,1,10,0:0:0:0:
285,146,78608,1,10,0:0:0:0:
316,111,78687,1,10,0:0:0:0:
361,100,78766,1,10,0:0:0:0:
208,65,78924,1,8,0:0:0:0:
361,141,79082,2,0,L|266:142,2,95,2|10|2,0:0|0:0|0:0,0:0:0:0:
133,241,79555,5,10,0:0:0:0:
228,256,79713,2,0,L|241:302,2,47.5,0|0|8,0:0|0:0|0:0,0:0:0:0:
75,231,80029,2,0,L|72:137,1,95,2|8,0:0|0:0,0:0:0:0:
225,171,80345,2,0,L|228:77,1,95,2|8,0:0|0:0,0:0:0:0:
132,53,80661,1,2,0:0:0:0:
359,313,80818,5,8,0:0:0:0:
263,232,80976,1,10,0:0:0:0:
311,230,81055,1,10,0:0:0:0:
358,228,81134,1,10,0:0:0:0:
130,307,81292,2,0,P|96:301|130:197,1,190,10|2,0:0|0:0,0:0:0:0:
283,105,81766,2,0,L|189:102,1,95,10|10,0:0|0:0,0:0:0:0:
418,308,82082,6,0,L|421:214,1,95,2|0,0:0|0:0,0:0:0:0:
193,232,82397,6,0,L|287:229,2,95,6|0|2,0:0|0:0|0:0,0:0:0:0:
346,143,82871,2,0,L|440:146,2,95,0|10|2,0:0|0:0|0:0,0:0:0:0:
193,186,83345,5,2,0:0:0:0:
288,174,83503,1,2,0:0:0:0:
289,126,83582,1,2,0:0:0:0:
291,79,83661,1,10,0:0:0:0:
139,49,83818,2,0,L|136:143,1,95,2|2,0:0|0:0,0:0:0:0:
232,169,84134,1,0,0:0:0:0:
80,211,84292,2,0,L|67:257,3,47.5,8|0|0|0,0:0|0:0|0:0|0:0,0:0:0:0:
241,167,84608,6,0,L|335:164,1,95,2|2,0:0|0:0,0:0:0:0:
183,345,84924,1,8,0:0:0:0:
279,334,85082,2,0,L|282:240,1,95,0|2,0:0|0:0,0:0:0:0:
131,157,85397,2,0,L|225:160,2,95,0|8|0,0:0|0:0|0:0,0:0:0:0:
361,314,85871,5,2,0:0:0:0:
265,308,86029,1,2,0:0:0:0:
263,261,86108,1,2,0:0:0:0:
261,213,86187,1,2,0:0:0:0:
33,138,86345,2,0,L|223:132,1,190,2|2,0:0|0:0,0:0:0:0:
71,221,86818,2,0,L|58:267,3,47.5,6|0|0|0,0:0|0:0|0:0|0:0,0:0:0:0:
232,317,87134,6,0,L|326:314,1,95,2|2,0:0|0:0,0:0:0:0:
174,132,87450,2,0,L|171:226,1,95,2|2,0:0|0:0,0:0:0:0:
324,231,87766,2,0,L|230:228,1,95,2|2,0:0|0:0,0:0:0:0:
76,210,88082,2,0,L|63:164,3,47.5,2|2|2|2,0:0|0:0|0:0|0:0,0:0:0:0:
234,79,88397,6,0,L|286:82,2,47.5,6|0|2,0:0|0:0|0:0,0:0:0:0:
81,108,88713,2,0,L|78:202,1,95,2|2,0:0|0:0,0:0:0:0:
231,237,89029,1,2,0:0:0:0:
278,235,89108,1,2,0:0:0:0:
325,233,89187,1,2,0:0:0:0:
172,321,89345,1,2,0:0:0:0:
267,344,89503,2,0,L|220:340,1,47.5,2|2,0:0|0:0,0:0:0:0:
46,317,89661,5,6,0:0:0:0:
28,268,89740,1,2,0:0:0:0:
38,218,89818,1,2,0:0:0:0:
74,181,89897,1,2,0:0:0:0:
124,168,89976,2,0,L|171:164,1,47.5,2|2,0:0|0:0,0:0:0:0:
124,89,90134,2,0,L|77:85,1,47.5,2|2,0:0|0:0,0:0:0:0:
250,134,90292,6,0,L|297:130,1,47.5,6|2,0:0|0:0,0:0:0:0:
250,55,90450,2,0,L|203:51,1,47.5,2|2,0:0|0:0,0:0:0:0:
376,212,90608,2,0,L|423:208,1,47.5,2|2,0:0|0:0,0:0:0:0:
250,55,90766,2,0,L|203:51,1,47.5,2|2,0:0|0:0,0:0:0:0:
405,292,90924,5,2,0:0:0:0:
500,277,91082,1,0,0:0:0:0:
502,230,91161,1,0,0:0:0:0:
504,182,91240,1,0,0:0:0:0:
409,152,91397,1,0,0:0:0:0:
257,62,91555,2,0,L|351:59,1,95
122,240,91871,6,0,P|91:233|124:165,1,142.5,8|0,0:0|0:0,0:0:0:0:
297,170,92187,1,6,0:0:0:0:
145,343,92503,6,0,L|142:249,1,95,8|0,0:0|0:0,0:0:0:0:
294,287,92818,2,0,L|297:193,1,95,8|0,0:0|0:0,0:0:0:0:
201,164,93134,1,8,0:0:0:0:
353,118,93292,6,0,L|447:115,1,95,2|8,0:0|0:0,0:0:0:0:
295,194,93608,2,0,L|292:288,1,95,2|8,0:0|0:0,0:0:0:0:
196,303,93924,2,0,L|193:209,1,95,2|8,0:0|0:0,0:0:0:0:
289,183,94240,1,2,0:0:0:0:
138,98,94397,2,0,L|232:95,1,95,10|2,0:0|0:0,0:0:0:0:
463,235,94713,6,0,P|494:228|465:153,1,142.5,8|0,0:0|0:0,0:0:0:0:
291,147,95029,2,0,L|197:150,1,95,8|0,0:0|0:0,0:0:0:0:
349,351,95345,2,0,L|352:257,1,95,8|0,0:0|0:0,0:0:0:0:
256,228,95661,1,8,0:0:0:0:
105,218,95818,6,0,L|102:124,1,95,2|8,0:0|0:0,0:0:0:0:
255,60,96134,2,0,L|161:63,2,95,2|8|2,0:0|0:0|0:0,0:0:0:0:
159,118,96608,1,10,0:0:0:0:
157,165,96687,1,10,0:0:0:0:
155,212,96766,1,10,0:0:0:0:
308,246,96924,1,8,0:0:0:0:
213,319,97082,2,0,L|261:317,1,47.5
434,227,97240,6,0,L|340:224,1,95,8|8,0:0|0:0,0:0:0:0:
111,76,97555,6,0,L|205:73,1,95,12|0,0:0|0:0,0:0:0:0:
359,170,97871,2,0,L|265:167,1,95,8|0,0:0|0:0,0:0:0:0:
168,176,98187,1,8,0:0:0:0:
320,348,98345,6,0,L|323:254,1,95,2|8,0:0|0:0,0:0:0:0:
170,276,98661,2,0,L|167:182,1,95,2|8,0:0|0:0,0:0:0:0:
262,187,98976,2,0,L|265:93,1,95,2|8,0:0|0:0,0:0:0:0:
169,62,99292,1,2,0:0:0:0:
321,41,99450,2,0,L|324:135,1,95,8|10,0:0|0:0,0:0:0:0:
94,301,99766,6,0,P|63:294|92:219,1,142.5,8|0,0:0|0:0,0:0:0:0:
266,213,100082,2,0,L|360:216,1,95,8|0,0:0|0:0,0:0:0:0:
209,366,100397,2,0,L|206:272,1,95,8|0,0:0|0:0,0:0:0:0:
359,134,100713,2,0,L|265:131,1,95,8|2,0:0|0:0,0:0:0:0:
34,122,101029,5,8,0:0:0:0:
130,203,101187,1,8,0:0:0:0:
81,205,101266,1,8,0:0:0:0:
35,206,101345,1,8,0:0:0:0:
263,326,101503,2,0,P|297:320|263:216,1,190,8|8,0:0|0:0,0:0:0:0:
110,124,101976,2,0,L|204:121,1,95,8|0,0:0|0:0,0:0:0:0:
433,264,102292,6,0,L|436:170,1,95,2|0,0:0|0:0,0:0:0:0:
206,98,102608,6,0,L|111:99,2,95,6|0|2,0:0|0:0|0:0,0:0:0:0:
358,308,103082,2,0,L|361:214,1,95,2|8,0:0|0:0,0:0:0:0:
265,183,103397,1,2,0:0:0:0:
417,93,103555,6,0,L|322:92,2,95,2|0|8,0:0|0:0|0:0,0:0:0:0:
265,183,104029,2,0,L|170:184,2,95,2|2|2,0:0|0:0|0:0,0:0:0:0:
418,212,104503,2,0,L|431:258,3,47.5,8|0|0|0,0:0|0:0|0:0|0:0,0:0:0:0:
260,307,104818,6,0,L|166:304,1,95,2|2,0:0|0:0,0:0:0:0:
318,196,105134,6,0,L|412:193,2,95,8|0|2,0:0|0:0|0:0,0:0:0:0:
165,207,105608,1,2,0:0:0:0:
260,198,105766,2,0,L|263:104,1,95,8|2,0:0|0:0,0:0:0:0:
112,70,106082,5,2,0:0:0:0:
207,229,106240,1,2,0:0:0:0:
205,181,106318,1,2,0:0:0:0:
203,134,106397,1,2,0:0:0:0:
51,170,106555,1,2,0:0:0:0:
279,303,106713,2,0,L|373:300,1,95,2|2,0:0|0:0,0:0:0:0:
278,215,107029,2,0,L|265:169,3,47.5,6|0|0|0,0:0|0:0|0:0|0:0,0:0:0:0:
439,206,107345,6,0,L|442:112,1,95,2|2,0:0|0:0,0:0:0:0:
289,47,107661,2,0,L|383:44,1,95,2|2,0:0|0:0,0:0:0:0:
232,138,107976,2,0,L|138:135,1,95,2|2,0:0|0:0,0:0:0:0:
290,276,108292,2,0,L|303:230,3,47.5,2|2|2|2,0:0|0:0|0:0|0:0,0:0:0:0:
129,294,108608,6,0,L|82:291,2,47.5,6|2|2,0:0|0:0|0:0,0:0:0:0:
282,280,108924,2,0,L|285:186,1,95,2|2,0:0|0:0,0:0:0:0:
438,101,109240,1,2,0:0:0:0:
390,99,109318,1,2,0:0:0:0:
343,97,109397,1,2,0:0:0:0:
191,188,109555,1,2,0:0:0:0:
286,175,109713,2,0,L|290:128,1,47.5,2|2,0:0|0:0,0:0:0:0:
117,119,109871,6,0,L|124:73,1,47.5,6|2,0:0|0:0,0:0:0:0:
182,57,110029,2,0,L|229:53,1,47.5,2|2,0:0|0:0,0:0:0:0:
56,317,110187,1,2,0:0:0:0:
38,269,110266,1,2,0:0:0:0:
60,223,110345,1,2,0:0:0:0:
109,209,110424,1,2,0:0:0:0:
283,306,110503,5,6,0:0:0:0:
307,258,110582,1,2,0:0:0:0:
312,206,110661,1,2,0:0:0:0:
302,156,110740,1,2,0:0:0:0:
276,111,110818,1,2,0:0:0:0:
236,77,110897,1,2,0:0:0:0:
188,57,110976,1,2,0:0:0:0:
136,54,111055,1,2,0:0:0:0:
335,31,111134,6,0,L|429:28,1,95,2|0,0:0|0:0,0:0:0:0:
277,216,111450,2,0,L|264:170,4,47.5,2|2|2|2|2,0:0|0:0|0:0|0:0|0:0,0:0:0:0:
127,351,111924,2,0,L|124:257,1,95,2|2,0:0|0:0,0:0:0:0:
277,216,112240,1,2,0:0:0:0:
