osu file format v14

[General]
AudioFilename: audio.mp3
AudioLeadIn: 0
PreviewTime: 71937
Countdown: 0
SampleSet: Soft
StackLeniency: 0.7
Mode: 2
LetterboxInBreaks: 0
WidescreenStoryboard: 1

[Editor]
Bookmarks: 1240,1871,2187,2503,2818,3134,3450,3766,4397,5029,5661,5976,6292,6924,7240,7555,7871,8187,8503,8818,9450,10082,11345,21450,26503,31871,41976,51766,56818,61871,66924,71976,82397,92187,102608,112378
DistanceSpacing: 1
BeatDivisor: 8
GridSize: 16
TimelineZoom: 2.6

[Metadata]
Title:Grayed Out -Antifront-
TitleUnicode:Grayed Out -Antifront-
Artist:Getty vs. DJ DiA
ArtistUnicode:Getty vs. DJ DiA
Creator:Nelly
Version:Platter
Source:
Tags:lacrima myle jemzuu ajamez mappers' guild mg featured artist fa electronic instrumental video game wacca lily わっふゑ vs. でこちんハンマー BOFU2016 - Legendary Again - SUPERALLOYS Pumpcore
BeatmapID:3180520
BeatmapSetID:1541235

[Difficulty]
HPDrainRate:5
CircleSize:3.5
OverallDifficulty:8
ApproachRate:8
SliderMultiplier:1.7
SliderTickRate:1

[Events]
//Background and Video events
0,0,"bg.jpg",0,0
//Break Periods
2,51966,56068
2,57018,59858
//Storyboard Layer 0 (Background)
//Storyboard Layer 1 (Fail)
//Storyboard Layer 2 (Pass)
//Storyboard Layer 3 (Foreground)
//Storyboard Layer 4 (Overlay)
//Storyboard Sound Samples

[TimingPoints]
1240,315.789473684211,4,2,1,50,1,0
1240,-250,4,2,1,50,0,0
1871,-250,4,2,3,50,0,0
1911,-250,4,2,1,50,0,0
2503,-250,4,2,3,50,0,0
2542,-250,4,2,1,50,0,0
3134,-250,4,2,3,50,0,0
3174,-250,4,2,1,50,0,0
3726,-250,4,2,1,5,0,0
3766,-250,4,2,1,50,0,0
4358,-250,4,2,1,5,0,0
4397,-250,4,2,1,50,0,0
4990,-250,4,2,1,5,0,0
5029,-250,4,2,1,50,0,0
5661,-250,4,2,3,50,0,0
5700,-250,4,2,1,50,0,0
5937,-250,4,2,1,5,0,0
5976,-250,4,2,1,50,0,0
6924,-250,4,2,3,50,0,0
6963,-250,4,2,1,50,0,0
7555,-250,4,2,3,50,0,0
7595,-250,4,2,1,50,0,0
8187,-250,4,2,3,50,0,0
8226,-250,4,2,1,50,0,0
8779,-250,4,2,1,5,0,0
8818,-250,4,2,1,50,0,0
9411,-250,4,2,1,5,0,0
9450,-250,4,2,1,50,0,0
10042,-250,4,2,1,5,0,0
10082,-100,4,2,1,50,0,0
11345,-100,4,2,1,60,0,0
11661,-100,4,2,2,60,0,0
21450,-100,4,2,1,60,0,0
26503,-100,4,2,1,70,0,0
30924,-100,4,2,1,80,0,0
31871,-100,4,2,1,80,0,0
33450,-100,4,2,1,80,0,0
33766,-100,4,2,1,80,0,0
34871,-100,4,2,1,80,0,0
35187,-100,4,2,1,80,0,0
36292,-100,4,2,1,80,0,0
36608,-100,4,2,1,80,0,0
39766,-100,4,2,1,80,0,0
40555,-100,4,2,1,80,0,0
41345,-100,4,2,1,80,0,0
41661,-100,4,2,1,80,0,0
41976,-100,4,2,1,80,0,0
43871,-100,4,2,1,80,0,0
44187,-100,4,2,1,80,0,0
47661,-100,4,2,1,80,0,0
47976,-100,4,2,1,80,0,0
51450,-100,4,2,1,80,0,0
51766,-100,4,2,1,80,0,0
60608,-100,4,2,1,60,0,0
66608,-100,4,2,1,60,0,0
66924,-100,4,2,1,70,0,0
69450,-100,4,2,1,70,0,0
71345,-100,4,2,1,70,0,0
71976,-100,4,2,2,80,0,1
74187,-100,4,2,2,80,0,1
74503,-100,4,2,2,80,0,1
76713,-100,4,2,2,80,0,1
77029,-100,4,2,2,80,0,1
79240,-100,4,2,2,80,0,1
79555,-100,4,2,2,80,0,1
81292,-100,4,2,2,80,0,1
81766,-100,4,2,2,80,0,1
82082,-100,4,2,2,80,0,0
82397,-100,4,2,1,80,0,1
86345,-100,4,2,1,80,0,1
86818,-100,4,2,1,80,0,0
87134,-100,4,2,1,80,0,1
90924,-100,4,2,1,70,0,0
91871,-100,4,2,1,70,0,0
92503,-100,4,2,2,80,0,0
97240,-100,4,2,2,80,0,0
97555,-100,4,2,2,80,0,0
101503,-100,4,2,2,80,0,0
101976,-100,4,2,1,80,0,0
104503,-100,4,2,1,80,0,0
104818,-100,4,2,1,80,0,0
106713,-100,4,2,1,80,0,0
107029,-100,4,2,1,80,0,0
107345,-100,4,2,1,80,0,0
108292,-100,4,2,1,80,0,0
108608,-100,4,2,1,80,0,0
111134,-100,4,2,2,60,0,0

[Colours]
Combo1 : 240,106,140
Combo2 : 199,167,177

[HitObjects]
452,336,1240,6,0,B|135:366|376:34|60:64,1,544,6|2,0:0|0:0,0:0:0:0:
256,192,4397,5,2,0:0:0:0:
256,192,5029,1,2,0:0:0:0:
448,192,5661,5,0,0:0:0:0:
448,192,5976,1,2,0:0:0:0:
60,336,6292,6,0,B|377:366|136:34|452:64,1,544,6|2,0:0|0:0,0:0:0:0:
256,192,9450,5,2,0:0:0:0:
64,192,10082,2,0,L|61:108,1,85,2|2,0:0|0:0,0:0:0:0:
214,71,10397,1,2,0:0:0:0:
341,61,10634,2,0,L|385:60,1,42.5,0|2,0:0|0:0,0:0:0:0:
429,128,10871,1,2,0:0:0:0:
407,207,11029,1,2,0:0:0:0:
333,242,11187,1,2,0:0:0:0:
110,244,11345,6,0,L|25:239,2,85,6|0|2,0:0|0:0|0:0,0:0:0:0:
195,237,11818,2,0,L|198:151,1,85,2|0,0:0|0:0,0:0:0:0:
112,160,12134,2,0,L|109:74,1,85,2|0,0:0|0:0,0:0:0:0:
195,48,12450,1,2,0:0:0:0:
348,35,12608,5,2,0:0:0:0:
433,57,12766,2,0,L|444:99,2,42.5,0|0|2,0:0|0:0|0:0,0:0:0:0:
348,35,13082,1,2,0:0:0:0:
195,48,13240,1,0,0:0:0:0:
110,131,13397,2,0,L|195:136,2,85,2|2|2,0:0|0:0|0:0,0:0:0:0:
264,253,13871,5,2,0:0:0:0:
349,240,14029,2,0,L|352:154,1,85,0|2,0:0|0:0,0:0:0:0:
266,172,14345,2,0,L|263:86,1,85,2|0,0:0|0:0,0:0:0:0:
349,45,14661,2,0,L|435:48,2,85,2|0|2,0:0|0:0|0:0,0:0:0:0:
195,39,15134,5,2,0:0:0:0:
110,180,15292,1,0,0:0:0:0:
111,137,15371,1,0,0:0:0:0:
112,95,15450,1,2,0:0:0:0:
198,247,15608,1,2,0:0:0:0:
351,240,15766,1,0,0:0:0:0:
266,229,15924,2,0,L|263:143,1,85,2|2,0:0|0:0,0:0:0:0:
177,125,16240,1,2,0:0:0:0:
397,77,16397,6,0,L|483:80,2,85,2|0|2,0:0|0:0|0:0,0:0:0:0:
311,90,16871,2,0,L|308:174,1,85,2|0,0:0|0:0,0:0:0:0:
222,149,17187,2,0,L|219:233,1,85,2|0,0:0|0:0,0:0:0:0:
305,260,17503,1,2,0:0:0:0:
152,300,17661,5,2,0:0:0:0:
67,278,17818,2,0,L|56:235,2,42.5,0|0|2,0:0|0:0|0:0,0:0:0:0:
152,300,18134,1,2,0:0:0:0:
304,313,18292,1,0,0:0:0:0:
219,228,18450,2,0,L|303:225,2,85,2|2|2,0:0|0:0|0:0,0:0:0:0:
65,212,18924,6,0,L|62:128,1,85,2|0,0:0|0:0,0:0:0:0:
148,102,19240,1,2,0:0:0:0:
233,87,19397,2,0,L|236:171,1,85,2|0,0:0|0:0,0:0:0:0:
150,255,19713,2,0,L|234:258,2,85,2|0|2,0:0|0:0|0:0,0:0:0:0:
304,264,20187,5,2,0:0:0:0:
389,256,20345,1,0,0:0:0:0:
390,213,20424,1,0,0:0:0:0:
392,171,20503,1,2,0:0:0:0:
238,142,20661,1,2,0:0:0:0:
407,45,20976,2,0,L|323:48,2,85,2|2|2,0:0|0:0|0:0,0:0:0:0:
184,224,21450,5,6,0:0:0:0:
99,211,21608,2,0,L|96:125,1,85,0|2,0:0|0:0,0:0:0:0:
250,63,21924,2,0,P|298:64|346:164,2,170
165,104,22713,6,0,L|162:188,1,85,2|0,0:0|0:0,0:0:0:0:
248,219,23029,1,2,0:0:0:0:
401,242,23187,2,0,P|449:241|497:141,2,170
316,263,23976,6,0,L|313:347,1,85,2|0,0:0|0:0,0:0:0:0:
159,369,24292,2,0,P|111:368|63:268,2,170,2|2|2,0:0|0:0|0:0,0:0:0:0:
245,352,25082,1,0,0:0:0:0:
92,293,25240,6,0,L|89:209,1,85,2|2,0:0|0:0,0:0:0:0:
174,246,25555,2,0,L|177:162,1,85,2|2,0:0|0:0,0:0:0:0:
263,125,25871,1,2,0:0:0:0:
178,75,26029,1,2,0:0:0:0:
135,73,26108,1,0,0:0:0:0:
93,71,26187,1,2,0:0:0:0:
471,291,26503,5,10,0:0:0:0:
474,206,26661,1,2,0:0:0:0:
389,189,26818,1,2,0:0:0:0:
236,167,26976,1,10,0:0:0:0:
151,170,27134,1,2,0:0:0:0:
236,167,27292,1,2,0:0:0:0:
389,77,27450,1,10,0:0:0:0:
304,74,27608,1,10,0:0:0:0:
150,70,27766,5,10,0:0:0:0:
64,73,27924,1,2,0:0:0:0:
150,70,28082,1,2,0:0:0:0:
304,74,28240,1,10,0:0:0:0:
307,159,28397,1,2,0:0:0:0:
154,181,28555,1,10,0:0:0:0:
152,223,28634,1,2,0:0:0:0:
150,265,28713,1,2,0:0:0:0:
304,285,28871,1,10,0:0:0:0:
347,283,28950,1,2,0:0:0:0:
389,281,29029,5,2,0:0:0:0:
236,192,29345,1,0,0:0:0:0:
389,186,29661,1,0,0:0:0:0:
169,63,30292,5,10,0:0:0:0:
296,67,30529,1,10,0:0:0:0:
169,63,30766,1,10,0:0:0:0:
254,144,30924,2,0,L|264:185,2,42.5,2|2|2,0:0|0:0|0:0,0:0:0:0:
100,166,31240,2,0,L|97:250,1,85,10|0,0:0|0:0,0:0:0:0:
319,317,31555,1,2,0:0:0:0:
183,228,31871,6,0,L|356:222,2,170,6|2|2,0:0|0:0|0:0,0:0:0:0:
97,234,32661,1,2,0:0:0:0:
249,146,32818,6,0,L|252:62,1,85,2|2,0:0|0:0,0:0:0:0:
166,177,33134,2,0,L|163:93,1,85,2|2,0:0|0:0,0:0:0:0:
317,56,33450,1,2,0:0:0:0:
356,67,33529,1,2,0:0:0:0:
373,104,33608,1,2,0:0:0:0:
356,142,33687,1,2,0:0:0:0:
317,153,33766,1,2,0:0:0:0:
231,153,33924,1,2,0:0:0:0:
384,261,34082,5,0,0:0:0:0:
469,172,34240,2,0,L|385:175,2,85,2|2|2,0:0|0:0|0:0,0:0:0:0:
316,98,34713,1,2,0:0:0:0:
231,105,34871,1,2,0:0:0:0:
229,147,34950,1,0,0:0:0:0:
227,189,35029,1,2,0:0:0:0:
313,222,35187,1,2,0:0:0:0:
160,278,35345,5,2,0:0:0:0:
75,256,35503,1,2,0:0:0:0:
77,214,35582,1,2,0:0:0:0:
79,172,35661,1,2,0:0:0:0:
164,147,35818,1,2,0:0:0:0:
317,134,35976,2,0,L|231:131,1,85,2|2,0:0|0:0,0:0:0:0:
146,128,36292,2,0,L|60:125,1,85,2|0,0:0|0:0,0:0:0:0:
284,274,36608,5,6,0:0:0:0:
148,322,36924,6,0,L|132:282,4,42.5,2|0|0|0|2,0:0|0:0|0:0|0:0|0:0,0:0:0:0:
233,335,37397,1,0,0:0:0:0:
318,343,37555,2,0,L|321:259,1,85,2|2,0:0|0:0,0:0:0:0:
167,232,37871,6,0,L|164:148,1,85,2|2,0:0|0:0,0:0:0:0:
250,188,38187,2,0,L|253:104,1,85,2|2,0:0|0:0,0:0:0:0:
99,64,38503,1,2,0:0:0:0:
60,75,38582,1,2,0:0:0:0:
43,112,38661,1,2,0:0:0:0:
60,150,38740,1,2,0:0:0:0:
99,161,38818,1,2,0:0:0:0:
185,161,38976,1,2,0:0:0:0:
337,161,39134,5,0,0:0:0:0:
252,175,39292,2,0,L|236:258,2,85,2|2|2,0:0|0:0|0:0,0:0:0:0:
406,249,39766,1,2,0:0:0:0:
491,271,39924,2,0,L|502:313,2,42.5,2|2|2,0:0|0:0|0:0,0:0:0:0:
406,249,40240,1,2,0:0:0:0:
236,326,40555,5,2,0:0:0:0:
309,287,40713,1,2,0:0:0:0:
339,209,40871,1,2,0:0:0:0:
309,131,41029,1,2,0:0:0:0:
155,98,41187,2,0,L|111:95,2,42.5,2|2|2,0:0|0:0|0:0,0:0:0:0:
425,317,41661,6,0,L|428:233,1,85,2|0,0:0|0:0,0:0:0:0:
207,179,41976,6,0,L|123:182,2,85,6|0|2,0:0|0:0|0:0,0:0:0:0:
293,195,42450,2,0,L|295:279,1,85,2|8,0:0|0:0,0:0:0:0:
210,301,42766,1,2,0:0:0:0:
363,340,42924,6,0,L|447:337,2,85,2|0|8,0:0|0:0|0:0,0:0:0:0:
278,249,43397,2,0,L|362:252,2,85,2|2|2,0:0|0:0|0:0,0:0:0:0:
364,161,43871,2,0,L|375:119,2,42.5,8|0|0,0:0|0:0|0:0,0:0:0:0:
141,178,44187,6,0,L|138:262,1,85,2|2,0:0|0:0,0:0:0:0:
292,333,44503,6,0,L|294:249,1,85,8|0,0:0|0:0,0:0:0:0:
209,227,44818,1,2,0:0:0:0:
124,139,44976,2,0,L|208:136,2,85,2|8|2,0:0|0:0|0:0,0:0:0:0:
278,250,45450,5,2,0:0:0:0:
363,239,45608,1,2,0:0:0:0:
364,196,45687,1,2,0:0:0:0:
366,154,45766,1,2,0:0:0:0:
280,114,45924,1,2,0:0:0:0:
433,74,46082,2,0,L|435:158,1,85,2|2,0:0|0:0,0:0:0:0:
350,179,46397,1,6,0:0:0:0:
348,221,46476,1,0,0:0:0:0:
347,263,46555,1,0,0:0:0:0:
124,310,46713,6,0,L|40:307,1,85,2|2,0:0|0:0,0:0:0:0:
125,224,47029,2,0,L|127:140,1,85,2|2,0:0|0:0,0:0:0:0:
213,104,47345,2,0,L|297:101,1,85,2|2,0:0|0:0,0:0:0:0:
212,186,47661,2,0,L|201:228,2,42.5,2|2|2,0:0|0:0|0:0,0:0:0:0:
433,239,47976,6,0,L|476:235,2,42.5,6|0|2,0:0|0:0|0:0,0:0:0:0:
347,241,48292,2,0,L|345:157,1,85,2|2,0:0|0:0,0:0:0:0:
259,65,48608,1,2,0:0:0:0:
301,63,48687,1,2,0:0:0:0:
343,62,48766,1,2,0:0:0:0:
257,147,48924,2,0,L|173:144,1,85,2|2,0:0|0:0,0:0:0:0:
395,337,49240,5,6,0:0:0:0:
434,326,49318,1,2,0:0:0:0:
451,289,49397,1,2,0:0:0:0:
434,251,49476,1,2,0:0:0:0:
394,240,49555,1,2,0:0:0:0:
309,240,49713,1,2,0:0:0:0:
157,233,49871,5,6,0:0:0:0:
198,225,49950,1,2,0:0:0:0:
229,197,50029,1,2,0:0:0:0:
240,156,50108,1,2,0:0:0:0:
228,116,50187,1,2,0:0:0:0:
197,88,50266,1,2,0:0:0:0:
156,81,50345,1,2,0:0:0:0:
379,48,50503,5,2,0:0:0:0:
464,55,50661,1,2,0:0:0:0:
466,97,50740,1,2,0:0:0:0:
468,139,50818,1,2,0:0:0:0:
382,172,50976,1,2,0:0:0:0:
230,189,51134,2,0,L|188:185,2,42.5,2|2|2,0:0|0:0|0:0,0:0:0:0:
453,302,51450,1,10,0:0:0:0:
317,305,51766,5,6,0:0:0:0:
111,216,56818,5,6,0:0:0:0:
427,183,60608,6,0,L|430:99,1,85,2|2,0:0|0:0,0:0:0:0:
277,62,60924,1,2,0:0:0:0:
150,52,61161,2,0,L|106:51,1,42.5,0|2,0:0|0:0,0:0:0:0:
62,119,61397,1,2,0:0:0:0:
84,198,61555,1,2,0:0:0:0:
158,233,61713,1,2,0:0:0:0:
381,233,61871,6,0,L|465:230,2,85,6|0|2,0:0|0:0|0:0,0:0:0:0:
227,128,62345,2,0,L|401:132,2,170
142,137,63134,6,0,L|139:221,1,85,2|0,0:0|0:0,0:0:0:0:
225,245,63450,1,2,0:0:0:0:
378,262,63608,2,0,P|426:261|474:161,2,170
293,242,64397,6,0,L|290:158,1,85,2|0,0:0|0:0,0:0:0:0:
136,72,64713,2,0,L|305:68,2,170,2|2|2,0:0|0:0|0:0,0:0:0:0:
222,150,65503,1,0,0:0:0:0:
375,179,65661,6,0,L|378:263,1,85,2|2,0:0|0:0,0:0:0:0:
293,229,65976,2,0,L|290:313,1,85,2|2,0:0|0:0,0:0:0:0:
376,343,66292,1,2,0:0:0:0:
461,328,66450,1,2,0:0:0:0:
462,285,66529,1,0,0:0:0:0:
464,243,66608,1,2,0:0:0:0:
85,242,66924,5,10,0:0:0:0:
82,157,67082,1,2,0:0:0:0:
167,140,67240,1,2,0:0:0:0:
320,145,67397,1,10,0:0:0:0:
323,60,67555,1,2,0:0:0:0:
238,43,67713,1,2,0:0:0:0:
392,93,67871,1,10,0:0:0:0:
395,178,68029,1,10,0:0:0:0:
241,237,68187,5,10,0:0:0:0:
156,240,68345,1,2,0:0:0:0:
241,237,68503,1,2,0:0:0:0:
394,342,68661,1,10,0:0:0:0:
309,339,68818,1,2,0:0:0:0:
157,325,68976,1,10,0:0:0:0:
156,282,69055,1,2,0:0:0:0:
154,240,69134,1,2,0:0:0:0:
308,142,69292,1,10,0:0:0:0:
265,141,69371,1,2,0:0:0:0:
221,31,69450,5,2,0:0:0:0:
167,58,69608,1,0,0:0:0:0:
126,102,69766,1,0,0:0:0:0:
104,159,69924,1,0,0:0:0:0:
104,219,70082,1,0,0:0:0:0:
125,275,70240,1,0,0:0:0:0:
166,320,70397,1,0,0:0:0:0:
219,348,70555,1,0,0:0:0:0:
372,273,70713,5,10,0:0:0:0:
245,268,70950,1,10,0:0:0:0:
372,273,71187,1,10,0:0:0:0:
287,191,71345,2,0,L|276:149,2,42.5,2|2|2,0:0|0:0|0:0,0:0:0:0:
441,198,71661,2,0,L|444:114,1,85,10|0,0:0|0:0,0:0:0:0:
223,69,71976,6,0,L|139:72,2,85,14|0|8,0:0|0:0|0:0,0:0:0:0:
309,202,72450,2,0,L|312:118,1,85,2|8,0:0|0:0,0:0:0:0:
226,244,72766,2,0,L|223:160,1,85,2|8,0:0|0:0,0:0:0:0:
309,134,73082,1,2,0:0:0:0:
156,117,73240,5,8,0:0:0:0:
71,128,73397,2,0,L|60:170,2,42.5,10|10|10,0:0|0:0|0:0,0:0:0:0:
156,117,73713,1,10,0:0:0:0:
309,111,73871,1,8,0:0:0:0:
224,212,74029,2,0,L|308:209,2,85,2|10|2,0:0|0:0|0:0,0:0:0:0:
447,359,74503,6,0,L|450:275,1,85,10|0,0:0|0:0,0:0:0:0:
365,250,74818,1,8,0:0:0:0:
280,234,74976,2,0,L|277:150,1,85,2|8,0:0|0:0,0:0:0:0:
363,70,75292,2,0,L|279:67,2,85,2|8|2,0:0|0:0|0:0,0:0:0:0:
209,146,75766,5,8,0:0:0:0:
124,157,75924,2,0,L|113:199,2,42.5,10|10|10,0:0|0:0|0:0,0:0:0:0:
209,146,76240,1,10,0:0:0:0:
362,131,76397,1,8,0:0:0:0:
280,240,76555,2,0,L|277:156,1,85,2|10,0:0|0:0,0:0:0:0:
362,131,76871,1,10,0:0:0:0:
139,127,77029,5,14,0:0:0:0:
54,144,77187,2,0,L|51:228,1,85,0|8,0:0|0:0,0:0:0:0:
137,315,77503,2,0,L|140:231,1,85,2|8,0:0|0:0,0:0:0:0:
225,184,77818,2,0,L|309:187,2,85,2|8|2,0:0|0:0|0:0,0:0:0:0:
379,95,78292,5,8,0:0:0:0:
464,106,78450,2,0,L|475:148,2,42.5,10|10|10,0:0|0:0|0:0,0:0:0:0:
379,95,78766,1,10,0:0:0:0:
225,85,78924,1,8,0:0:0:0:
140,168,79082,2,0,L|224:165,2,85,2|10|2,0:0|0:0|0:0,0:0:0:0:
361,273,79555,6,0,L|445:276,2,85,10|0|8,0:0|0:0|0:0,0:0:0:0:
276,234,80029,2,0,L|273:150,1,85,2|8,0:0|0:0,0:0:0:0:
359,192,80345,2,0,L|362:108,1,85,2|8,0:0|0:0,0:0:0:0:
276,94,80661,1,2,0:0:0:0:
123,77,80818,5,8,0:0:0:0:
208,238,80976,1,10,0:0:0:0:
210,196,81055,1,10,0:0:0:0:
211,154,81134,1,10,0:0:0:0:
57,164,81292,1,10,0:0:0:0:
193,316,81608,1,2,0:0:0:0:
108,304,81766,2,0,L|105:220,1,85,10|10,0:0|0:0,0:0:0:0:
328,166,82082,6,0,L|412:163,1,85,2|0,0:0|0:0,0:0:0:0:
192,78,82397,6,0,L|108:75,2,85,6|0|2,0:0|0:0|0:0,0:0:0:0:
278,83,82871,1,0,0:0:0:0:
193,160,83029,2,0,L|190:244,1,85,10|2,0:0|0:0,0:0:0:0:
344,272,83345,5,2,0:0:0:0:
429,260,83503,2,0,L|440:218,2,42.5,2|2|10,0:0|0:0|0:0,0:0:0:0:
344,272,83818,1,2,0:0:0:0:
259,269,83976,2,0,L|256:185,1,85,2|0,0:0|0:0,0:0:0:0:
170,166,84292,2,0,L|159:207,2,42.5,8|0|0,0:0|0:0|0:0,0:0:0:0:
393,119,84608,6,0,L|477:116,1,85,2|2,0:0|0:0,0:0:0:0:
324,261,84924,1,8,0:0:0:0:
239,258,85082,2,0,L|236:174,1,85,0|2,0:0|0:0,0:0:0:0:
321,86,85397,2,0,L|237:89,2,85,0|8|0,0:0|0:0|0:0,0:0:0:0:
168,102,85871,5,2,0:0:0:0:
253,131,86029,1,2,0:0:0:0:
255,173,86108,1,2,0:0:0:0:
257,215,86187,1,2,0:0:0:0:
411,245,86345,1,2,0:0:0:0:
275,318,86661,5,2,0:0:0:0:
427,296,86818,2,0,L|430:212,1,85,6|0,0:0|0:0,0:0:0:0:
207,160,87134,6,0,L|123:157,1,85,2|2,0:0|0:0,0:0:0:0:
208,244,87450,2,0,L|211:328,1,85,2|2,0:0|0:0,0:0:0:0:
297,356,87766,2,0,L|300:272,1,85,2|2,0:0|0:0,0:0:0:0:
386,179,88082,1,2,0:0:0:0:
343,177,88161,1,2,0:0:0:0:
301,175,88240,1,2,0:0:0:0:
80,291,88397,5,6,0:0:0:0:
78,249,88476,1,0,0:0:0:0:
77,207,88555,1,2,0:0:0:0:
163,244,88713,2,0,L|166:160,1,85,2|2,0:0|0:0,0:0:0:0:
320,76,89029,1,2,0:0:0:0:
278,74,89108,1,2,0:0:0:0:
236,73,89187,1,2,0:0:0:0:
321,159,89345,2,0,L|324:243,1,85,2|2,0:0|0:0,0:0:0:0:
101,336,89661,5,6,0:0:0:0:
62,325,89740,1,2,0:0:0:0:
45,288,89818,1,2,0:0:0:0:
62,250,89897,1,2,0:0:0:0:
102,239,89976,1,2,0:0:0:0:
187,239,90134,1,2,0:0:0:0:
339,125,90292,5,6,0:0:0:0:
296,124,90371,1,2,0:0:0:0:
254,123,90450,1,2,0:0:0:0:
211,123,90529,1,2,0:0:0:0:
169,122,90608,1,2,0:0:0:0:
126,121,90687,1,2,0:0:0:0:
84,121,90766,1,2,0:0:0:0:
307,339,90924,5,2,0:0:0:0:
392,328,91082,1,0,0:0:0:0:
393,285,91161,1,0,0:0:0:0:
395,243,91240,1,0,0:0:0:0:
309,203,91397,1,0,0:0:0:0:
157,77,91555,2,0,L|241:74,1,85
396,83,91871,5,8,0:0:0:0:
19,246,92187,1,6,0:0:0:0:
155,291,92503,6,0,L|158:207,1,85,8|0,0:0|0:0,0:0:0:0:
73,227,92818,2,0,L|70:143,1,85,8|0,0:0|0:0,0:0:0:0:
156,103,93134,1,8,0:0:0:0:
309,89,93292,6,0,L|393:86,1,85,2|8,0:0|0:0,0:0:0:0:
308,172,93608,2,0,L|305:256,1,85,2|8,0:0|0:0,0:0:0:0:
219,271,93924,2,0,L|216:187,1,85,2|8,0:0|0:0,0:0:0:0:
302,165,94240,1,2,0:0:0:0:
150,128,94397,2,0,L|66:125,1,85,10|2,0:0|0:0,0:0:0:0:
288,45,94713,6,0,L|372:42,1,85,8|0,0:0|0:0,0:0:0:0:
219,126,95029,2,0,L|216:210,1,85,8|0,0:0|0:0,0:0:0:0:
302,174,95345,2,0,L|305:258,1,85,8|0,0:0|0:0,0:0:0:0:
219,297,95661,1,8,0:0:0:0:
371,344,95818,6,0,L|374:260,1,85,2|8,0:0|0:0,0:0:0:0:
288,284,96134,2,0,L|285:200,1,85,2|8,0:0|0:0,0:0:0:0:
199,176,96450,1,2,0:0:0:0:
352,133,96608,2,0,L|363:92,2,42.5,10|10|10,0:0|0:0|0:0,0:0:0:0:
266,143,96924,1,8,0:0:0:0:
351,152,97082,1,0,0:0:0:0:
130,198,97240,6,0,L|46:201,1,85,8|8,0:0|0:0,0:0:0:0:
266,364,97555,2,0,L|269:280,1,85,12|0,0:0|0:0,0:0:0:0:
183,302,97871,2,0,L|180:218,1,85,8|0,0:0|0:0,0:0:0:0:
266,189,98187,1,8,0:0:0:0:
113,130,98345,6,0,L|29:127,1,85,2|8,0:0|0:0,0:0:0:0:
114,217,98661,2,0,L|117:301,1,85,2|8,0:0|0:0,0:0:0:0:
202,339,98976,2,0,L|205:255,1,85,2|8,0:0|0:0,0:0:0:0:
291,166,99292,1,2,0:0:0:0:
206,163,99450,1,8,0:0:0:0:
121,161,99608,1,10,0:0:0:0:
344,256,99766,6,0,L|428:253,1,85,8|0,0:0|0:0,0:0:0:0:
275,219,100082,2,0,L|272:135,1,85,8|0,0:0|0:0,0:0:0:0:
358,157,100397,2,0,L|361:73,1,85,8|0,0:0|0:0,0:0:0:0:
207,30,100713,2,0,L|291:27,1,85,8|2,0:0|0:0,0:0:0:0:
138,218,101029,5,8,0:0:0:0:
53,206,101187,1,8,0:0:0:0:
54,163,101266,1,8,0:0:0:0:
56,121,101345,1,8,0:0:0:0:
210,97,101503,1,8,0:0:0:0:
345,281,101818,1,8,0:0:0:0:
192,261,101976,2,0,L|189:177,1,85,8|0,0:0|0:0,0:0:0:0:
412,66,102292,6,0,L|328:63,1,85,2|0,0:0|0:0,0:0:0:0:
104,199,102608,6,0,L|101:115,1,85,6|0,0:0|0:0,0:0:0:0:
187,83,102924,1,2,0:0:0:0:
272,170,103082,2,0,L|188:167,2,85,2|8|2,0:0|0:0|0:0,0:0:0:0:
425,351,103555,6,0,L|428:267,1,85,2|0,0:0|0:0,0:0:0:0:
342,235,103871,1,8,0:0:0:0:
257,210,104029,2,0,L|254:126,1,85,2|2,0:0|0:0,0:0:0:0:
340,94,104345,1,2,0:0:0:0:
187,55,104503,2,0,L|176:97,2,42.5,8|0|0,0:0|0:0|0:0,0:0:0:0:
409,36,104818,6,0,L|412:120,1,85,2|2,0:0|0:0,0:0:0:0:
258,177,105134,6,0,L|174:174,2,85,8|0|2,0:0|0:0|0:0,0:0:0:0:
172,345,105608,2,0,L|169:261,1,85,2|8,0:0|0:0,0:0:0:0:
255,229,105924,1,2,0:0:0:0:
102,216,106082,5,2,0:0:0:0:
17,205,106240,1,2,0:0:0:0:
16,162,106318,1,2,0:0:0:0:
14,120,106397,1,2,0:0:0:0:
100,80,106555,1,2,0:0:0:0:
253,73,106713,2,0,L|255:157,1,85,2|2,0:0|0:0,0:0:0:0:
169,203,107029,2,0,L|158:245,2,42.5,6|0|0,0:0|0:0|0:0,0:0:0:0:
392,166,107345,6,0,L|476:163,1,85,2|2,0:0|0:0,0:0:0:0:
391,334,107661,2,0,L|389:250,1,85,2|2,0:0|0:0,0:0:0:0:
304,309,107976,2,0,L|302:225,1,85,2|2,0:0|0:0,0:0:0:0:
388,166,108292,2,0,L|399:124,2,42.5,2|2|2,0:0|0:0|0:0,0:0:0:0:
165,217,108608,5,6,0:0:0:0:
123,215,108687,1,2,0:0:0:0:
81,214,108766,1,2,0:0:0:0:
167,383,108924,2,0,L|169:299,1,85,2|2,0:0|0:0,0:0:0:0:
255,136,109240,1,2,0:0:0:0:
213,134,109318,1,2,0:0:0:0:
171,133,109397,1,2,0:0:0:0:
256,45,109555,2,0,L|340:42,1,85,2|2,0:0|0:0,0:0:0:0:
118,284,109871,5,6,0:0:0:0:
79,273,109950,1,2,0:0:0:0:
62,236,110029,1,2,0:0:0:0:
79,198,110108,1,2,0:0:0:0:
119,187,110187,1,2,0:0:0:0:
204,187,110345,1,2,0:0:0:0:
357,187,110503,6,0,L|373:147,6,42.5,6|2|2|2|2|2|2,0:0|0:0|0:0|0:0|0:0|0:0|0:0,0:0:0:0:
136,308,111134,6,0,L|52:306,1,85,2|0,0:0|0:0,0:0:0:0:
137,219,111450,2,0,L|148:177,2,42.5,2|2|2,0:0|0:0|0:0,0:0:0:0:
291,179,111766,2,0,L|343:111,2,85,2|2|2,0:0|0:0|0:0,0:0:0:0:
137,209,112240,1,2,0:0:0:0:
