osu file format v14

[General]
AudioFilename: audio.mp3
AudioLeadIn: 0
PreviewTime: 71937
Countdown: 0
SampleSet: Soft
StackLeniency: 0.7
Mode: 2
LetterboxInBreaks: 0
WidescreenStoryboard: 0

[Editor]
Bookmarks: 1240,1871,2187,2503,2818,3134,3450,3766,4397,5029,5661,5976,6292,6924,7240,7555,7871,8187,8503,8818,9450,10082,11345,21450,26503,31871,41976,51766,56818,61871,66924,71976,82397,92187,102608,112378
DistanceSpacing: 2.8
BeatDivisor: 8
GridSize: 4
TimelineZoom: 2.6

[Metadata]
Title:Grayed Out -Antifront-
TitleUnicode:Grayed Out -Antifront-
Artist:Getty vs. DJ DiA
ArtistUnicode:Getty vs. DJ DiA
Creator:Nelly
Version:Anticlimax
Source:
Tags:lacrima myle jemzuu ajamez mappers' guild mg featured artist fa electronic instrumental video game wacca lily わっふゑ vs. でこちんハンマー BOFU2016 - Legendary Again - SUPERALLOYS Pumpcore
BeatmapID:3150554
BeatmapSetID:1541235

[Difficulty]
HPDrainRate:6
CircleSize:4.4
OverallDifficulty:9.6
ApproachRate:9.6
SliderMultiplier:2.2
SliderTickRate:2

[Events]
//Background and Video events
0,0,"bg.jpg",0,0
//Break Periods
2,51966,56309
2,57018,60099
//Storyboard Layer 0 (Background)
//Storyboard Layer 1 (Fail)
//Storyboard Layer 2 (Pass)
//Storyboard Layer 3 (Foreground)
//Storyboard Layer 4 (Overlay)
//Storyboard Sound Samples

[TimingPoints]
1240,315.789473684211,4,2,1,50,1,0
1240,-83.3333333333333,4,2,1,50,0,0
1871,-83.3333333333333,4,2,3,50,0,0
1911,-83.3333333333333,4,2,1,50,0,0
2503,-83.3333333333333,4,2,3,50,0,0
2542,-83.3333333333333,4,2,1,50,0,0
3134,-83.3333333333333,4,2,3,50,0,0
3174,-83.3333333333333,4,2,1,50,0,0
3726,-83.3333333333333,4,2,1,5,0,0
3766,-83.3333333333333,4,2,1,50,0,0
4358,-83.3333333333333,4,2,1,5,0,0
4397,-83.3333333333333,4,2,1,50,0,0
4990,-83.3333333333333,4,2,1,5,0,0
5029,-83.3333333333333,4,2,1,50,0,0
5661,-83.3333333333333,4,2,3,50,0,0
5700,-83.3333333333333,4,2,1,50,0,0
5937,-83.3333333333333,4,2,1,5,0,0
5976,-83.3333333333333,4,2,1,50,0,0
6924,-83.3333333333333,4,2,3,50,0,0
6963,-83.3333333333333,4,2,1,50,0,0
7555,-83.3333333333333,4,2,3,50,0,0
7595,-83.3333333333333,4,2,1,50,0,0
8187,-83.3333333333333,4,2,3,50,0,0
8226,-83.3333333333333,4,2,1,50,0,0
8779,-83.3333333333333,4,2,1,5,0,0
8818,-83.3333333333333,4,2,1,50,0,0
9411,-83.3333333333333,4,2,1,5,0,0
9450,-83.3333333333333,4,2,1,50,0,0
10042,-83.3333333333333,4,2,1,5,0,0
10082,-100,4,2,1,50,0,0
11345,-100,4,2,1,60,0,0
11661,-100,4,2,2,60,0,0
21450,-100,4,2,1,60,0,0
26503,-100,4,2,1,70,0,0
30924,-83.3333333333333,4,2,1,80,0,0
31871,-83.3333333333333,4,2,1,80,0,0
33450,-100,4,2,1,80,0,0
33766,-83.3333333333333,4,2,1,80,0,0
34871,-100,4,2,1,80,0,0
35187,-83.3333333333333,4,2,1,80,0,0
36292,-38.4615384615385,4,2,1,80,0,0
36608,-83.3333333333333,4,2,1,80,0,0
39766,-100,4,2,1,80,0,0
40555,-83.3333333333333,4,2,1,80,0,0
41345,-31.25,4,2,1,80,0,0
41661,-50,4,2,1,80,0,0
41976,-100,4,2,1,80,0,0
43871,-83.3333333333333,4,2,1,80,0,0
44187,-100,4,2,1,80,0,0
47661,-83.3333333333333,4,2,1,80,0,0
47976,-100,4,2,1,80,0,0
51450,-31.25,4,2,1,80,0,0
51766,-100,4,2,1,80,0,0
60608,-100,4,2,1,60,0,0
66608,-83.3333333333333,4,2,1,60,0,0
66924,-100,4,2,1,70,0,0
69450,-76.9230769230769,4,2,1,70,0,0
71345,-83.3333333333333,4,2,1,70,0,0
71976,-100,4,2,2,80,0,1
74187,-45.4545454545455,4,2,2,80,0,1
74503,-100,4,2,2,80,0,1
76713,-45.4545454545455,4,2,2,80,0,1
77029,-100,4,2,2,80,0,1
79240,-45.4545454545455,4,2,2,80,0,1
79555,-100,4,2,2,80,0,1
81292,-50,4,2,2,80,0,1
81766,-100,4,2,2,80,0,1
82082,-50,4,2,2,80,0,0
82397,-100,4,2,1,80,0,1
86345,-50,4,2,1,80,0,1
86818,-83.3333333333333,4,2,1,80,0,0
87134,-100,4,2,1,80,0,1
90924,-100,4,2,1,70,0,0
91871,-45.4545454545455,4,2,1,70,0,0
92503,-100,4,2,2,80,0,0
97240,-45.4545454545455,4,2,2,80,0,0
97555,-100,4,2,2,80,0,0
101503,-50,4,2,2,80,0,0
101976,-100,4,2,1,80,0,0
104503,-83.3333333333333,4,2,1,80,0,0
104818,-100,4,2,1,80,0,0
106713,-45.4545454545455,4,2,1,80,0,0
107029,-83.3333333333333,4,2,1,80,0,0
107345,-100,4,2,1,80,0,0
108292,-83.3333333333333,4,2,1,80,0,0
108608,-100,4,2,1,80,0,0
111134,-100,4,2,2,60,0,0

[Colours]
Combo1 : 240,106,140
Combo2 : 199,167,177

[HitObjects]
459,376,1240,6,0,B|459:-12|459:-12|459:128|459:128|330:128|330:128|330:261|330:261|197:261|197:261|197:123|197:123|322:123|322:123|322:-10|322:-10|187:-10|187:-10|187:117|187:117|56:117|56:117|56:238|56:238|196:238|196:238|196:372|196:372,1,2078.99993655396,6|0,0:0|0:0,0:0:0:0:
196,343,3766,6,0,P|240:335|196:20,1,494.999984893799,2|0,0:0|0:0,0:0:0:0:
196,20,4397,2,0,P|351:181|197:343,1,494.999984893799,2|0,0:0|0:0,0:0:0:0:
195,343,5029,6,0,B|195:11|195:11|195:207|195:207|327:207|327:207|327:103|327:108,1,758.999976837159,2|0,0:0|0:0,0:0:0:0:
327,108,5976,1,2,0:0:0:0:
53,376,6292,6,0,B|53:-12|53:-12|53:128|53:128|182:128|182:128|182:261|182:261|315:261|315:261|315:123|315:123|190:123|190:123|190:-10|190:-10|325:-10|325:-10|325:117|325:117|456:117|456:117|456:238|456:238|316:238|316:238|316:372|316:372,1,2078.99993655396,6|0,0:0|0:0,0:0:0:0:
316,343,8818,6,0,P|272:335|316:20,1,494.999984893799,2|0,0:0|0:0,0:0:0:0:
316,19,9449,2,0,P|160:181|316:343,1,494.999984893799,2|0,0:0|0:0,0:0:0:0:
437,343,10082,6,0,L|440:233,1,110,2|2,0:0|0:0,0:0:0:0:
198,198,10397,1,2,0:0:0:0:
363,127,10634,1,0,0:0:0:0:
220,114,10713,2,0,L|206:60,2,55,2|0|2,0:0|0:0|0:0,0:0:0:0:
364,209,11029,1,2,0:0:0:0:
232,203,11187,1,2,0:0:0:0:
474,326,11345,5,6,0:0:0:0:
331,313,11503,1,0,0:0:0:0:
329,258,11581,1,0,0:0:0:0:
328,203,11660,1,2,0:0:0:0:
185,171,11818,1,2,0:0:0:0:
284,165,11976,1,0,0:0:0:0:
282,110,12054,1,0,0:0:0:0:
281,55,12133,1,2,0:0:0:0:
137,227,12292,1,0,0:0:0:0:
135,172,12370,1,0,0:0:0:0:
134,117,12449,1,2,0:0:0:0:
378,317,12608,5,2,0:0:0:0:
235,290,12766,1,0,0:0:0:0:
234,237,12844,1,0,0:0:0:0:
258,190,12923,1,2,0:0:0:0:
300,160,13002,1,0,0:0:0:0:
352,153,13081,1,2,0:0:0:0:
208,71,13240,1,0,0:0:0:0:
352,153,13397,2,0,L|242:149,2,110,2|2|2,0:0|0:0|0:0,0:0:0:0:
108,336,13871,5,2,0:0:0:0:
251,323,14029,1,0,0:0:0:0:
253,268,14107,1,0,0:0:0:0:
254,213,14186,1,2,0:0:0:0:
110,187,14345,1,2,0:0:0:0:
209,174,14503,1,0,0:0:0:0:
211,119,14581,1,0,0:0:0:0:
212,64,14660,1,2,0:0:0:0:
355,48,14818,1,0,0:0:0:0:
356,103,14897,1,0,0:0:0:0:
358,158,14975,1,2,0:0:0:0:
114,312,15134,5,2,0:0:0:0:
257,298,15292,2,0,L|260:242,1,55
182,257,15450,2,0,L|185:201,1,55,2|0,0:0|0:0,0:0:0:0:
263,172,15608,1,2,0:0:0:0:
120,158,15766,1,0,0:0:0:0:
263,70,15924,2,0,L|153:66,1,110,2|2,0:0|0:0,0:0:0:0:
9,71,16240,1,2,0:0:0:0:
250,337,16397,5,2,0:0:0:0:
107,324,16555,1,0,0:0:0:0:
105,269,16633,1,0,0:0:0:0:
104,214,16712,1,2,0:0:0:0:
248,194,16871,1,2,0:0:0:0:
347,181,17029,1,0,0:0:0:0:
349,126,17107,1,0,0:0:0:0:
350,71,17186,1,2,0:0:0:0:
493,55,17344,1,0,0:0:0:0:
494,110,17423,1,0,0:0:0:0:
496,165,17503,1,2,0:0:0:0:
251,308,17661,5,2,0:0:0:0:
393,292,17818,2,0,L|396:236,1,55
318,163,17976,2,0,L|372:160,1,55,2|0,0:0|0:0,0:0:0:0:
450,157,18133,1,2,0:0:0:0:
306,74,18292,1,0,0:0:0:0:
163,256,18450,2,0,L|159:146,1,110,2|2,0:0|0:0,0:0:0:0:
15,117,18766,1,2,0:0:0:0:
257,341,18924,5,2,0:0:0:0:
114,328,19082,1,0,0:0:0:0:
112,273,19160,1,0,0:0:0:0:
111,218,19239,1,2,0:0:0:0:
254,189,19397,1,2,0:0:0:0:
353,106,19555,1,0,0:0:0:0:
298,103,19633,1,0,0:0:0:0:
243,102,19712,1,2,0:0:0:0:
387,199,19871,1,0,0:0:0:0:
442,196,19949,1,0,0:0:0:0:
497,195,20028,1,2,0:0:0:0:
253,329,20187,5,2,0:0:0:0:
352,313,20345,2,0,L|366:259,2,55,0|0|2,0:0|0:0|0:0,0:0:0:0:
208,194,20661,2,0,L|430:185,1,220,2|2,0:0|0:0,0:0:0:0:
285,96,21134,2,0,L|175:92,1,110,2|2,0:0|0:0,0:0:0:0:
419,326,21450,5,6,0:0:0:0:
276,315,21608,2,0,L|272:205,1,110,0|2,0:0|0:0,0:0:0:0:
128,112,21924,2,0,L|238:108,1,110,0|2,0:0|0:0,0:0:0:0:
382,209,22240,2,0,L|272:205,2,110,0|2|0,0:0|0:0|0:0,0:0:0:0:
140,356,22713,6,0,L|136:246,1,110,2|0,0:0|0:0,0:0:0:0:
280,217,23029,1,2,0:0:0:0:
137,357,23187,2,0,L|133:247,1,110,0|2,0:0|0:0,0:0:0:0:
277,218,23503,2,0,L|281:108,1,110,0|2,0:0|0:0,0:0:0:0:
138,82,23818,1,0,0:0:0:0:
380,314,23976,5,2,0:0:0:0:
237,303,24134,2,0,L|233:193,1,110,0|2,0:0|0:0,0:0:0:0:
89,257,24450,2,0,L|85:147,1,110,0|2,0:0|0:0,0:0:0:0:
233,193,24766,2,0,L|237:83,1,110,0|2,0:0|0:0,0:0:0:0:
315,110,25003,2,0,L|317:54,1,55
73,316,25240,6,0,L|183:312,1,110,2|2,0:0|0:0,0:0:0:0:
326,230,25555,2,0,L|216:226,1,110,2|2,0:0|0:0,0:0:0:0:
360,147,25871,1,2,0:0:0:0:
289,136,25950,2,0,L|286:80,1,55,0|2,0:0|0:0,0:0:0:0:
42,78,26187,2,0,L|28:132,3,55,2|0|0|0,0:0|0:0|0:0|0:0,0:0:0:0:
263,340,26503,5,10,0:0:0:0:
266,230,26660,1,2,0:0:0:0:
46,198,26818,1,2,0:0:0:0:
354,278,26976,1,10,0:0:0:0:
351,168,27133,1,2,0:0:0:0:
495,128,27292,1,2,0:0:0:0:
253,78,27450,1,10,0:0:0:0:
495,128,27608,1,10,0:0:0:0:
187,261,27766,5,10,0:0:0:0:
330,254,27924,1,2,0:0:0:0:
187,261,28082,1,2,0:0:0:0:
451,336,28240,1,10,0:0:0:0:
188,140,28397,6,0,L|185:85,1,55,2|0,0:0|0:0,0:0:0:0:
107,116,28555,2,0,L|104:61,1,55,10|2,0:0|0:0,0:0:0:0:
393,118,28713,2,0,L|338:120,1,55,2|0,0:0|0:0,0:0:0:0:
182,140,28871,1,10,0:0:0:0:
28,159,28950,1,2,0:0:0:0:
348,266,29029,6,0,L|362:320,3,55,2|0|0|0,0:0|0:0|0:0|0:0,0:0:0:0:
284,320,29345,1,0,0:0:0:0:
243,286,29423,1,0,0:0:0:0:
244,233,29502,1,0,0:0:0:0:
286,202,29581,1,0,0:0:0:0:
364,201,29661,6,0,L|378:147,7,55
111,89,30292,5,10,0:0:0:0:
441,81,30529,5,10,0:0:0:0:
111,89,30766,5,10,0:0:0:0:
331,246,30924,2,0,L|266:241,3,65.9999979858399,2|2|2|2,0:0|0:0|0:0|0:0,0:0:0:0:
426,283,31240,2,0,P|493:226|427:168,1,197.99999395752,10|0,0:0|0:0,0:0:0:0:
190,165,31555,2,0,L|158:168,1,32.99999899292,2|0,0:0|0:0,0:0:0:0:
361,309,31871,6,0,L|161:305,1,197.99999395752,6|0,0:0|0:0,0:0:0:0:
378,237,32187,2,0,P|444:180|380:121,1,197.99999395752,2|0,0:0|0:0,0:0:0:0:
165,122,32503,2,0,L|133:125,1,32.99999899292,2|0,0:0|0:0,0:0:0:0:
261,206,32661,1,2,0:0:0:0:
38,311,32818,6,0,L|35:278,1,32.99999899292,2|0,0:0|0:0,0:0:0:0:
164,240,32976,1,2,0:0:0:0:
388,142,33134,2,0,L|356:139,1,32.99999899292,2|0,0:0|0:0,0:0:0:0:
226,124,33292,1,2,0:0:0:0:
451,331,33450,2,0,L|454:275,1,55,2|2,0:0|0:0,0:0:0:0:
375,205,33608,2,0,L|431:202,1,55,2|2,0:0|0:0,0:0:0:0:
262,149,33766,2,0,L|230:146,1,32.99999899292,2|0,0:0|0:0,0:0:0:0:
358,65,33924,1,2,0:0:0:0:
94,31,34082,5,0,0:0:0:0:
358,310,34240,2,0,L|355:277,1,32.99999899292,2|0,0:0|0:0,0:0:0:0:
227,234,34397,1,2,0:0:0:0:
452,212,34555,2,0,L|455:179,1,32.99999899292,2|0,0:0|0:0,0:0:0:0:
326,141,34713,1,2,0:0:0:0:
84,101,34871,2,0,L|81:157,1,55,2|0,0:0|0:0,0:0:0:0:
160,227,35029,2,0,L|105:230,1,55,2|0,0:0|0:0,0:0:0:0:
279,263,35187,2,0,L|282:296,1,32.99999899292,2|0,0:0|0:0,0:0:0:0:
62,350,35345,5,2,0:0:0:0:
282,172,35503,2,0,L|348:168,1,65.9999979858399,2|2,0:0|0:0,0:0:0:0:
160,69,35661,2,0,L|292:73,1,131.99999597168,2|2,0:0|0:0,0:0:0:0:
28,173,35976,1,2,0:0:0:0:
160,197,36134,2,0,L|164:263,1,65.9999979858399,2|0,0:0|0:0,0:0:0:0:
314,345,36292,2,0,B|317:59|317:59|173:52,1,428.999980361939,2|0,0:0|0:0,0:0:0:0:
428,38,36608,6,0,L|431:71,1,32.99999899292,6|0,0:0|0:0,0:0:0:0:
60,274,36924,2,0,L|126:268,1,65.9999979858399,2|0,0:0|0:0,0:0:0:0:
45,200,37082,2,0,L|111:194,1,65.9999979858399
298,86,37240,2,0,L|98:82,1,197.99999395752,2|0,0:0|0:0,0:0:0:0:
312,290,37555,2,0,L|315:257,1,32.99999899292,2|0,0:0|0:0,0:0:0:0:
186,221,37713,1,2,0:0:0:0:
411,208,37871,6,0,L|408:175,1,32.99999899292,2|0,0:0|0:0,0:0:0:0:
279,141,38029,1,2,0:0:0:0:
55,136,38187,2,0,L|58:103,1,32.99999899292,2|0,0:0|0:0,0:0:0:0:
187,69,38345,1,2,0:0:0:0:
412,303,38503,1,2,0:0:0:0:
267,287,38582,2,0,L|251:223,2,65.9999979858399,2|2|2,0:0|0:0|0:0,0:0:0:0:
452,214,38818,2,0,L|455:181,1,32.99999899292,2|0,0:0|0:0,0:0:0:0:
326,104,38976,2,0,L|392:100,1,65.9999979858399,2|0,0:0|0:0,0:0:0:0:
191,55,39134,6,0,L|188:88,1,32.99999899292
387,283,39292,1,2,0:0:0:0:
164,255,39450,2,0,L|161:222,1,32.99999899292,2|0,0:0|0:0,0:0:0:0:
290,186,39608,1,2,0:0:0:0:
48,211,39766,2,0,L|45:155,1,55,2|0,0:0|0:0,0:0:0:0:
124,85,39924,2,0,L|68:82,1,55,2|2,0:0|0:0,0:0:0:0:
248,22,40082,2,0,L|192:19,1,55,2|0,0:0|0:0,0:0:0:0:
37,8,40240,1,2,0:0:0:0:
366,294,40476,1,0,0:0:0:0:
165,273,40555,6,0,L|162:240,1,32.99999899292,2|0,0:0|0:0,0:0:0:0:
361,206,40713,2,0,L|364:173,1,32.99999899292,2|0,0:0|0:0,0:0:0:0:
155,165,40871,2,0,L|152:132,1,32.99999899292,2|0,0:0|0:0,0:0:0:0:
371,93,41029,2,0,L|374:60,1,32.99999899292,2|0,0:0|0:0,0:0:0:0:
144,32,41187,2,0,L|211:28,1,65.9999979858399,2|2,0:0|0:0,0:0:0:0:
396,338,41345,2,0,B|364:128|364:128|301:252|301:252|125:244,1,528,2|0,0:0|0:0,0:0:0:0:
179,172,41661,6,0,L|399:166,1,220,2|0,0:0|0:0,0:0:0:0:
82,342,41976,6,0,L|79:315,1,27.5,6|0,0:0|0:0,0:0:0:0:
162,264,42134,1,0,0:0:0:0:
305,237,42292,1,2,0:0:0:0:
72,276,42450,6,0,L|69:249,1,27.5,2|0,0:0|0:0,0:0:0:0:
156,198,42608,1,8,0:0:0:0:
299,171,42766,1,2,0:0:0:0:
63,207,42924,6,0,L|60:180,1,27.5,2|0,0:0|0:0,0:0:0:0:
151,129,43082,1,0,0:0:0:0:
294,102,43240,1,8,0:0:0:0:
57,147,43397,6,0,L|54:120,1,27.5,2|0,0:0|0:0,0:0:0:0:
189,57,43555,1,2,0:0:0:0:
57,41,43713,1,2,0:0:0:0:
295,185,43871,2,0,L|298:118,1,65.9999979858399,8|0,0:0|0:0,0:0:0:0:
204,207,44029,2,0,L|207:140,1,65.9999979858399
46,303,44187,6,0,L|156:298,1,110,2|2,0:0|0:0,0:0:0:0:
449,207,44503,6,0,L|452:180,1,27.5,8|0,0:0|0:0,0:0:0:0:
361,129,44661,1,0,0:0:0:0:
218,102,44819,1,2,0:0:0:0:
455,147,44976,6,0,L|458:120,1,27.5,2|0,0:0|0:0,0:0:0:0:
323,57,45134,1,8,0:0:0:0:
455,41,45292,1,2,0:0:0:0:
165,227,45450,5,2,0:0:0:0:
337,324,45608,1,2,0:0:0:0:
194,315,45687,2,0,L|191:257,1,55,2|2,0:0|0:0,0:0:0:0:
436,197,45924,1,2,0:0:0:0:
194,86,46082,1,2,0:0:0:0:
337,78,46240,1,2,0:0:0:0:
53,172,46397,2,0,L|39:226,3,55,6|0|0|0,0:0|0:0|0:0|0:0,0:0:0:0:
218,313,46713,6,0,L|273:309,1,55,2|0,0:0|0:0,0:0:0:0:
195,238,46871,2,0,L|250:234,1,55,2|0,0:0|0:0,0:0:0:0:
428,219,47029,2,0,L|432:164,1,55,2|0,0:0|0:0,0:0:0:0:
276,177,47187,2,0,L|272:122,1,55,2|0,0:0|0:0,0:0:0:0:
116,64,47345,6,0,L|171:60,1,55,2|0,0:0|0:0,0:0:0:0:
316,46,47503,2,0,L|371:42,1,55,2|0,0:0|0:0,0:0:0:0:
224,134,47661,2,0,L|289:138,3,65.9999979858399,2|2|2|2,0:0|0:0|0:0|0:0,0:0:0:0:
114,204,47976,6,0,L|110:259,1,55,6|0,0:0|0:0,0:0:0:0:
289,336,48134,2,0,L|344:332,1,55,2|0,0:0|0:0,0:0:0:0:
265,260,48292,2,0,L|210:256,1,55,2|0,0:0|0:0,0:0:0:0:
389,171,48450,2,0,L|334:167,1,55,2|0,0:0|0:0,0:0:0:0:
156,93,48608,6,0,L|211:89,1,55,2|2,0:0|0:0,0:0:0:0:
290,88,48766,1,2,0:0:0:0:
48,273,48924,1,2,0:0:0:0:
191,251,49082,2,0,L|195:196,1,55,2|2,0:0|0:0,0:0:0:0:
396,206,49240,6,0,L|400:151,1,55,6|2,0:0|0:0,0:0:0:0:
323,186,49397,2,0,L|327:131,1,55,2|2,0:0|0:0,0:0:0:0:
171,55,49555,2,0,L|226:51,1,55,2|2,0:0|0:0,0:0:0:0:
382,284,49713,2,0,L|327:280,1,55,2|2,0:0|0:0,0:0:0:0:
171,267,49871,5,6,0:0:0:0:
324,251,49950,1,2,0:0:0:0:
477,236,50029,1,2,0:0:0:0:
323,219,50108,1,2,0:0:0:0:
147,201,50187,1,2,0:0:0:0:
323,197,50266,1,2,0:0:0:0:
499,192,50345,1,2,0:0:0:0:
323,184,50424,1,2,0:0:0:0:
125,166,50503,5,2,0:0:0:0:
268,150,50661,2,0,L|270:94,1,55,2|2,0:0|0:0,0:0:0:0:
92,39,50818,2,0,L|146:37,1,55,2|0,0:0|0:0,0:0:0:0:
303,25,50976,1,2,0:0:0:0:
61,283,51134,5,2,0:0:0:0:
214,274,51213,1,2,0:0:0:0:
367,265,51292,2,0,L|310:262,1,55,2|2,0:0|0:0,0:0:0:0:
51,254,51450,6,0,B|83:44|83:44|146:168|146:168|322:160,1,528,10|0,0:0|0:0,0:0:0:0:
512,148,51766,1,6,0:0:0:0:
66,249,56818,5,6,0:0:0:0:
432,154,60608,6,0,L|322:149,1,110,2|2,0:0|0:0,0:0:0:0:
78,173,60924,1,2,0:0:0:0:
243,312,61161,1,0,0:0:0:0:
89,296,61240,2,0,L|86:186,1,110,2|2,0:0|0:0,0:0:0:0:
229,241,61555,2,0,L|232:131,1,110,2|2,0:0|0:0,0:0:0:0:
478,67,61871,5,6,0:0:0:0:
335,105,62029,2,0,L|332:215,1,110,0|2,0:0|0:0,0:0:0:0:
188,289,62345,2,0,L|185:179,1,110,0|2,0:0|0:0,0:0:0:0:
329,85,62661,2,0,L|219:82,2,110,0|2|0,0:0|0:0|0:0,0:0:0:0:
87,324,63134,5,2,0:0:0:0:
230,286,63292,2,0,L|232:175,1,110,0|2,0:0|0:0,0:0:0:0:
89,80,63608,2,0,L|199:77,1,110,0|2,0:0|0:0,0:0:0:0:
342,179,63924,2,0,L|232:176,1,110,0|2,0:0|0:0,0:0:0:0:
310,311,64161,2,0,L|312:255,1,55
70,261,64397,6,0,L|180:258,2,110,2|0|2,0:0|0:0|0:0,0:0:0:0:
214,319,64871,2,0,L|216:208,1,110,0|2,0:0|0:0,0:0:0:0:
294,228,65108,2,0,L|296:172,1,55
141,127,65345,2,0,L|127:181,2,55,2|0|0,0:0|0:0|0:0,0:0:0:0:
385,74,65661,5,2,0:0:0:0:
243,111,65818,1,2,0:0:0:0:
242,165,65896,1,0,0:0:0:0:
241,220,65975,1,2,0:0:0:0:
385,315,66134,2,0,L|275:312,1,110,2|2,0:0|0:0,0:0:0:0:
197,283,66371,2,0,L|183:229,2,55,0|2|0,0:0|0:0|0:0,0:0:0:0:
385,229,66608,2,0,P|452:172|386:114,1,197.99999395752,2|0,0:0|0:0,0:0:0:0:
186,192,66924,5,10,0:0:0:0:
183,82,67081,1,2,0:0:0:0:
326,55,67239,1,2,0:0:0:0:
62,34,67397,1,10,0:0:0:0:
205,86,67555,1,2,0:0:0:0:
208,196,67712,1,2,0:0:0:0:
452,291,67871,1,10,0:0:0:0:
210,283,68029,1,10,0:0:0:0:
452,195,68187,5,10,0:0:0:0:
309,202,68345,1,2,0:0:0:0:
452,195,68503,1,2,0:0:0:0:
188,79,68661,1,10,0:0:0:0:
331,86,68819,1,2,0:0:0:0:
69,124,68976,2,0,L|68:178,1,55,10|2,0:0|0:0,0:0:0:0:
279,311,69134,1,2,0:0:0:0:
136,287,69292,2,0,L|135:232,1,55,10|2,0:0|0:0,0:0:0:0:
373,128,69450,6,0,B|230:123|230:123|372:127|372:127|228:125|228:125|371:129|371:129|229:126|229:126|372:128|372:128|229:124,1,1000.99995417786,2|0,0:0|0:0,0:0:0:0:
465,264,70713,5,10,0:0:0:0:
135,272,70950,5,10,0:0:0:0:
465,264,71187,5,10,0:0:0:0:
246,200,71345,2,0,L|311:195,3,65.9999979858399,2|2|2|2,0:0|0:0|0:0|0:0,0:0:0:0:
150,257,71661,2,0,P|83:200|148:142,1,197.99999395752,10|0,0:0|0:0,0:0:0:0:
344,142,71976,5,14,0:0:0:0:
212,154,72134,1,0,0:0:0:0:
211,209,72212,1,0,0:0:0:0:
209,264,72291,1,8,0:0:0:0:
452,317,72450,2,0,L|455:290,1,27.5,2|0,0:0|0:0,0:0:0:0:
206,55,72608,2,0,L|315:58,1,110,8|2,0:0|0:0,0:0:0:0:
282,72,72805,1,0,0:0:0:0:
33,167,72924,2,0,L|142:169,1,110,8|2,0:0|0:0,0:0:0:0:
177,173,73121,1,0,0:0:0:0:
426,178,73240,5,8,0:0:0:0:
294,191,73397,2,0,L|291:246,1,55,10|10,0:0|0:0,0:0:0:0:
214,317,73555,2,0,L|269:319,1,55,10|10,0:0|0:0,0:0:0:0:
90,215,73713,2,0,L|87:242,1,27.5,10|0,0:0|0:0,0:0:0:0:
311,67,73871,2,0,L|420:70,1,110,8|2,0:0|0:0,0:0:0:0:
129,200,74187,2,0,L|374:194,1,242.000007385254,10|2,0:0|0:0,0:0:0:0:
61,60,74503,5,10,0:0:0:0:
193,75,74661,1,0,0:0:0:0:
194,130,74739,1,0,0:0:0:0:
196,185,74818,1,8,0:0:0:0:
438,181,74976,2,0,L|441:208,1,27.5,2|0,0:0|0:0,0:0:0:0:
192,291,75134,2,0,L|137:293,1,55,8|0,0:0|0:0,0:0:0:0:
304,224,75292,2,0,L|307:197,1,27.5,2|0,0:0|0:0,0:0:0:0:
58,72,75450,2,0,L|113:74,1,55,8|0,0:0|0:0,0:0:0:0:
280,82,75608,2,0,L|283:109,1,27.5,2|0,0:0|0:0,0:0:0:0:
34,177,75766,5,8,0:0:0:0:
166,187,75924,2,0,L|168:242,1,55,10|10,0:0|0:0,0:0:0:0:
246,313,76082,2,0,L|191:315,1,55,10|10,0:0|0:0,0:0:0:0:
370,243,76240,2,0,L|373:216,1,27.5,10|0,0:0|0:0,0:0:0:0:
126,55,76397,2,0,L|235:58,1,110,8|2,0:0|0:0,0:0:0:0:
169,98,76634,1,0,0:0:0:0:
340,182,76713,2,0,L|99:188,1,242.000007385254,10|10,0:0|0:0,0:0:0:0:
408,56,77029,5,14,0:0:0:0:
276,140,77187,1,0,0:0:0:0:
330,141,77265,1,0,0:0:0:0:
386,143,77344,1,8,0:0:0:0:
142,201,77503,2,0,L|139:228,1,27.5,2|0,0:0|0:0,0:0:0:0:
388,311,77661,2,0,L|275:313,1,110,8|2,0:0|0:0,0:0:0:0:
244,314,77858,1,0,0:0:0:0:
491,207,77976,2,0,L|436:209,1,55,8|0,0:0|0:0,0:0:0:0:
269,217,78134,2,0,L|266:190,1,27.5,2|0,0:0|0:0,0:0:0:0:
498,79,78292,5,8,0:0:0:0:
366,105,78450,2,0,L|421:107,1,55,10|10,0:0|0:0,0:0:0:0:
343,180,78608,2,0,L|288:182,1,55,10|10,0:0|0:0,0:0:0:0:
121,175,78766,2,0,L|118:148,1,27.5,10|0,0:0|0:0,0:0:0:0:
367,54,78924,2,0,L|254:56,1,110,8|2,0:0|0:0,0:0:0:0:
126,153,79240,2,0,L|367:159,1,242.000007385254,10|2,0:0|0:0,0:0:0:0:
60,258,79555,5,10,0:0:0:0:
192,147,79713,1,0,0:0:0:0:
137,148,79791,1,0,0:0:0:0:
82,150,79870,1,8,0:0:0:0:
326,208,80029,2,0,L|329:235,1,27.5,2|0,0:0|0:0,0:0:0:0:
80,336,80187,2,0,L|135:338,1,55,8|0,0:0|0:0,0:0:0:0:
302,346,80345,2,0,L|305:319,1,27.5,2|0,0:0|0:0,0:0:0:0:
56,235,80503,2,0,L|111:237,1,55,8|0,0:0|0:0,0:0:0:0:
278,143,80661,2,0,L|281:170,1,27.5,2|0,0:0|0:0,0:0:0:0:
34,101,80818,5,8,0:0:0:0:
276,57,80976,1,10,0:0:0:0:
133,70,81055,2,0,L|130:126,1,55,10|10,0:0|0:0,0:0:0:0:
373,237,81292,2,0,B|154:243|154:243|374:234,1,440,10|2,0:0|0:0,0:0:0:0:
65,69,81766,1,10,0:0:0:0:
197,77,81924,2,0,L|200:133,1,55,10|0,0:0|0:0,0:0:0:0:
367,221,82082,6,0,L|147:227,1,220,2|0,0:0|0:0,0:0:0:0:
477,58,82397,5,6,0:0:0:0:
235,84,82555,2,0,L|232:111,1,27.5
332,191,82713,2,0,L|277:193,1,55,2|0,0:0|0:0,0:0:0:0:
110,204,82871,2,0,L|107:231,1,27.5
223,293,83029,1,10,0:0:0:0:
152,304,83108,2,0,L|149:360,1,55,0|2,0:0|0:0,0:0:0:0:
459,263,83345,5,2,0:0:0:0:
327,236,83503,2,0,L|325:181,1,55,2|2,0:0|0:0,0:0:0:0:
247,190,83661,2,0,L|245:135,1,55,10|2,0:0|0:0,0:0:0:0:
410,115,83818,2,0,L|413:88,1,27.5,2|0,0:0|0:0,0:0:0:0:
164,33,83976,2,0,L|109:35,2,55,2|0|0,0:0|0:0|0:0,0:0:0:0:
297,72,84292,2,0,L|298:127,1,55,8|0,0:0|0:0,0:0:0:0:
220,122,84450,2,0,L|222:177,1,55
66,212,84608,5,2,0:0:0:0:
198,222,84766,2,0,L|200:277,1,55,2|0,0:0|0:0,0:0:0:0:
367,294,84924,1,8,0:0:0:0:
125,135,85082,2,0,L|122:108,1,27.5
222,79,85240,1,2,0:0:0:0:
463,91,85397,2,0,L|466:118,1,27.5
366,173,85555,1,8,0:0:0:0:
437,184,85634,2,0,L|440:240,1,55
130,310,85871,5,2,0:0:0:0:
288,83,86029,1,2,0:0:0:0:
145,141,86108,2,0,L|201:144,1,55,2|2,0:0|0:0,0:0:0:0:
465,242,86345,2,0,L|26:252,1,440,2|2,0:0|0:0,0:0:0:0:
157,167,86818,2,0,L|91:165,3,65.9999979858399,6|0|0|0,0:0|0:0|0:0|0:0,0:0:0:0:
270,44,87134,6,0,L|284:98,3,55,2|0|2|0,0:0|0:0|0:0|0:0,0:0:0:0:
440,95,87450,2,0,L|454:148,1,55,2|0,0:0|0:0,0:0:0:0:
297,180,87608,6,0,L|283:234,3,55,2|0|2|0,0:0|0:0|0:0|0:0,0:0:0:0:
127,200,87924,2,0,L|113:255,1,55,2|0,0:0|0:0,0:0:0:0:
304,314,88082,2,0,L|249:316,1,55,2|2,0:0|0:0,0:0:0:0:
109,324,88240,2,0,L|54:326,1,55,2|2,0:0|0:0,0:0:0:0:
250,234,88397,6,0,L|305:236,1,55,6|0,0:0|0:0,0:0:0:0:
126,40,88555,1,2,0:0:0:0:
94,96,88633,1,0,0:0:0:0:
117,154,88712,1,2,0:0:0:0:
178,172,88791,1,0,0:0:0:0:
256,245,88871,6,0,L|201:247,1,55,2|0,0:0|0:0,0:0:0:0:
357,185,89029,2,0,L|371:131,1,55,2|2,0:0|0:0,0:0:0:0:
215,41,89187,2,0,L|201:95,1,55,2|0,0:0|0:0,0:0:0:0:
279,98,89345,2,0,L|293:152,1,55,2|0,0:0|0:0,0:0:0:0:
137,156,89503,2,0,L|123:211,1,55,2|2,0:0|0:0,0:0:0:0:
302,300,89661,6,0,L|357:302,1,55,6|2,0:0|0:0,0:0:0:0:
280,225,89818,2,0,L|278:170,1,55,2|2,0:0|0:0,0:0:0:0:
200,199,89976,2,0,L|198:144,1,55,2|2,0:0|0:0,0:0:0:0:
42,162,90134,2,0,L|40:107,1,55,2|2,0:0|0:0,0:0:0:0:
219,46,90292,5,6,0:0:0:0:
373,55,90371,1,2,0:0:0:0:
219,122,90450,1,2,0:0:0:0:
65,131,90529,1,2,0:0:0:0:
219,195,90608,1,2,0:0:0:0:
395,209,90687,1,2,0:0:0:0:
219,269,90766,1,2,0:0:0:0:
43,284,90845,1,2,0:0:0:0:
219,343,90924,5,2,0:0:0:0:
109,326,91082,1,0,0:0:0:0:
111,270,91161,1,0,0:0:0:0:
112,216,91239,1,0,0:0:0:0:
222,193,91397,1,0,0:0:0:0:
354,330,91555,2,0,L|243:332,1,110
481,78,91871,6,0,B|239:88|239:88|306:192,1,363.000011077881,8|0,0:0|0:0,0:0:0:0:
480,112,92187,1,6,0:0:0:0:
83,28,92503,6,0,L|80:139,1,110,8|0,0:0|0:0,0:0:0:0:
223,97,92818,2,0,L|226:207,1,110,8|0,0:0|0:0,0:0:0:0:
470,242,93134,1,8,0:0:0:0:
327,219,93292,6,0,L|325:110,1,110,2|8,0:0|0:0,0:0:0:0:
181,73,93608,1,2,0:0:0:0:
325,110,93766,2,0,L|327:219,1,110,8|2,0:0|0:0,0:0:0:0:
183,173,94082,2,0,L|181:282,1,110,8|2,0:0|0:0,0:0:0:0:
423,322,94397,1,10,0:0:0:0:
181,312,94555,2,0,L|181:258,1,55,2|0,0:0|0:0,0:0:0:0:
337,175,94713,6,0,L|228:177,1,110,8|0,0:0|0:0,0:0:0:0:
471,34,95029,2,0,L|474:145,1,110,8|0,0:0|0:0,0:0:0:0:
331,103,95345,2,0,L|328:214,1,110,8|0,0:0|0:0,0:0:0:0:
83,262,95661,1,8,0:0:0:0:
225,123,95818,6,0,L|228:233,1,110,2|8,0:0|0:0,0:0:0:0:
372,270,96134,1,2,0:0:0:0:
228,233,96292,2,0,L|225:123,1,110,8|2,0:0|0:0,0:0:0:0:
369,48,96608,1,10,0:0:0:0:
298,59,96687,2,0,L|295:115,1,55,10|10,0:0|0:0,0:0:0:0:
51,161,96924,1,8,0:0:0:0:
194,171,97082,2,0,L|197:226,1,55
368,307,97240,6,0,L|123:315,1,242.000007385254,8|8,0:0|0:0,0:0:0:0:
478,34,97555,6,0,L|481:145,1,110,12|0,0:0|0:0,0:0:0:0:
338,103,97871,2,0,L|335:214,1,110,8|0,0:0|0:0,0:0:0:0:
90,268,98187,1,8,0:0:0:0:
333,323,98345,6,0,L|336:214,1,110,2|8,0:0|0:0,0:0:0:0:
193,166,98661,1,2,0:0:0:0:
335,39,98818,2,0,L|338:149,1,110,8|2,0:0|0:0,0:0:0:0:
194,109,99134,2,0,L|192:219,1,110,8|2,0:0|0:0,0:0:0:0:
435,287,99450,1,8,0:0:0:0:
194,274,99608,2,0,L|192:220,1,55,10|0,0:0|0:0,0:0:0:0:
35,122,99766,6,0,L|145:124,1,110,8|0,0:0|0:0,0:0:0:0:
389,128,100082,2,0,L|392:238,1,110,8|0,0:0|0:0,0:0:0:0:
248,197,100398,2,0,L|246:308,1,110,8|0,0:0|0:0,0:0:0:0:
3,355,100713,1,8,0:0:0:0:
135,361,100871,1,2,0:0:0:0:
377,336,101029,5,8,0:0:0:0:
135,192,101187,2,0,L|190:195,1,55,8|8,0:0|0:0,0:0:0:0:
368,209,101345,1,8,0:0:0:0:
125,93,101503,2,0,B|344:99|344:99|124:90,1,440,8|8,0:0|0:0,0:0:0:0:
255,177,101976,1,8,0:0:0:0:
258,287,102133,1,0,0:0:0:0:
126,358,102292,5,2,0:0:0:0:
368,370,102450,1,0,0:0:0:0:
126,57,102608,6,0,L|123:84,1,27.5,6|0,0:0|0:0,0:0:0:0:
258,147,102766,1,0,0:0:0:0:
126,163,102924,1,2,0:0:0:0:
386,57,103082,6,0,L|389:84,1,27.5,2|0,0:0|0:0,0:0:0:0:
254,147,103240,1,8,0:0:0:0:
386,163,103398,1,2,0:0:0:0:
62,115,103555,6,0,L|59:142,1,27.5,2|0,0:0|0:0,0:0:0:0:
194,205,103713,1,0,0:0:0:0:
62,221,103871,1,8,0:0:0:0:
450,115,104029,6,0,L|453:142,1,27.5,2|0,0:0|0:0,0:0:0:0:
318,205,104187,1,2,0:0:0:0:
450,221,104345,1,2,0:0:0:0:
223,93,104503,2,0,L|288:97,3,65.9999979858399,8|0|0|0,0:0|0:0|0:0|0:0,0:0:0:0:
67,299,104818,6,0,L|177:301,1,110,2|2,0:0|0:0,0:0:0:0:
434,115,105134,6,0,L|437:141,1,27.5,8|0,0:0|0:0,0:0:0:0:
302,205,105292,1,0,0:0:0:0:
434,220,105450,1,2,0:0:0:0:
78,115,105608,6,0,L|75:142,1,27.5,2|0,0:0|0:0,0:0:0:0:
210,205,105766,1,8,0:0:0:0:
78,221,105924,1,2,0:0:0:0:
434,308,106082,5,2,0:0:0:0:
291,189,106240,1,2,0:0:0:0:
433,96,106318,2,0,L|379:98,1,55,2|2,0:0|0:0,0:0:0:0:
134,80,106555,1,2,0:0:0:0:
277,152,106713,2,0,L|35:158,1,242.000007385254,2|2,0:0|0:0,0:0:0:0:
168,266,107029,2,0,L|103:264,3,65.9999979858399,6|0|0|0,0:0|0:0|0:0|0:0,0:0:0:0:
281,72,107345,6,0,L|283:126,1,55,2|0,0:0|0:0,0:0:0:0:
205,111,107503,2,0,L|207:165,1,55,2|0,0:0|0:0,0:0:0:0:
386,158,107661,2,0,L|388:212,1,55,2|0,0:0|0:0,0:0:0:0:
311,199,107818,2,0,L|313:253,1,55,2|0,0:0|0:0,0:0:0:0:
123,325,107976,6,0,L|177:327,1,55,2|0,0:0|0:0,0:0:0:0:
313,334,108134,2,0,L|368:336,1,55,2|0,0:0|0:0,0:0:0:0:
222,234,108292,2,0,L|287:232,3,65.9999979858399,2|2|2|2,0:0|0:0|0:0|0:0,0:0:0:0:
109,93,108608,6,0,L|51:90,1,55,6|2,0:0|0:0,0:0:0:0:
233,276,108766,2,0,L|235:222,1,55,2|0,0:0|0:0,0:0:0:0:
168,155,108924,2,0,L|226:152,1,55,2|0,0:0|0:0,0:0:0:0:
401,136,109082,2,0,L|459:133,1,55,2|0,0:0|0:0,0:0:0:0:
255,353,109240,5,2,0:0:0:0:
326,343,109318,2,0,L|328:289,1,55,2|2,0:0|0:0,0:0:0:0:
84,191,109555,1,2,0:0:0:0:
216,164,109713,2,0,L|218:110,1,55,2|2,0:0|0:0,0:0:0:0:
419,29,109871,6,0,L|421:83,1,55,6|2,0:0|0:0,0:0:0:0:
265,75,110029,2,0,L|263:128,1,55,2|2,0:0|0:0,0:0:0:0:
341,113,110187,2,0,L|339:167,1,55,2|2,0:0|0:0,0:0:0:0:
417,143,110345,2,0,L|415:196,1,55,2|2,0:0|0:0,0:0:0:0:
195,29,110503,6,0,L|193:83,1,55,6|2,0:0|0:0,0:0:0:0:
271,82,110661,2,0,L|273:136,1,55,2|2,0:0|0:0,0:0:0:0:
452,216,110819,2,0,L|398:219,1,55,2|2,0:0|0:0,0:0:0:0:
243,230,110976,1,2,0:0:0:0:
89,240,111055,1,2,0:0:0:0:
331,305,111134,6,0,L|217:308,1,110,2|0,0:0|0:0,0:0:0:0:
365,66,111450,1,2,0:0:0:0:
397,122,111528,1,2,0:0:0:0:
374,180,111607,1,2,0:0:0:0:
313,198,111686,1,2,0:0:0:0:
240,203,111766,2,0,L|354:206,1,110,2|2,0:0|0:0,0:0:0:0:
206,64,112082,1,2,0:0:0:0:
349,70,112240,1,2,0:0:0:0:
