osu file format v14

[General]
AudioFilename: audio.mp3
AudioLeadIn: 0
PreviewTime: 70908
Countdown: 0
SampleSet: Soft
StackLeniency: 0.7
Mode: 3
LetterboxInBreaks: 0
SpecialStyle: 0
WidescreenStoryboard: 0

[Editor]
DistanceSpacing: 0.8
BeatDivisor: 2
GridSize: 32
TimelineZoom: 0.8999999

[Metadata]
Title:Grayed Out -Antifront-
TitleUnicode:Grayed Out -Antifront-
Artist:Getty vs. DJ DiA
ArtistUnicode:Getty vs. DJ DiA
Creator:MEGAtive
Version:Leoni's 5K Normal
Source:BMS
Tags:BOFU2016 Of Fighters Ultimate SUPERALLOYS Pumpcore Aste- Ortlinde Virtue- Aras25 Leonita Crusts
BeatmapID:1116908
BeatmapSetID:526356

[Difficulty]
HPDrainRate:7
CircleSize:5
OverallDifficulty:7
ApproachRate:5
SliderMultiplier:1.4
SliderTickRate:1

[Events]
//Background and Video events
0,0,"BG.png",0,0
//Break Periods
//Storyboard Layer 0 (Background)
//Storyboard Layer 1 (Fail)
//Storyboard Layer 2 (Pass)
//Storyboard Layer 3 (Foreground)
//Storyboard Sound Samples

[TimingPoints]
566,315.789473684211,4,2,1,50,1,0
71302,-100,4,2,1,50,0,1
91513,-100,4,2,1,50,0,0

[HitObjects]
358,192,566,5,2,0:0:0:50:
153,192,566,128,4,2776:0:0:0:50:
358,192,1197,1,2,0:0:0:50:
358,192,1829,1,2,0:0:0:50:
358,192,2460,1,2,0:0:0:50:
460,192,3092,1,2,0:0:0:50:
256,192,3092,128,0,4355:0:0:0:50:
460,192,3723,1,2,0:0:0:50:
358,192,4355,128,0,4987:0:0:0:50:
153,192,4355,1,2,0:0:0:50:
256,192,4987,128,0,5302:0:0:0:50:
460,192,4987,1,2,0:0:0:50:
51,192,5302,1,0,0:0:0:0:
153,192,5618,128,4,7829:0:0:0:50:
358,192,5618,1,2,0:0:0:50:
358,192,6250,1,2,0:0:0:50:
358,192,6881,1,2,0:0:0:50:
358,192,7513,1,2,0:0:0:50:
51,192,8144,1,2,0:0:0:50:
256,192,8144,128,0,9408:0:0:0:50:
51,192,8776,1,2,0:0:0:50:
460,192,9408,128,0,10039:0:0:0:50:
51,192,9408,1,2,0:0:0:50:
358,192,10039,128,0,10355:0:0:0:50:
153,192,10039,1,2,0:0:0:50:
256,192,10355,1,0,0:0:0:0:
153,192,10671,1,4,0:0:0:50:
460,192,10671,1,8,0:0:0:50:
256,192,10987,1,0,0:0:0:50:
358,192,11144,1,0,0:0:0:50:
460,192,11460,1,0,0:0:0:50:
153,192,11776,1,0,0:0:0:50:
51,192,11934,1,2,0:0:0:50:
256,192,12408,1,0,0:0:0:50:
460,192,12723,1,0,0:0:0:50:
358,192,12881,1,2,0:0:0:50:
51,192,13039,1,0,0:0:0:50:
153,192,13197,1,2,0:0:0:50:
256,192,13513,1,0,0:0:0:50:
358,192,13671,1,0,0:0:0:50:
460,192,13987,1,0,0:0:0:50:
153,192,14302,1,0,0:0:0:50:
51,192,14460,1,2,0:0:0:50:
256,192,14934,1,0,0:0:0:50:
256,192,15250,1,0,0:0:0:50:
358,192,15408,1,2,0:0:0:50:
460,192,15566,1,0,0:0:0:50:
51,192,15723,1,2,0:0:0:50:
153,192,15723,1,4,0:0:0:50:
256,192,16039,1,0,0:0:0:50:
358,192,16197,1,0,0:0:0:50:
460,192,16513,1,0,0:0:0:50:
153,192,16829,1,0,0:0:0:50:
51,192,16987,1,2,0:0:0:50:
256,192,17460,1,0,0:0:0:50:
460,192,17776,1,0,0:0:0:50:
358,192,17934,1,2,0:0:0:50:
51,192,18092,1,0,0:0:0:50:
153,192,18250,1,2,0:0:0:50:
256,192,18566,1,0,0:0:0:50:
358,192,18723,1,0,0:0:0:50:
460,192,19039,1,0,0:0:0:50:
153,192,19355,1,0,0:0:0:50:
51,192,19513,1,2,0:0:0:50:
256,192,19987,1,0,0:0:0:50:
256,192,20302,1,0,0:0:0:50:
358,192,20460,1,2,0:0:0:50:
460,192,20618,1,0,0:0:0:50:
153,192,20776,1,2,0:0:0:50:
51,192,20776,1,4,0:0:0:50:
153,192,21092,1,2,0:0:0:50:
256,192,21408,1,2,0:0:0:50:
256,192,21723,1,2,0:0:0:50:
358,192,22039,1,2,0:0:0:50:
358,192,22355,1,2,0:0:0:50:
51,192,22671,1,2,0:0:0:50:
51,192,22987,1,2,0:0:0:50:
460,192,23302,1,2,0:0:0:50:
460,192,23618,1,2,0:0:0:50:
256,192,23934,1,2,0:0:0:50:
256,192,24250,1,2,0:0:0:50:
51,192,24566,1,2,0:0:0:50:
51,192,24881,1,2,0:0:0:50:
51,192,25197,1,2,0:0:0:50:
256,192,25513,1,4,0:0:0:50:
460,192,25513,1,8,0:0:0:50:
153,192,25829,1,4,0:0:0:50:
358,192,25829,1,2,0:0:0:50:
153,192,26302,1,2,0:0:0:50:
358,192,26302,1,4,0:0:0:50:
153,192,26776,1,2,0:0:0:50:
358,192,26776,1,4,0:0:0:50:
153,192,27092,1,2,0:0:0:50:
358,192,27092,1,4,0:0:0:50:
153,192,27566,1,2,0:0:0:50:
358,192,27566,1,4,0:0:0:50:
153,192,28039,1,2,0:0:0:50:
358,192,28039,1,4,0:0:0:50:
51,192,28355,128,8,29618:0:0:0:50:
460,192,28355,1,0,0:0:0:50:
358,192,29618,1,8,0:0:0:50:
358,192,29855,1,8,0:0:0:50:
358,192,30092,1,8,0:0:0:50:
51,192,30250,1,8,0:0:0:50:
153,192,30408,1,8,0:0:0:50:
256,192,30566,128,8,30881:0:0:0:50:
460,192,30881,1,2,0:0:0:50:
358,192,30881,1,8,0:0:0:50:
51,192,31197,1,2,0:0:0:50:
256,192,31197,1,0,0:0:0:50:
358,192,31355,1,0,0:0:0:50:
460,192,31513,1,2,0:0:0:50:
153,192,31513,1,0,0:0:0:50:
256,192,31671,1,0,0:0:0:50:
358,192,31829,1,2,0:0:0:50:
51,192,31829,1,0,0:0:0:50:
153,192,31987,1,0,0:0:0:50:
460,192,32144,1,2,0:0:0:50:
256,192,32144,1,0,0:0:0:50:
51,192,32302,1,0,0:0:0:50:
358,192,32460,1,2,0:0:0:50:
153,192,32460,1,0,0:0:0:50:
256,192,32618,1,0,0:0:0:50:
51,192,32776,1,2,0:0:0:50:
460,192,32776,1,0,0:0:0:50:
153,192,32934,1,0,0:0:0:50:
256,192,33092,1,2,0:0:0:50:
358,192,33092,1,0,0:0:0:50:
51,192,33250,1,0,0:0:0:50:
153,192,33408,1,2,0:0:0:50:
460,192,33408,1,0,0:0:0:50:
256,192,33566,1,0,0:0:0:50:
358,192,33723,1,2,0:0:0:50:
51,192,33723,1,0,0:0:0:50:
153,192,33881,1,0,0:0:0:50:
256,192,34039,1,2,0:0:0:50:
460,192,34039,1,0,0:0:0:50:
51,192,34197,1,0,0:0:0:50:
153,192,34355,1,2,0:0:0:50:
358,192,34355,1,0,0:0:0:50:
256,192,34513,1,0,0:0:0:50:
51,192,34671,1,2,0:0:0:50:
153,192,34671,1,0,0:0:0:50:
460,192,34829,1,2,0:0:0:50:
358,192,34908,1,2,0:0:0:50:
256,192,34987,1,2,0:0:0:50:
153,192,35144,1,2,0:0:0:50:
51,192,35302,1,2,0:0:0:50:
460,192,35460,1,2,0:0:0:50:
358,192,35618,128,2,35934:0:0:0:50:
153,192,35934,1,2,0:0:0:50:
51,192,36250,1,4,0:0:0:50:
358,192,36250,1,2,0:0:0:0:
256,192,36408,128,0,36566:0:0:0:50:
153,192,36566,1,2,0:0:0:50:
51,192,36881,1,2,0:0:0:50:
358,192,37197,1,2,0:0:0:50:
460,192,37513,1,2,0:0:0:50:
256,192,37671,128,0,37829:0:0:0:50:
358,192,37829,1,2,0:0:0:50:
460,192,38144,1,2,0:0:0:50:
153,192,38460,1,2,0:0:0:50:
51,192,38776,1,2,0:0:0:50:
256,192,38934,128,0,39092:0:0:0:50:
153,192,39092,1,2,0:0:0:50:
358,192,39250,1,2,0:0:0:50:
51,192,39408,1,2,0:0:0:50:
153,192,39566,1,2,0:0:0:50:
256,192,39723,1,2,0:0:0:50:
460,192,40039,1,8,0:0:0:50:
153,192,40197,128,8,40355:0:0:0:50:
256,192,40355,1,8,0:0:0:50:
358,192,40513,1,8,0:0:0:50:
51,192,40671,128,4,41302:0:0:0:50:
358,192,40987,128,2,41302:0:0:0:50:
460,192,41302,1,4,0:0:0:50:
153,192,41302,1,2,0:0:0:50:
256,192,41460,128,0,41618:0:0:0:50:
153,192,41618,1,2,0:0:0:50:
153,192,41934,1,0,0:0:0:50:
460,192,41934,1,2,0:0:0:50:
256,192,42250,1,2,0:0:0:50:
358,192,42566,1,0,0:0:0:50:
51,192,42566,1,2,0:0:0:50:
256,192,42723,128,0,42881:0:0:0:50:
358,192,42881,1,2,0:0:0:50:
358,192,43197,1,0,0:0:0:50:
460,192,43197,1,2,0:0:0:50:
51,192,43513,1,2,0:0:0:50:
51,192,43829,1,2,0:0:0:50:
153,192,43829,1,0,0:0:0:50:
256,192,43987,128,0,44144:0:0:0:50:
153,192,44144,1,2,0:0:0:50:
358,192,44460,1,2,0:0:0:50:
153,192,44460,1,0,0:0:0:50:
460,192,44776,1,2,0:0:0:50:
51,192,44934,1,2,0:0:0:50:
153,192,45013,1,2,0:0:0:50:
256,192,45092,1,2,0:0:0:50:
358,192,45250,1,2,0:0:0:50:
460,192,45408,1,2,0:0:0:50:
153,192,45723,1,8,0:0:0:50:
358,192,45723,1,2,0:0:0:50:
51,192,46039,1,2,0:0:0:50:
460,192,46039,1,0,0:0:0:50:
256,192,46197,1,2,0:0:0:50:
153,192,46355,1,8,0:0:0:50:
51,192,46513,1,2,0:0:0:50:
256,192,46671,1,2,0:0:0:50:
153,192,46829,1,8,0:0:0:50:
358,192,46987,1,2,0:0:0:50:
460,192,47144,1,8,0:0:0:50:
256,192,47302,1,2,0:0:0:50:
153,192,47460,1,2,0:0:0:50:
51,192,47618,1,8,0:0:0:50:
358,192,47776,1,2,0:0:0:50:
256,192,47934,1,2,0:0:0:50:
153,192,48092,1,8,0:0:0:50:
358,192,48250,1,2,0:0:0:50:
460,192,48408,1,8,0:0:0:50:
256,192,48566,1,2,0:0:0:50:
358,192,48723,1,2,0:0:0:50:
153,192,48881,1,2,0:0:0:50:
256,192,49039,1,2,0:0:0:50:
358,192,49197,1,2,0:0:0:50:
153,192,49355,1,2,0:0:0:50:
256,192,49513,1,2,0:0:0:50:
51,192,49671,1,2,0:0:0:50:
460,192,49829,1,4,0:0:0:50:
153,192,49829,1,2,0:0:0:50:
358,192,49987,1,2,0:0:0:50:
256,192,50066,1,2,0:0:0:50:
153,192,50144,1,8,0:0:0:50:
51,192,50302,1,2,0:0:0:50:
460,192,50460,1,2,0:0:0:50:
358,192,50618,1,0,0:0:0:50:
256,192,50776,128,8,51092:0:0:0:50:
51,192,51092,128,2,56144:0:0:0:50:
358,192,51092,1,0,0:0:0:50:
358,192,51723,1,2,0:0:0:50:
256,192,52039,1,0,0:0:0:0:
358,192,52355,1,2,0:0:0:50:
256,192,52671,1,0,0:0:0:50:
358,192,52987,1,2,0:0:0:50:
256,192,53302,1,0,0:0:0:50:
358,192,53618,1,2,0:0:0:50:
358,192,54250,1,2,0:0:0:50:
256,192,54566,1,0,0:0:0:50:
358,192,54881,1,2,0:0:0:50:
358,192,55513,1,2,0:0:0:50:
256,192,55829,1,0,0:0:0:50:
460,192,56144,128,0,61197:0:0:0:50:
153,192,56144,1,2,0:0:0:50:
153,192,56776,1,2,0:0:0:50:
256,192,57092,1,0,0:0:0:50:
153,192,57408,1,2,0:0:0:50:
256,192,57723,1,0,0:0:0:50:
153,192,58039,1,2,0:0:0:50:
256,192,58355,1,0,0:0:0:50:
153,192,58671,1,2,0:0:0:50:
153,192,59302,1,2,0:0:0:50:
256,192,59618,1,0,0:0:0:50:
153,192,59934,128,2,61197:0:0:0:50:
51,192,61197,1,2,0:0:0:50:
358,192,61197,1,4,0:0:0:0:
256,192,61513,1,2,0:0:0:50:
51,192,61829,1,2,0:0:0:50:
256,192,62144,1,2,0:0:0:50:
51,192,62460,1,2,0:0:0:50:
256,192,62776,1,2,0:0:0:50:
51,192,63092,1,2,0:0:0:50:
256,192,63408,1,2,0:0:0:50:
51,192,63723,1,2,0:0:0:50:
256,192,64039,1,2,0:0:0:50:
51,192,64355,1,2,0:0:0:50:
256,192,64671,1,2,0:0:0:50:
51,192,64987,1,2,0:0:0:50:
256,192,65302,1,2,0:0:0:50:
51,192,65618,1,2,0:0:0:50:
256,192,65934,1,4,0:0:0:50:
460,192,65934,1,8,0:0:0:50:
153,192,66250,1,2,0:0:0:50:
358,192,66250,1,4,0:0:0:50:
153,192,66723,1,2,0:0:0:50:
358,192,66723,1,4,0:0:0:50:
153,192,67197,1,2,0:0:0:50:
358,192,67197,1,4,0:0:0:50:
153,192,67513,1,2,0:0:0:50:
358,192,67513,1,4,0:0:0:50:
153,192,67987,1,2,0:0:0:50:
358,192,67987,1,4,0:0:0:50:
358,192,68460,1,4,0:0:0:50:
153,192,68460,1,2,0:0:0:50:
51,192,68776,1,4,0:0:0:50:
460,192,68934,1,0,0:0:0:50:
51,192,69092,1,0,0:0:0:50:
460,192,69250,1,0,0:0:0:50:
51,192,69408,1,0,0:0:0:50:
460,192,69566,1,0,0:0:0:50:
51,192,69723,1,0,0:0:0:50:
460,192,69881,1,0,0:0:0:50:
51,192,70039,1,8,0:0:0:50:
153,192,70039,1,0,0:0:0:50:
460,192,70276,1,8,0:0:0:50:
358,192,70276,1,0,0:0:0:50:
153,192,70513,1,0,0:0:0:50:
51,192,70513,1,8,0:0:0:50:
256,192,70671,128,8,70987:0:0:0:50:
460,192,70987,1,8,0:0:0:50:
358,192,71302,1,2,0:0:0:50:
153,192,71302,1,0,0:0:0:50:
460,192,71618,1,2,0:0:0:50:
51,192,71618,1,0,0:0:0:50:
358,192,71776,1,0,0:0:0:50:
153,192,71934,1,2,0:0:0:50:
358,192,72092,1,0,0:0:0:50:
256,192,72250,1,2,0:0:0:50:
153,192,72408,1,0,0:0:0:50:
460,192,72566,1,2,0:0:0:50:
358,192,72723,1,0,0:0:0:0:
153,192,72881,1,2,0:0:0:50:
51,192,73039,1,0,0:0:0:50:
256,192,73197,1,2,0:0:0:50:
460,192,73355,1,0,0:0:0:50:
51,192,73513,1,2,0:0:0:50:
256,192,73671,1,0,0:0:0:50:
153,192,73829,1,2,0:0:0:50:
460,192,73987,1,0,0:0:0:0:
51,192,74144,1,2,0:0:0:50:
358,192,74302,1,0,0:0:0:50:
153,192,74460,1,2,0:0:0:50:
460,192,74618,1,0,0:0:0:50:
256,192,74776,1,2,0:0:0:50:
153,192,74934,1,0,0:0:0:50:
51,192,75092,1,2,0:0:0:50:
358,192,75250,1,0,0:0:0:0:
256,192,75408,1,2,0:0:0:50:
153,192,75566,1,0,0:0:0:50:
460,192,75723,1,2,0:0:0:50:
358,192,75881,1,0,0:0:0:50:
256,192,76039,1,0,0:0:0:50:
460,192,76197,1,0,0:0:0:50:
153,192,76355,1,4,0:0:0:50:
51,192,76355,1,2,0:0:0:50:
256,192,76513,1,0,0:0:0:0:
358,192,76671,1,2,0:0:0:50:
460,192,76671,1,0,0:0:0:50:
51,192,76829,1,0,0:0:0:50:
358,192,76987,1,2,0:0:0:50:
153,192,77144,1,0,0:0:0:50:
460,192,77302,1,2,0:0:0:50:
256,192,77460,1,0,0:0:0:50:
51,192,77618,1,2,0:0:0:50:
358,192,77776,1,0,0:0:0:0:
460,192,77934,1,2,0:0:0:50:
153,192,78092,1,0,0:0:0:50:
358,192,78250,1,2,0:0:0:50:
51,192,78408,1,0,0:0:0:50:
460,192,78566,1,2,0:0:0:50:
153,192,78723,1,0,0:0:0:50:
358,192,78881,1,2,0:0:0:50:
51,192,79039,1,0,0:0:0:0:
256,192,79197,1,2,0:0:0:50:
358,192,79355,1,0,0:0:0:50:
153,192,79513,1,2,0:0:0:50:
51,192,79671,1,0,0:0:0:50:
358,192,79829,1,2,0:0:0:50:
153,192,79987,1,0,0:0:0:50:
460,192,80144,1,2,0:0:0:50:
358,192,80302,1,2,0:0:0:50:
51,192,80460,1,2,0:0:0:50:
153,192,80618,1,2,0:0:0:50:
256,192,80776,1,2,0:0:0:50:
358,192,80934,1,0,0:0:0:50:
51,192,81092,1,8,0:0:0:50:
460,192,81092,1,0,0:0:0:0:
51,192,81250,1,8,0:0:0:50:
460,192,81250,1,0,0:0:0:0:
153,192,81408,1,2,0:0:0:50:
358,192,81408,1,4,0:0:0:50:
256,192,81566,1,0,0:0:0:50:
460,192,81723,1,8,0:0:0:50:
51,192,81723,1,2,0:0:0:50:
153,192,81881,1,0,0:0:0:50:
358,192,82039,1,2,0:0:0:0:
256,192,82197,1,0,0:0:0:50:
460,192,82355,1,8,0:0:0:50:
51,192,82355,1,2,0:0:0:50:
153,192,82513,1,0,0:0:0:50:
358,192,82671,1,2,0:0:0:50:
460,192,82829,1,0,0:0:0:0:
256,192,82987,1,8,0:0:0:50:
51,192,82987,1,2,0:0:0:50:
153,192,83144,1,0,0:0:0:50:
358,192,83302,1,2,0:0:0:0:
51,192,83460,1,0,0:0:0:50:
460,192,83618,1,2,0:0:0:50:
153,192,83618,1,8,0:0:0:50:
358,192,83776,1,0,0:0:0:50:
256,192,83934,1,2,0:0:0:50:
51,192,83934,1,4,0:0:0:50:
153,192,84092,1,0,0:0:0:0:
460,192,84250,1,2,0:0:0:50:
358,192,84250,1,8,0:0:0:50:
153,192,84408,1,0,0:0:0:50:
256,192,84566,1,2,0:0:0:0:
51,192,84723,1,0,0:0:0:50:
153,192,84881,1,2,0:0:0:50:
358,192,84881,1,8,0:0:0:50:
460,192,85039,1,0,0:0:0:50:
358,192,85197,1,2,0:0:0:50:
256,192,85355,1,2,0:0:0:50:
153,192,85434,1,2,0:0:0:50:
51,192,85513,1,2,0:0:0:50:
358,192,85513,1,0,0:0:0:0:
460,192,85671,1,2,0:0:0:50:
153,192,85829,1,2,0:0:0:50:
358,192,85987,1,2,0:0:0:50:
51,192,86144,1,8,0:0:0:50:
153,192,86144,1,2,0:0:0:50:
256,192,86302,1,0,0:0:0:50:
358,192,86460,1,2,0:0:0:50:
460,192,86460,1,4,0:0:0:50:
153,192,86618,1,2,0:0:0:50:
256,192,86776,1,2,0:0:0:50:
51,192,86934,1,2,0:0:0:50:
153,192,87092,1,2,0:0:0:50:
256,192,87250,1,2,0:0:0:50:
358,192,87408,1,2,0:0:0:50:
460,192,87566,1,2,0:0:0:50:
153,192,87723,1,2,0:0:0:50:
51,192,87723,1,4,0:0:0:50:
256,192,87881,1,2,0:0:0:50:
358,192,88039,1,2,0:0:0:50:
51,192,88197,1,2,0:0:0:50:
153,192,88355,1,2,0:0:0:50:
256,192,88513,1,2,0:0:0:50:
358,192,88671,1,2,0:0:0:50:
460,192,88829,1,2,0:0:0:50:
51,192,88987,1,2,0:0:0:50:
256,192,89144,1,2,0:0:0:50:
460,192,89302,1,2,0:0:0:50:
153,192,89460,1,2,0:0:0:50:
358,192,89618,1,2,0:0:0:50:
51,192,89776,1,2,0:0:0:50:
256,192,89934,1,2,0:0:0:50:
460,192,90092,1,2,0:0:0:50:
256,192,90250,128,2,91197:0:0:0:50:
51,192,91197,1,8,0:0:0:50:
460,192,91197,1,2,0:0:0:50:
358,192,91513,1,2,0:0:0:50:
153,192,91513,128,0,91829:0:0:0:50:
51,192,91829,1,2,0:0:0:50:
460,192,91829,1,4,0:0:0:50:
460,192,92144,1,2,0:0:0:50:
256,192,92460,1,2,0:0:0:50:
358,192,92618,1,0,0:0:0:50:
358,192,92934,1,0,0:0:0:50:
358,192,93250,1,0,0:0:0:50:
358,192,93566,1,0,0:0:0:50:
153,192,93723,1,2,0:0:0:50:
256,192,93881,1,0,0:0:0:50:
51,192,94039,1,2,0:0:0:50:
460,192,94355,1,2,0:0:0:50:
460,192,94671,1,2,0:0:0:50:
256,192,94987,1,2,0:0:0:50:
358,192,95144,1,0,0:0:0:50:
358,192,95460,1,0,0:0:0:50:
358,192,95776,1,0,0:0:0:50:
460,192,95934,1,2,0:0:0:50:
358,192,96092,1,0,0:0:0:50:
256,192,96250,1,0,0:0:0:50:
153,192,96408,1,0,0:0:0:50:
460,192,96566,1,2,0:0:0:50:
358,192,96566,1,0,0:0:0:0:
51,192,96881,1,2,0:0:0:50:
51,192,97197,1,2,0:0:0:50:
256,192,97513,1,2,0:0:0:50:
153,192,97671,1,0,0:0:0:50:
153,192,97987,1,0,0:0:0:50:
153,192,98302,1,0,0:0:0:50:
153,192,98618,1,0,0:0:0:50:
358,192,98776,1,2,0:0:0:50:
256,192,98934,1,0,0:0:0:50:
460,192,99092,1,2,0:0:0:50:
51,192,99408,1,2,0:0:0:50:
51,192,99723,1,2,0:0:0:50:
256,192,100039,1,2,0:0:0:50:
153,192,100197,1,0,0:0:0:50:
153,192,100513,1,2,0:0:0:50:
153,192,100829,1,2,0:0:0:50:
256,192,101302,1,2,0:0:0:50:
358,192,101460,1,8,0:0:0:50:
153,192,101618,1,2,0:0:0:50:
460,192,101618,1,0,0:0:0:0:
51,192,101934,1,2,0:0:0:50:
460,192,101934,1,8,0:0:0:50:
51,192,102250,1,2,0:0:0:50:
358,192,102566,1,8,0:0:0:50:
460,192,102566,1,2,0:0:0:50:
153,192,102723,1,0,0:0:0:50:
153,192,103039,1,0,0:0:0:50:
460,192,103197,1,2,0:0:0:50:
358,192,103197,1,8,0:0:0:0:
153,192,103355,1,0,0:0:0:50:
153,192,103671,1,0,0:0:0:50:
358,192,103829,1,2,0:0:0:50:
460,192,103829,1,8,0:0:0:50:
256,192,103987,1,0,0:0:0:50:
51,192,104144,1,4,0:0:0:50:
358,192,104460,1,2,0:0:0:50:
153,192,104460,1,8,0:0:0:50:
460,192,104776,1,2,0:0:0:50:
153,192,105092,1,8,0:0:0:50:
51,192,105092,1,2,0:0:0:50:
358,192,105250,1,0,0:0:0:50:
358,192,105566,1,2,0:0:0:50:
153,192,105723,1,2,0:0:0:50:
51,192,105723,1,8,0:0:0:0:
358,192,105881,1,2,0:0:0:50:
256,192,106039,1,2,0:0:0:50:
358,192,106197,1,2,0:0:0:50:
153,192,106355,1,2,0:0:0:50:
460,192,106355,1,8,0:0:0:0:
256,192,106513,1,0,0:0:0:50:
51,192,106671,1,2,0:0:0:50:
460,192,106671,1,4,0:0:0:50:
358,192,106987,1,2,0:0:0:50:
153,192,107302,1,2,0:0:0:50:
256,192,107618,1,2,0:0:0:50:
256,192,107776,1,2,0:0:0:50:
358,192,107934,1,2,0:0:0:50:
153,192,107934,1,4,0:0:0:50:
51,192,108250,1,2,0:0:0:50:
460,192,108566,1,2,0:0:0:50:
51,192,108881,1,2,0:0:0:50:
256,192,109039,1,2,0:0:0:50:
358,192,109197,1,8,0:0:0:50:
153,192,109197,1,0,0:0:0:0:
460,192,109355,1,2,0:0:0:50:
256,192,109513,1,8,0:0:0:50:
51,192,109671,1,2,0:0:0:50:
153,192,109829,1,8,0:0:0:50:
256,192,109987,1,2,0:0:0:50:
460,192,110144,1,8,0:0:0:50:
358,192,110302,1,2,0:0:0:50:
153,192,110460,1,8,0:0:0:50:
358,192,110618,1,0,0:0:0:50:
358,192,110934,1,0,0:0:0:50:
358,192,111250,1,0,0:0:0:50:
358,192,111566,128,0,111723:0:0:0:50:
