osu file format v14

[General]
AudioFilename: audio.mp3
AudioLeadIn: 0
PreviewTime: 71349
Countdown: 0
SampleSet: Soft
StackLeniency: 0.2
Mode: 0
LetterboxInBreaks: 0
WidescreenStoryboard: 0

[Editor]
Bookmarks: 51454,101980
DistanceSpacing: 0.8
BeatDivisor: 4
GridSize: 4
TimelineZoom: 1.5

[Metadata]
Title:Grayed Out -Antifront-
TitleUnicode:Grayed Out -Antifront-
Artist:Getty vs. DJ DiA
ArtistUnicode:Getty vs. DJ DiA
Creator:Arbane
Version:Xtra
Source:BMS
Tags:bofu2016 bms of fighters ultimate 2016
BeatmapID:1264457
BeatmapSetID:598182

[Difficulty]
HPDrainRate:5.7
CircleSize:4.2
OverallDifficulty:8.6
ApproachRate:9.4
SliderMultiplier:1.8
SliderTickRate:1

[Events]
//Background and Video events
0,0,"Konachan.com - 209373 boots gun hoodie original renatus-z ruins sketch thighhighs weapon.jpg",0,0
//Break Periods
//Storyboard Layer 0 (Background)
//Storyboard Layer 1 (Fail)
//Storyboard Layer 2 (Pass)
//Storyboard Layer 3 (Foreground)
//Storyboard Sound Samples

[TimingPoints]
928,315.789473684211,4,2,1,75,1,0
928,-200,4,2,1,75,0,0
3454,-200,4,2,1,20,0,0
9770,-200,4,2,1,30,0,0
10243,-200,4,2,1,35,0,0
10401,-200,4,2,1,40,0,0
10717,-133.333333333333,4,2,1,45,0,0
10875,-100,4,2,1,50,0,0
11033,-100,4,2,1,50,0,0
11506,-133.333333333333,4,2,1,50,0,0
12770,-100,4,2,1,50,0,0
14033,-133.333333333333,4,2,1,50,0,0
15296,-100,4,2,1,50,0,0
17349,-100,4,2,1,60,0,0
19875,-100,4,2,1,40,0,0
20349,-133.333333333333,4,2,1,30,0,0
20585,-133.333333333333,4,2,1,15,0,0
21138,-100,4,2,1,40,0,0
22401,-100,4,2,1,45,0,0
23664,-100,4,2,1,50,0,0
24928,-100,4,2,1,55,0,0
25875,-66.6666666666667,4,2,1,60,0,0
26191,-100,4,2,1,60,0,0
28717,-300,4,2,1,60,0,0
29980,-66.6666666666667,4,2,1,70,0,0
30612,-66.6666666666667,4,2,1,50,0,0
31243,-200,4,2,1,50,0,0
31559,-80,4,2,1,60,0,0
35980,-200,4,2,1,60,0,0
36296,-80,4,2,1,60,0,0
38191,-50,4,2,1,60,0,0
38506,-80,4,2,1,60,0,0
41349,-200,4,2,1,60,0,0
41664,-66.6666666666667,4,2,1,70,0,0
43875,-100,4,2,1,70,0,0
44191,-57.1428571428571,4,2,1,70,0,0
45770,-80,4,2,1,70,0,0
51138,-200,4,2,1,70,0,0
51454,-200,4,2,1,30,0,0
60296,-100,4,2,1,40,0,0
62822,-100,4,2,1,50,0,0
64085,-100,4,2,1,55,0,0
65349,-100,4,2,1,60,0,0
66296,-66.6666666666667,4,2,1,60,0,0
66612,-100,4,2,1,60,0,0
70401,-66.6666666666667,4,2,1,70,0,0
71664,-80,4,2,1,80,0,1
81770,-66.6666666666667,4,2,1,80,0,1
86822,-80,4,2,1,80,0,1
90612,-80,4,2,1,80,0,0
91243,-100,4,2,1,80,0,0
91559,-133.333333333333,4,2,1,80,0,0
91875,-200,4,2,1,80,0,0
92191,-80,4,2,1,60,0,0
96612,-133.333333333333,4,2,1,60,0,0
96928,-79.9999999999999,4,2,1,60,0,0
101980,-133.333333333333,4,2,1,60,0,0
102296,-79.9999999999999,4,2,1,60,0,0
110822,-100,4,2,1,45,0,0
111770,-80,4,2,1,45,0,0

[HitObjects]
50,225,928,6,0,B|143:265|136:178|238:233|238:233|290:305|193:359|155:252|238:233|238:233|300:223|333:172|324:77|279:58|237:94|247:120|280:126,1,630,4|0,1:3|0:0,0:0:0:0:
447,254,3454,6,0,B|444:194|444:194|429:153|429:153|427:87|427:87|494:57|494:57|497:147,1,315,0|0,1:0|0:0,0:0:0:0:
359,213,4717,6,0,B|288:242|295:175|222:203,1,135,0|0,1:0|0:0,0:0:0:0:
230,200,5349,2,0,B|247:151|227:109|227:109|209:138|219:160,1,135,0|0,1:0|0:0,0:0:0:0:
206,362,5980,6,0,B|261:329|261:329|327:345|327:345|303:309|292:257|313:212|313:212|346:194|391:209|391:209|369:254|364:286|384:332|432:362|497:359|524:330|518:270|469:266|463:309,1,630,4|0,1:3|0:0,0:0:0:0:
219,261,8506,6,0,B|114:264|114:264|177:108|177:108|192:160,1,315,0|0,1:0|0:0,0:0:0:0:
156,339,9770,6,0,L|99:342,2,45,2|2|2,0:3|0:3|0:3,0:0:0:0:
245,347,10243,1,0,0:0:0:0:
95,233,10401,6,0,L|62:239,2,22.5
181,150,10717,2,0,L|223:155,1,33.7500012874604,2|0,0:0|0:0,0:0:0:0:
310,272,10875,2,0,L|360:267,1,45,2|0,0:0|0:0,0:0:0:0:
491,130,11033,6,0,P|503:85|498:38,1,90,4|0,1:3|0:0,0:0:0:0:
499,42,11270,1,0,0:0:0:0:
499,42,11349,1,0,1:0:0:0:
314,77,11506,2,0,L|404:72,1,67.5000025749208,2|0,0:0|1:0,0:0:0:0:
206,155,11822,2,0,L|296:150,1,67.5000025749208,2|0,0:0|1:0,0:0:0:0:
98,233,12138,2,0,L|188:228,1,67.5000025749208,2|0,0:0|1:0,0:0:0:0:
192,228,12375,1,0,0:0:0:0:
175,249,12454,1,0,0:0:0:0:
171,275,12533,1,0,0:0:0:0:
175,301,12612,5,0,1:0:0:0:
383,343,12770,2,0,L|391:235,1,90,2|0,0:0|1:0,0:0:0:0:
344,49,13085,1,2,0:0:0:0:
295,155,13243,1,2,1:2:0:0:
411,146,13401,1,2,0:0:0:0:
138,80,13559,6,0,L|36:87,1,90,2|0,1:2|0:0,0:0:0:0:
48,86,13796,1,0,0:0:0:0:
48,86,13875,1,0,1:0:0:0:
193,221,14033,2,0,P|207:189|208:148,1,67.5000025749208,2|0,0:0|1:0,0:0:0:0:
204,299,14349,2,0,P|236:286|266:257,1,67.5000025749208,2|0,0:0|1:0,0:0:0:0:
156,361,14664,2,0,P|188:375|229:376,1,67.5000025749208,2|0,0:0|1:0,0:0:0:0:
247,374,14901,1,0,0:0:0:0:
272,365,14980,1,0,0:0:0:0:
293,348,15059,1,0,0:0:0:0:
307,325,15138,5,0,1:0:0:0:
207,135,15296,2,0,B|188:174|188:174|195:240,1,90,2|0,0:0|1:0,0:0:0:0:
387,273,15612,1,2,0:0:0:0:
329,93,15770,1,2,1:2:0:0:
307,325,15928,1,2,0:0:0:0:
466,160,16085,5,4,1:0:0:0:
452,52,16243,1,0,1:0:0:0:
348,223,16401,5,0,1:0:0:0:
362,115,16559,1,0,1:0:0:0:
254,156,16717,5,0,1:0:0:0:
240,48,16875,1,0,1:0:0:0:
136,219,17033,5,0,1:0:0:0:
150,111,17191,1,0,1:0:0:0:
22,286,17349,5,4,1:0:0:0:
233,302,17506,1,0,1:0:0:0:
211,59,17664,5,0,1:0:0:0:
140,258,17821,1,0,1:0:0:0:
372,258,17980,5,0,1:0:0:0:
301,59,18137,1,0,1:0:0:0:
279,302,18295,5,0,1:0:0:0:
490,286,18452,1,0,1:0:0:0:
226,147,18612,5,4,1:0:0:0:
181,155,18691,1,0,1:0:0:0:
145,183,18770,1,0,1:0:0:0:
129,225,18849,1,0,1:0:0:0:
134,269,18928,1,0,1:0:0:0:
121,311,19006,1,0,1:0:0:0:
84,336,19085,1,0,1:0:0:0:
38,335,19164,1,0,1:0:0:0:
4,305,19243,6,0,L|9:254,1,45,4|0,1:0|1:0,1:0:0:0:
87,78,19401,2,0,L|92:129,1,45,0|0,1:0|1:0,1:0:0:0:
165,315,19559,2,0,L|114:310,1,45,0|0,1:0|1:0,1:0:0:0:
192,93,19717,2,0,L|236:97,1,45,0|0,1:0|1:0,1:0:0:0:
296,240,19875,5,4,0:0:0:0:
176,176,20033,1,0,0:0:0:0:
189,174,20112,1,0,0:0:0:0:
202,172,20191,1,0,0:0:0:0:
332,314,20349,6,0,P|288:334|240:284,1,101.250003862381
241,288,20664,2,0,L|247:238,1,33.7500012874604
312,161,20822,2,0,L|318:211,1,33.7500012874604
400,265,20980,2,0,L|406:215,1,33.7500012874604
470,62,21138,6,0,B|498:98|498:98|491:157,1,90,4|0,1:0|0:0,0:0:0:0:
470,322,21454,2,0,B|498:286|498:286|491:227,1,90,0|0,1:0|0:0,0:0:0:0:
342,93,21770,2,0,B|387:90|387:90|431:130,1,90,0|0,1:0|0:0,0:0:0:0:
342,291,22085,2,0,B|387:293|387:293|431:253,1,90,0|0,1:0|0:0,0:0:0:0:
250,42,22401,6,0,L|245:150,1,90,0|0,1:0|0:0,0:0:0:0:
250,342,22717,2,0,L|245:234,1,90,0|0,1:0|0:0,0:0:0:0:
145,6,23033,2,0,L|148:116,1,90,0|0,1:0|0:0,0:0:0:0:
145,378,23349,2,0,L|148:268,1,90,0|0,1:0|0:0,0:0:0:0:
0,192,23664,6,0,L|98:192,1,90,2|0,1:2|0:0,0:0:0:0:
90,192,23901,1,0,0:0:0:0:
90,192,23980,1,0,1:0:0:0:
278,121,24138,2,0,P|298:83|290:23,1,90,2|0,0:0|1:0,0:0:0:0:
176,221,24454,2,0,L|182:333,1,90,2|0,0:0|1:0,0:0:0:0:
180,310,24691,1,0,0:0:0:0:
180,310,24770,1,2,0:0:0:0:
463,259,24928,6,0,L|465:141,1,90,2|0,1:2|0:0,0:0:0:0:
464,169,25164,1,0,0:0:0:0:
464,169,25243,1,0,1:0:0:0:
294,15,25401,2,0,P|249:-2|190:7,1,90,2|0,0:0|1:0,0:0:0:0:
72,171,25717,2,0,P|94:179|132:177,1,45,2|0,0:0|0:0,1:0:0:0:
423,74,25875,6,0,B|355:71|355:71|330:94|330:94|222:91,1,202.500007724762,8|0,1:0|0:0,0:0:0:0:
151,101,26191,6,0,L|188:125,1,45,4|0,0:0|0:0,0:0:0:0:
277,156,26349,2,0,L|279:111,1,45
261,18,26506,2,0,L|220:38,1,45
151,218,26664,6,0,L|213:227,1,45,4|0,0:0|0:0,0:0:0:0:
343,213,26822,2,0,L|319:154,1,45
241,47,26979,2,0,L|202:96,1,45
200,324,27138,6,0,L|279:299,1,45,4|0,0:0|0:0,0:0:0:0:
427,210,27296,2,0,L|366:152,1,45
212,68,27454,6,0,L|192:149,1,45,4|0,0:0|0:0,0:0:0:0:
312,350,27612,2,0,L|322:306,1,45
123,104,27770,2,0,L|139:185,1,45
400,314,27928,2,0,L|390:269,1,45
66,187,28085,2,0,L|126:244,1,45
456,230,28243,2,0,L|423:199,1,45
65,288,28401,2,0,L|147:299,1,45
457,129,28559,2,0,L|412:122,1,45
260,205,28717,6,0,P|306:298|379:238,1,225,0|0,1:0|0:0,0:0:0:0:
361,148,29980,6,0,B|309:146|309:146|277:133|277:133|221:131,1,135.000005149842,8|0,0:1|0:0,0:0:0:0:
28,229,30217,2,0,B|74:255|74:255|192:226,1,135.000005149842,8|0,0:1|0:0,0:0:0:0:
111,33,30454,2,0,B|93:63|93:63|101:112,1,67.5000025749208,8|0,0:1|0:0,0:0:0:0:
274,335,30612,5,8,0:1:0:0:
344,312,30691,1,8,0:1:0:0:
344,237,30770,1,0,1:0:0:0:
274,214,30849,1,0,1:0:0:0:
230,274,30928,2,0,B|282:275|282:275|307:264|307:264|338:289|338:289|362:278|362:278|434:281,1,202.500007724762,0|0,1:0|0:0,0:0:0:0:
512,200,31243,6,0,P|488:173|441:162,1,67.5,0|0,1:0|0:0,0:0:0:0:
341,193,31559,6,0,B|374:141|374:141|354:13,1,168.75,0|0,1:0|0:0,0:0:0:0:
211,165,31875,2,0,B|213:224|213:224|230:264|230:264|233:340,1,168.75,0|0,1:0|0:0,0:0:0:0:
123,363,32191,2,0,L|121:298,1,56.25,0|0,1:0|0:0,0:0:0:0:
191,142,32349,2,0,L|193:207,1,56.25
8,242,32506,6,0,L|67:237,1,56.25,0|0,1:0|0:0,0:0:0:0:
253,249,32664,1,0,0:0:0:0:
0,232,32822,6,0,L|59:227,1,56.25,0|0,1:0|0:0,0:0:0:0:
288,320,32980,1,0,0:0:0:0:
30,150,33138,5,0,1:0:0:0:
33,127,33217,1,2,0:0:0:0:
109,106,33296,5,2,0:0:0:0:
112,83,33375,1,2,0:0:0:0:
181,46,33454,6,0,B|208:35|208:35|256:43,1,56.25,0|0,1:0|0:0,0:0:0:0:
283,254,33612,2,0,B|256:258|256:258|229:247,1,56.25
329,110,33770,1,0,1:0:0:0:
356,348,33928,5,0,0:0:0:0:
188,183,34085,6,0,P|220:171|259:177,1,56.25,0|0,1:0|0:0,0:0:0:0:
410,220,34243,1,0,0:0:0:0:
157,194,34401,6,0,P|180:169|218:158,1,56.25,0|0,1:0|0:0,0:0:0:0:
464,159,34559,1,0,0:0:0:0:
498,188,34638,1,0,0:0:0:0:
502,232,34717,1,0,1:0:0:0:
483,191,34796,1,0,0:0:0:0:
498,149,34875,1,0,0:0:0:0:
363,384,35033,5,0,1:0:0:0:
309,177,35191,1,0,1:0:0:0:
374,133,35270,1,0,1:0:0:0:
399,207,35349,2,0,L|392:274,1,56.25,0|0,1:0|0:0,0:0:0:0:
105,327,35506,2,0,L|98:260,1,56.25,0|0,1:0|0:0,0:0:0:0:
234,44,35664,5,0,1:0:0:0:
240,65,35743,1,0,0:0:0:0:
227,142,35822,5,0,1:0:0:0:
233,163,35901,1,0,0:0:0:0:
220,240,35980,6,0,L|224:320,1,67.5,0|0,1:0|0:0,0:0:0:0:
355,369,36296,6,0,B|427:356|427:356|397:321,1,112.5,0|0,1:0|0:0,0:0:0:0:
74,279,36612,5,4,1:0:0:0:
56,314,36691,1,2,0:0:0:0:
83,341,36770,1,2,0:0:0:0:
119,324,36849,1,2,0:0:0:0:
112,285,36928,2,0,L|-10:288,1,112.5,0|2,1:0|0:0,0:0:0:0:
312,185,37243,2,0,L|358:191,6,28.125,0|2|2|2|2|2|2,1:0|0:0|0:0|0:0|0:0|0:0|0:0,0:0:0:0:
232,194,37559,5,0,1:0:0:0:
323,22,37717,1,0,0:0:0:0:
383,306,37875,5,0,1:0:0:0:
342,319,37954,1,2,0:0:0:0:
301,299,38033,1,2,0:0:0:0:
261,280,38112,1,2,0:0:0:0:
217,288,38191,6,0,B|181:316|181:316|243:338,1,90,0|2,1:0|0:3,0:0:0:0:
460,244,38349,2,0,B|496:216|496:216|434:194,1,90,2|2,0:3|0:3,0:0:0:0:
161,168,38506,6,0,P|152:192|159:229,1,56.25,0|0,1:0|0:0,0:0:0:0:
168,224,38664,2,0,P|177:200|170:163,1,56.25
148,30,38822,5,0,1:0:0:0:
57,217,38980,1,0,1:0:0:0:
342,168,39138,5,0,1:0:0:0:
354,121,39217,1,2,0:0:0:0:
325,138,39296,1,2,0:0:0:0:
371,151,39375,1,2,0:0:0:0:
449,145,39454,5,0,1:0:0:0:
479,97,39533,1,0,0:0:0:0:
473,40,39612,1,0,1:0:0:0:
428,5,39691,1,0,1:0:0:0:
371,7,39770,2,0,L|363:73,1,56.25,0|0,1:0|0:0,0:0:0:0:
430,302,39928,2,0,L|438:236,1,56.25,0|0,1:0|0:0,0:0:0:0:
249,96,40085,6,0,L|185:99,1,56.25,0|0,1:0|0:0,0:0:0:0:
192,285,40243,2,0,L|249:288,1,56.25,0|0,1:0|0:0,0:0:0:0:
255,80,40401,2,0,L|178:84,1,56.25,0|0,1:0|0:0,0:0:0:0:
198,301,40559,2,0,L|255:304,1,56.25,0|0,1:0|0:0,0:0:0:0:
432,192,40717,1,0,1:0:0:0:
353,192,40795,1,0,1:0:0:0:
274,192,40874,1,0,1:0:0:0:
195,192,40953,1,0,1:0:0:0:
117,192,41033,6,0,B|94:98|94:98|169:131,1,168.75,8|0,1:0|0:0,0:0:0:0:
141,298,41349,6,0,B|120:296|120:296|107:300|107:300|95:295|95:295|58:293,1,67.5,0|0,1:0|0:0,0:0:0:0:
276,209,41664,6,0,B|327:207|327:207|352:214|352:214|428:211,1,135.000005149842,8|0,1:0|0:0,0:0:0:0:
470,108,41901,1,0,0:0:0:0:
470,108,41980,2,0,L|402:109,1,67.5000025749208,0|0,1:0|0:0,0:0:0:0:
436,384,42138,6,0,B|475:352|475:352|465:250,1,135.000005149842,0|8,0:0|1:0,0:0:0:0:
359,177,42375,1,0,0:0:0:0:
359,177,42454,2,0,L|291:178,1,67.5000025749208
47,337,42612,6,0,L|202:341,1,135.000005149842,0|0,1:0|0:0,0:0:0:0:
312,283,42849,1,0,0:0:0:0:
312,283,42928,2,0,P|328:240|321:196,1,67.5000025749208,8|0,1:0|0:0,0:0:0:0:
170,14,43085,6,0,B|133:51|133:51|142:159,1,135.000005149842,0|0,0:0|1:0,0:0:0:0:
179,205,43322,1,0,0:0:0:0:
222,136,43401,1,0,0:0:0:0:
139,133,43480,1,0,0:0:0:0:
179,205,43559,6,0,P|210:218|256:212,1,67.5000025749208,8|0,1:0|0:0,0:0:0:0:
406,57,43717,2,0,P|372:55|341:68,1,67.5000025749208
304,350,43875,6,0,L|401:354,1,90,0|0,1:0|0:0,1:0:0:0:
203,57,44191,6,0,B|139:54|139:54|112:44|112:44|43:42,1,157.500001502037,8|0,1:0|0:0,0:0:0:0:
0,196,44428,1,0,0:0:0:0:
62,242,44506,2,0,L|159:238,1,78.7500007510185,0|0,1:0|0:0,0:0:0:0:
328,75,44664,6,0,B|287:113|287:113|302:235,1,157.500001502037,0|8,0:0|1:0,0:0:0:0:
392,356,44901,1,0,0:0:0:0:
448,300,44980,2,0,P|419:281|366:280,1,78.7500007510185
119,366,45138,6,0,P|155:380|247:308,1,157.500001502037,0|0,1:0|1:0,0:0:0:0:
222,243,45375,1,0,1:0:0:0:
167,300,45454,1,8,1:0:0:0:
482,376,45612,2,0,B|501:340|501:340|490:266,1,78.7500007510185,0|0,1:0|0:0,0:0:0:0:
328,75,45770,6,0,L|323:148,1,56.25,0|0,1:0|0:0,0:0:0:0:
419,227,45928,2,0,L|414:154,1,56.25,0|0,1:0|0:0,0:0:0:0:
129,191,46085,6,0,P|138:256|223:196,1,168.75,8|0,1:0|0:0,0:0:0:0:
206,164,46401,5,8,1:0:0:0:
169,122,46479,1,0,1:0:0:0:
115,113,46558,1,0,1:0:0:0:
67,140,46637,1,0,1:0:0:0:
39,215,46717,5,8,1:0:0:0:
45,270,46796,1,0,1:0:0:0:
51,325,46875,1,0,1:0:0:0:
56,380,46954,1,0,1:0:0:0:
133,364,47033,5,8,1:0:0:0:
139,309,47112,1,0,1:0:0:0:
145,254,47191,1,0,1:0:0:0:
150,199,47270,1,0,1:0:0:0:
185,128,47349,5,8,1:0:0:0:
258,100,47428,1,0,1:0:0:0:
334,113,47506,1,8,1:0:0:0:
393,165,47585,1,0,1:0:0:0:
405,242,47664,6,0,L|396:337,1,56.25,8|0,1:0|0:0,0:0:0:0:
282,339,47822,2,0,L|273:244,1,56.25,8|0,1:0|0:0,0:0:0:0:
414,85,47980,6,0,L|488:93,1,56.25,8|0,1:0|0:0,0:0:0:0:
177,198,48138,2,0,L|103:190,1,56.25,8|0,1:0|0:0,0:0:0:0:
336,0,48296,6,0,L|340:73,3,56.25,8|8|8|8,1:0|1:0|1:0|1:0,1:0:0:0:
246,99,48612,6,0,L|242:42,1,56.25,8|0,1:0|0:0,1:0:0:0:
451,284,48770,2,0,L|447:340,1,56.25,8|0,1:0|0:0,1:0:0:0:
116,235,48928,5,8,1:0:0:0:
148,189,49006,1,8,1:0:0:0:
202,173,49085,1,8,1:0:0:0:
257,183,49164,1,8,1:0:0:0:
298,220,49243,1,8,1:0:0:0:
311,274,49322,1,8,1:0:0:0:
346,317,49401,1,8,1:0:0:0:
398,336,49480,1,8,1:0:0:0:
453,329,49559,5,8,1:0:0:0:
495,262,49638,1,8,1:0:0:0:
479,184,49717,1,8,1:0:0:0:
418,132,49796,1,8,1:0:0:0:
339,134,49875,1,8,1:0:0:0:
286,192,49954,1,8,1:0:0:0:
214,224,50033,1,8,1:0:0:0:
136,211,50112,1,8,1:0:0:0:
82,153,50191,5,0,1:0:0:0:
326,39,50349,2,0,L|395:48,2,56.25,8|8|8,0:1|0:1|0:1,0:0:0:0:
239,347,50664,6,0,L|376:341,1,112.5,8|8,0:1|0:1,0:0:0:0:
426,323,50901,1,8,0:1:0:0:
433,244,50980,1,8,1:0:0:0:
361,214,51059,1,8,1:0:0:0:
309,274,51138,2,0,L|347:338,1,67.5,0|0,1:0|0:0,0:0:0:0:
219,350,51454,6,0,L|223:183,1,157.5,4|0,1:3|0:0,0:0:0:0:
197,173,52085,2,0,L|364:177,1,157.5,0|0,1:0|0:0,0:0:0:0:
354,208,52717,2,0,L|187:204,1,157.5,0|0,1:0|0:0,0:0:0:0:
177,230,53348,2,0,L|181:63,1,157.5,0|0,1:0|0:0,0:0:0:0:
254,38,53980,6,0,L|262:92,2,45,0|0|0,1:0|0:0|0:0,0:0:0:0:
180,72,54454,1,0,0:0:0:0:
303,166,54612,2,0,P|347:177|400:166,1,90,0|0,1:0|0:0,0:0:0:0:
452,118,55085,1,0,0:0:0:0:
378,264,55243,6,0,P|374:289|376:318,1,45,0|0,1:0|0:0,0:0:0:0:
293,340,55559,2,0,P|289:315|291:286,1,45
210,208,55875,2,0,P|203:251|206:302,1,90,0|0,1:0|0:0,0:0:0:0:
58,51,56506,6,0,L|156:47,1,90,4|0,1:3|0:0,0:0:0:0:
225,22,56980,1,0,0:0:0:0:
174,163,57138,2,0,L|171:214,1,45,0|0,1:0|0:0,0:0:0:0:
247,236,57454,2,0,L|244:185,1,45
373,63,57770,6,0,L|371:168,1,90,0|0,1:0|0:0,0:0:0:0:
399,228,58243,1,0,0:0:0:0:
268,105,58401,2,0,L|163:103,1,90,0|0,1:0|0:0,0:0:0:0:
387,303,59033,6,0,P|415:303|437:294,2,45,0|0|0,1:0|0:0|0:0,0:0:0:0:
309,280,59506,1,0,0:0:0:0:
398,58,59664,2,0,L|410:156,1,90,0|0,1:0|0:0,0:0:0:0:
399,228,60138,1,0,0:0:0:0:
160,171,60296,6,0,P|131:124|203:136,1,135,0|0,1:0|0:0,0:0:0:0:
212,245,60612,2,0,B|173:303|173:303|118:249,1,135,8|0,0:1|0:0,0:0:0:0:
282,175,60928,2,0,B|321:173|321:173|349:164|349:164|421:162,1,135,8|0,1:0|0:0,0:0:0:0:
479,212,61243,1,0,1:0:0:0:
474,247,61322,1,0,1:0:0:0:
470,282,61401,1,0,1:0:0:0:
466,317,61480,1,0,1:0:0:0:
462,352,61559,6,0,B|359:357,1,90,4|0,1:0|0:0,0:0:0:0:
311,132,61875,2,0,B|400:136,1,90,8|0,1:0|0:0,0:0:0:0:
249,384,62191,2,0,B|228:347|228:347|240:291,1,90,0|0,1:0|0:0,0:0:0:0:
190,96,62506,2,0,B|169:133|169:133|181:189,1,90,8|0,1:0|0:0,0:0:0:0:
0,283,62822,6,0,L|98:283,1,90,2|0,1:2|0:0,0:0:0:0:
90,283,63059,1,0,0:0:0:0:
90,283,63138,1,8,1:0:0:0:
288,207,63296,2,0,B|311:169|311:169|302:112,1,90,2|0,0:0|1:0,0:0:0:0:
371,239,63533,1,0,0:0:0:0:
371,239,63612,2,0,B|363:284|363:284|386:322,1,90,2|8,0:0|1:0,0:0:0:0:
453,136,63928,2,0,L|447:57,1,45,2|0,0:0|0:0,0:0:0:0:
203,19,64085,6,0,L|195:120,1,90,2|0,1:2|0:0,0:0:0:0:
195,108,64322,1,0,0:0:0:0:
195,108,64401,1,8,1:0:0:0:
258,343,64559,2,0,P|308:356|360:349,1,90,2|0,0:0|1:0,0:0:0:0:
467,268,64796,1,0,0:0:0:0:
467,268,64875,2,0,P|417:255|365:262,1,90,2|8,0:0|1:0,0:0:0:0:
208,370,65191,2,0,L|276:373,1,45,2|0,0:0|0:0,0:0:0:0:
250,96,65349,6,0,B|226:134|226:134|235:186,1,90,2|0,1:2|0:0,0:0:0:0:
233,178,65585,1,0,0:0:0:0:
233,178,65664,1,8,1:0:0:0:
500,97,65822,2,0,L|495:-4,1,90,2|0,0:0|1:0,0:0:0:0:
378,39,66059,1,0,0:0:0:0:
378,39,66138,2,0,L|383:117,1,45,2|0,0:0|0:0,0:0:0:0:
429,301,66296,6,0,B|507:310|507:310|486:152,1,202.500007724762,8|0,1:0|0:0,0:0:0:0:
470,157,66612,6,0,L|393:150,1,45,4|0,0:0|0:0,0:0:0:0:
277,187,66770,2,0,L|354:194,1,45
483,143,66928,2,0,L|406:136,1,45
357,294,67085,6,0,L|280:301,1,45,4|0,0:0|0:0,0:0:0:0:
164,264,67243,2,0,L|241:257,1,45
370,308,67401,2,0,L|293:315,1,45
240,153,67559,6,0,L|163:146,1,45,4|0,0:0|0:0,0:0:0:0:
47,183,67717,2,0,L|124:190,1,45
228,71,67875,6,0,L|232:26,1,45,4|0,0:0|0:0,0:0:0:0:
277,245,68033,2,0,L|272:289,1,45
255,48,68191,2,0,L|259:3,1,45
175,203,68349,6,0,L|130:198,1,45,4|0,0:0|0:0,0:0:0:0:
349,154,68507,2,0,L|393:158,1,45
152,176,68665,2,0,L|107:171,1,45
370,27,68822,6,0,L|375:77,1,45,4|0,0:0|0:0,0:0:0:0:
284,279,68980,2,0,L|289:229,1,45
484,167,69138,5,4,0:0:0:0:
485,175,69296,1,0,0:0:0:0:
486,183,69454,1,0,0:0:0:0:
487,191,69612,1,0,0:0:0:0:
488,199,69770,1,0,0:0:0:0:
489,207,69928,1,0,0:0:0:0:
490,215,70085,1,0,0:0:0:0:
491,223,70243,1,0,0:0:0:0:
355,360,70401,6,0,B|299:358|299:358|275:349|275:349|219:347,1,135.000005149842,8|0,0:1|0:0,0:0:0:0:
0,306,70638,2,0,B|55:304|55:304|79:295|79:295|135:293,1,135.000005149842,8|0,0:1|0:0,0:0:0:0:
229,254,70875,2,0,P|244:219|238:166,1,67.5000025749208,8|0,0:1|0:0,0:0:0:0:
156,8,71033,5,8,0:1:0:0:
122,74,71112,1,8,0:1:0:0:
175,126,71191,1,0,1:0:0:0:
241,93,71270,1,0,1:0:0:0:
229,19,71349,2,0,B|152:44|152:44|288:56,1,202.500007724762,0|0,1:0|0:0,0:0:0:0:
448,7,71664,6,0,B|470:57|470:57|460:140,1,112.5,4|0,1:0|0:0,0:0:0:0:
451,193,71901,1,0,0:0:0:0:
451,193,71980,1,8,1:0:0:0:
116,135,72138,6,0,L|251:127,1,112.5,2|0,0:0|1:0,0:0:0:0:
244,134,72375,5,0,0:0:0:0:
88,226,72454,2,0,L|223:218,1,112.5,2|8,0:0|1:0,0:0:0:0:
216,225,72691,5,0,0:0:0:0:
60,317,72770,2,0,L|195:309,1,112.5,2|0,0:0|1:0,0:0:0:0:
217,306,73006,1,2,0:0:0:0:
173,295,73085,1,2,0:0:0:0:
143,260,73164,1,2,0:0:0:0:
136,215,73243,2,0,P|151:179|183:156,1,56.25,8|0,1:0|0:0,0:0:0:0:
448,298,73401,6,0,B|412:296|412:296|408:291|408:291|404:295|404:295|324:291,1,112.5,2|0,0:0|1:0,0:0:0:0:
270,251,73638,1,0,0:0:0:0:
270,251,73717,2,0,L|339:255,1,56.25,2|0,0:0|0:0,0:0:0:0:
145,383,73875,2,0,L|88:379,1,56.25,8|0,1:0|0:0,0:0:0:0:
204,122,74033,2,0,L|200:178,1,56.25,2|0,0:0|0:0,0:0:0:0:
15,332,74191,6,0,P|-3:286|15:199,1,112.5,0|0,1:0|0:0,0:0:0:0:
42,155,74428,1,0,0:0:0:0:
42,155,74506,1,8,1:0:0:0:
302,82,74664,6,0,L|304:217,1,112.5,2|0,0:0|1:0,0:0:0:0:
297,210,74901,5,0,0:0:0:0:
385,357,74980,2,0,L|387:222,1,112.5,2|8,0:0|1:0,0:0:0:0:
380,229,75217,5,0,0:0:0:0:
468,82,75296,2,0,L|470:217,1,112.5,2|0,0:0|1:0,0:0:0:0:
495,232,75533,1,2,0:0:0:0:
494,187,75612,1,2,0:0:0:0:
494,142,75690,1,2,0:0:0:0:
493,97,75770,2,0,L|492:40,1,56.25,8|0,1:0|0:0,0:0:0:0:
216,136,75928,6,0,B|252:164|252:164|341:156,1,112.5,2|0,0:0|1:0,0:0:0:0:
380,108,76164,1,0,0:0:0:0:
380,108,76243,2,0,L|301:115,1,56.25,2|0,0:0|0:0,0:0:0:0:
215,240,76401,2,0,L|294:247,1,56.25,2|0,0:0|0:0,0:0:0:0:
380,372,76559,2,0,L|301:379,1,56.25,2|0,0:0|0:0,0:0:0:0:
29,334,76717,6,0,B|68:332|68:332|96:323|96:323|148:321,1,112.5,0|0,1:0|0:0,0:0:0:0:
219,325,76954,1,0,0:0:0:0:
219,325,77033,1,8,1:0:0:0:
41,162,77191,6,0,L|33:48,1,112.5,2|0,0:0|1:0,0:0:0:0:
39,33,77428,5,0,0:0:0:0:
133,169,77506,2,0,L|125:55,1,112.5,2|8,0:0|1:0,0:0:0:0:
131,40,77743,5,0,0:0:0:0:
225,176,77822,2,0,L|217:62,1,112.5,2|0,0:0|1:0,0:0:0:0:
223,18,78059,1,2,0:0:0:0:
239,59,78138,1,2,0:0:0:0:
273,87,78217,1,2,0:0:0:0:
317,95,78296,2,0,P|349:90|387:70,1,56.25,8|0,0:1|0:0,0:0:0:0:
184,241,78454,6,0,B|148:239|148:239|128:231|128:231|72:229,1,112.5,2|0,0:0|1:0,0:0:0:0:
0,260,78691,1,0,0:0:0:0:
0,260,78770,2,0,L|64:263,1,56.25,2|0,0:0|0:0,0:0:0:0:
176,144,78928,2,0,L|179:80,1,56.25,8|0,1:0|0:0,0:0:0:0:
76,351,79085,2,0,L|140:354,1,56.25,2|0,0:0|0:0,0:0:0:0:
387,267,79243,6,0,P|354:233|259:233,1,112.5,0|0,1:2|0:0,0:0:0:0:
219,255,79480,1,0,0:0:0:0:
219,255,79559,1,8,1:0:0:0:
475,358,79717,6,0,L|481:228,1,112.5,2|0,0:0|1:0,0:0:0:0:
481,228,79954,5,0,0:0:0:0:
381,137,80033,2,0,L|387:267,1,112.5,2|8,0:0|1:0,0:0:0:0:
387,267,80270,5,0,0:0:0:0:
287,358,80349,2,0,L|293:228,1,112.5,2|0,0:0|1:0,0:0:0:0:
104,33,80664,5,0,1:0:0:0:
107,89,80743,1,0,1:0:0:0:
110,145,80822,5,0,1:0:0:0:
132,149,80901,1,0,0:1:0:0:
205,120,80980,5,0,1:0:0:0:
227,124,81059,1,0,0:1:0:0:
296,162,81138,5,0,1:0:0:0:
337,144,81217,1,0,0:0:0:0:
379,158,81296,1,8,0:1:0:0:
420,141,81375,1,0,0:0:0:0:
461,158,81454,6,0,P|468:132|463:92,1,56.25,8|0,1:0|0:0,0:0:0:0:
317,329,81612,2,0,P|310:355|315:395,1,56.25,8|0,1:0|0:0,0:0:0:0:
504,238,81770,6,0,B|448:236|448:236|424:227|424:227|344:224,1,135.000005149842,4|0,1:0|0:0,0:0:0:0:
279,248,82006,1,0,0:0:0:0:
279,248,82085,2,0,L|211:244,1,67.5000025749208,8|0,1:0|0:0,0:0:0:0:
0,103,82243,6,0,L|150:95,1,135.000005149842,2|0,0:0|1:0,0:0:0:0:
204,68,82480,5,0,0:0:0:0:
49,177,82559,2,0,L|199:169,1,135.000005149842,2|8,0:0|1:0,0:0:0:0:
253,142,82796,5,0,0:0:0:0:
98,251,82875,2,0,L|248:243,1,135.000005149842,2|0,0:0|1:0,0:0:0:0:
283,264,83112,1,2,0:0:0:0:
298,315,83191,1,2,0:0:0:0:
277,364,83270,1,2,0:0:0:0:
223,373,83349,2,0,L|219:295,1,67.5000025749208,8|0,1:0|0:0,0:0:0:0:
412,52,83506,6,0,B|410:87|410:87|421:116|421:116|418:196,1,135.000005149842,2|0,0:0|1:0,0:0:0:0:
393,276,83743,1,0,0:0:0:0:
393,276,83822,2,0,P|359:287|313:279,1,67.5000025749208,2|0,0:0|0:0,0:0:0:0:
250,58,83980,2,0,P|283:55|315:66,1,67.5000025749208,8|0,1:0|0:0,0:0:0:0:
205,322,84138,2,0,L|201:242,1,67.5000025749208,2|0,0:0|0:0,0:0:0:0:
120,0,84296,6,0,B|78:50|78:50|98:145,1,135.000005149842,0|0,1:0|0:0,0:0:0:0:
166,178,84533,1,0,0:0:0:0:
166,178,84612,2,0,P|201:183|255:168,1,67.5000025749208,8|0,1:0|0:0,0:0:0:0:
452,32,84770,6,0,B|412:29|412:29|404:25|404:25|396:29|396:29|300:24,1,135.000005149842,2|0,0:0|1:0,0:0:0:0:
246,7,85006,5,0,0:0:0:0:
403,107,85085,2,0,B|363:104|363:104|355:100|355:100|347:104|347:104|251:99,1,135.000005149842,2|8,0:0|1:0,0:0:0:0:
197,82,85321,5,0,0:0:0:0:
354,182,85401,2,0,B|314:179|314:179|306:175|306:175|298:179|298:179|202:174,1,135.000005149842,2|0,0:0|1:0,0:0:0:0:
1,338,85717,5,0,1:0:0:0:
53,380,85796,1,0,1:0:0:0:
120,375,85875,1,8,1:0:0:0:
221,175,86033,2,0,L|216:95,1,67.5000025749208,0|0,1:0|0:0,0:0:0:0:
84,259,86191,6,0,P|118:272|164:265,1,67.5000025749208,0|0,1:0|0:0,0:0:0:0:
365,242,86349,2,0,P|331:258|285:257,1,67.5000025749208,0|0,1:0|0:0,0:0:0:0:
234,377,86506,6,0,L|220:174,1,202.500007724762,8|0,1:0|0:0,0:0:0:0:
136,53,86822,6,0,L|65:51,1,56.25,8|0,1:0|0:0,0:0:0:0:
152,133,86980,2,0,L|95:131,1,56.25,0|0,1:0|0:0,0:0:0:0:
360,133,87138,6,0,L|416:131,1,56.25,8|0,1:0|0:0,0:0:0:0:
376,53,87296,2,0,L|432:51,1,56.25,0|0,1:0|0:0,0:0:0:0:
104,211,87454,6,0,L|33:209,1,56.25,8|0,1:0|0:0,0:0:0:0:
120,291,87612,2,0,L|63:289,1,56.25,0|0,1:0|0:0,0:0:0:0:
392,291,87770,6,0,L|448:289,1,56.25,8|0,1:0|0:0,0:0:0:0:
408,211,87928,2,0,L|464:209,1,56.25,0|0,1:0|0:0,0:0:0:0:
189,328,88085,6,0,L|184:390,1,56.25,8|0,1:0|0:0,0:0:0:0:
327,384,88243,2,0,L|323:328,1,56.25,0|0,1:0|0:0,0:0:0:0:
153,242,88401,6,0,L|148:304,1,56.25,8|0,1:0|0:0,0:0:0:0:
363,298,88559,2,0,L|359:242,1,56.25,0|0,1:0|0:0,0:0:0:0:
122,152,88717,6,0,L|117:214,1,56.25,8|0,1:0|0:0,0:0:0:0:
394,208,88875,2,0,L|390:152,1,56.25,0|0,1:0|0:0,0:0:0:0:
89,67,89033,6,0,L|84:129,1,56.25,8|0,1:0|0:0,0:0:0:0:
427,123,89191,2,0,L|423:67,1,56.25,0|0,1:0|0:0,0:0:0:0:
256,0,89349,5,8,1:0:0:0:
251,56,89428,1,8,1:0:0:0:
247,111,89506,1,8,1:0:0:0:
243,167,89585,1,8,1:0:0:0:
275,212,89664,1,8,1:0:0:0:
270,268,89743,1,8,1:0:0:0:
266,323,89821,1,8,1:0:0:0:
262,379,89900,1,8,1:0:0:0:
187,350,89980,5,8,1:0:0:0:
163,299,90059,1,8,1:0:0:0:
171,243,90138,1,8,1:0:0:0:
211,204,90217,1,8,1:0:0:0:
267,199,90296,1,8,1:0:0:0:
318,176,90375,1,8,1:0:0:0:
344,126,90454,1,8,1:0:0:0:
340,69,90533,1,8,1:0:0:0:
302,27,90612,5,4,1:0:0:0:
118,87,90770,5,0,0:0:0:0:
115,120,90849,1,0,0:0:0:0:
136,159,90928,5,0,0:0:0:0:
133,192,91007,1,0,0:0:0:0:
154,231,91085,5,0,0:0:0:0:
151,264,91164,1,0,0:0:0:0:
172,303,91243,6,0,L|119:308,1,45
316,237,91401,2,0,L|369:242,1,45
220,106,91559,6,0,L|217:216,1,101.250003862381,8|0,1:0|0:0,0:0:0:0:
237,231,91875,6,0,L|236:145,1,67.5,0|0,1:0|0:0,0:0:0:0:
87,261,92191,6,0,P|144:301|206:284,1,112.5,4|0,1:0|0:0,0:0:0:0:
344,99,92506,1,0,1:0:0:0:
196,70,92664,1,0,0:0:0:0:
331,332,92822,2,0,L|337:261,1,56.25,0|0,1:0|0:0,0:0:0:0:
301,190,92980,6,0,L|306:327,1,112.5,0|0,0:0|1:0,0:0:0:0:
340,110,93296,2,0,L|435:50,1,112.5,0|0,0:0|1:0,0:0:0:0:
252,115,93612,2,0,L|152:62,1,112.5,0|0,0:0|1:0,0:0:0:0:
188,337,93928,5,0,0:0:0:0:
401,251,94085,1,0,1:0:0:0:
120,211,94243,1,0,0:0:0:0:
120,211,94322,1,0,0:0:0:0:
120,211,94401,2,0,B|94:259|94:259|107:338,1,112.5,0|0,1:0|0:0,0:0:0:0:
460,146,94717,6,0,P|414:113|350:117,1,112.5,0|0,1:0|0:0,0:0:0:0:
256,331,95033,1,0,1:0:0:0:
386,305,95191,1,0,0:0:0:0:
254,68,95349,2,0,L|245:151,1,56.25,0|0,1:0|0:0,0:0:0:0:
282,216,95506,2,0,L|272:90,1,112.5,0|0,0:0|1:0,0:0:0:0:
5,313,95822,6,0,B|45:335|45:335|123:327,1,112.5,0|0,0:0|1:0,0:0:0:0:
91,111,96138,2,0,P|78:140|84:190,1,56.25
205,288,96296,1,0,1:0:0:0:
260,281,96375,1,0,0:0:0:0:
315,274,96454,1,0,0:0:0:0:
202,151,96612,6,0,L|143:158,1,33.7500012874604
228,157,96770,2,0,L|283:150,1,33.7500012874604
390,0,96928,2,0,B|364:35|364:35|374:139,1,112.5,0|0,1:0|0:0,0:0:0:0:
468,320,97243,6,0,L|478:179,1,112.5,0|0,1:0|0:0,0:0:0:0:
261,153,97559,1,0,1:0:0:0:
311,297,97717,1,0,0:0:0:0:
437,49,97875,2,0,L|365:42,1,56.25,0|0,1:0|0:0,0:0:0:0:
293,73,98033,2,0,L|426:70,1,112.5,0|0,0:0|1:0,0:0:0:0:
144,0,98349,6,0,P|118:49|129:117,1,112.5,0|0,0:0|1:0,0:0:0:0:
321,248,98664,2,0,P|347:199|336:131,1,112.5,0|0,0:0|1:0,0:0:0:0:
34,182,98980,5,0,0:0:0:0:
176,348,99138,1,0,1:0:0:0:
208,75,99296,1,0,0:0:0:0:
208,75,99375,1,0,0:0:0:0:
208,75,99454,2,0,B|164:73|164:73|140:64|140:64|96:63,1,112.5,0|0,1:0|0:0,0:0:0:0:
270,318,99770,6,0,B|292:280|292:280|285:202,1,112.5,0|0,1:0|0:0,0:0:0:0:
47,143,100085,1,0,1:0:0:0:
96,280,100243,1,0,0:0:0:0:
345,145,100401,2,0,L|350:80,1,56.25,0|0,1:0|0:0,0:0:0:0:
313,4,100559,2,0,L|316:124,1,112.5,0|4,0:0|1:0,0:0:0:0:
471,378,100875,5,0,1:0:0:0:
503,332,100954,1,0,1:0:0:0:
498,275,101033,1,0,1:0:0:0:
244,162,101191,1,0,1:0:0:0:
314,317,101349,5,0,1:0:0:0:
358,311,101428,1,0,0:0:0:0:
402,305,101506,1,0,0:0:0:0:
362,284,101585,1,0,0:0:0:0:
321,264,101664,1,8,1:0:0:0:
78,336,101822,1,8,1:0:0:0:
161,87,101980,6,0,B|147:38|147:38|96:75,1,101.250003862381,0|0,1:0|0:0,0:0:0:0:
144,167,102296,6,0,B|187:165|187:165|212:172|212:172|272:170,1,112.5,8|0,1:0|0:0,0:0:0:0:
328,138,102533,1,0,0:0:0:0:
328,138,102612,2,0,L|233:143,1,56.25,0|0,1:0|0:0,0:0:0:0:
390,384,102770,6,0,B|417:348|417:348|406:259,1,112.5,0|8,0:0|1:0,0:0:0:0:
359,219,103006,1,0,0:0:0:0:
359,219,103085,2,0,L|350:305,1,56.25
512,62,103243,6,0,P|460:23|406:26,1,112.5,0|0,1:0|0:0,0:0:0:0:
345,62,103480,1,0,0:0:0:0:
345,62,103559,2,0,P|304:75|267:67,1,56.25,8|0,1:0|0:0,0:0:0:0:
85,1,103717,6,0,B|114:38|114:38|105:116,1,112.5,0|0,0:0|1:0,0:0:0:0:
92,181,103954,1,0,0:0:0:0:
92,181,104033,2,0,P|58:169|32:133,1,56.25
247,3,104191,6,0,L|318:0,3,56.25,8|0|0|0,1:0|0:0|0:0|0:0,0:0:0:0:
335,74,104506,2,0,B|295:76|295:76|279:80|279:80|263:77|263:77|223:79,1,112.5,0|0,1:0|0:0,0:0:0:0:
0,280,104822,6,0,L|134:288,1,112.5,8|0,1:0|0:0,0:0:0:0:
191,281,105059,1,0,0:0:0:0:
191,281,105138,2,0,P|211:238|209:196,1,56.25,0|0,1:0|0:0,0:0:0:0:
81,5,105296,6,0,B|56:43|56:43|62:132,1,112.5,0|8,0:0|1:0,0:0:0:0:
91,183,105533,1,0,0:0:0:0:
91,183,105612,2,0,L|162:179,1,56.25
291,63,105770,6,0,L|420:73,1,112.5,0|0,1:0|1:0,0:0:0:0:
475,103,106006,1,0,1:0:0:0:
485,181,106085,1,8,1:0:0:0:
282,323,106243,1,0,1:0:0:0:
349,146,106401,2,0,L|426:152,1,56.25,0|0,1:0|0:0,0:0:0:0:
194,214,106559,2,0,L|137:209,1,56.25,0|0,1:0|0:0,0:0:0:0:
388,264,106717,2,0,L|453:259,3,56.25,8|0|0|0,1:0|0:0|0:0|0:0,0:0:0:0:
496,199,107033,5,4,1:0:0:0:
509,144,107112,1,0,0:0:0:0:
494,89,107191,1,0,1:0:0:0:
451,51,107270,1,0,0:0:0:0:
395,44,107349,1,8,1:0:0:0:
344,68,107428,1,0,0:0:0:0:
315,115,107506,1,0,1:0:0:0:
315,171,107585,1,0,0:0:0:0:
295,223,107664,5,8,1:0:0:0:
245,250,107743,1,0,0:0:0:0:
188,250,107822,1,0,1:0:0:0:
137,225,107901,1,0,0:0:0:0:
117,172,107980,2,0,L|191:169,1,56.25,8|0,1:0|1:0,0:0:0:0:
344,68,108138,2,0,L|287:65,1,56.25,0|0,1:0|1:0,0:0:0:0:
67,86,108296,5,4,1:0:0:0:
28,125,108374,1,0,0:0:0:0:
18,180,108453,1,0,1:0:0:0:
41,230,108532,1,0,0:0:0:0:
88,258,108611,1,8,1:0:0:0:
144,256,108691,1,0,0:0:0:0:
190,224,108770,1,0,1:0:0:0:
206,170,108849,1,0,0:0:0:0:
192,115,108928,5,8,1:0:0:0:
242,138,109006,1,0,1:0:0:0:
298,136,109085,1,0,1:0:0:0:
502,20,109243,1,8,0:0:0:0:
351,204,109401,1,0,1:0:0:0:
328,254,109479,1,0,1:0:0:0:
330,310,109559,6,0,L|412:313,1,56.25,8|0,1:0|0:0,0:0:0:0:
172,235,109717,2,0,L|90:232,1,56.25,8|0,1:0|0:0,0:0:0:0:
326,323,109875,2,0,L|408:326,1,56.25,8|0,1:0|0:0,0:0:0:0:
168,248,110033,2,0,L|86:245,1,56.25,8|0,1:0|0:0,0:0:0:0:
433,250,110191,5,8,1:0:0:0:
474,183,110270,1,8,1:0:0:0:
461,105,110349,1,8,1:0:0:0:
397,58,110428,1,8,1:0:0:0:
319,63,110506,1,8,1:0:0:0:
267,122,110585,1,8,1:0:0:0:
268,200,110664,1,8,1:0:0:0:
225,266,110743,1,8,1:0:0:0:
149,288,110822,6,0,L|81:280,1,45
56,93,110980,2,0,L|100:87,1,45
268,200,111138,1,0,0:0:0:0:
232,202,111217,1,0,0:0:0:0:
196,204,111296,1,0,0:0:0:0:
160,206,111375,1,0,0:0:0:0:
124,208,111454,6,0,P|121:181|125:155,1,45
248,320,111612,2,0,P|251:347|247:373,1,45
30,308,111770,2,0,P|47:260|72:303,2,112.5
