osu file format v14

[General]
AudioFilename: audio.mp3
AudioLeadIn: 0
PreviewTime: 18962
Countdown: 0
SampleSet: None
StackLeniency: 0.6
Mode: 0
LetterboxInBreaks: 0
WidescreenStoryboard: 1

[Editor]
Bookmarks: 812,3212,5012,5612,8012,9812,10412,11612,15212,18812,20012,24812,29612,34412,39212,41612,44012,46412,48812,51212,53612,58412,68012,77612,87212,92012,96812,106412,116012
DistanceSpacing: 1
BeatDivisor: 4
GridSize: 16
TimelineZoom: 2.060001

[Metadata]
Title:Fox4-Raize-
TitleUnicode:Fox4-Raize-
Artist:Getty vs. DJ DiA
ArtistUnicode:Getty vs. DJ DiA
Creator:dahammer88
Version:Pump It
Source:SOUND VOLTEX III GRAVITY WARS
Tags:
BeatmapID:1750515
BeatmapSetID:835851

[Difficulty]
HPDrainRate:4.8
CircleSize:4.2
OverallDifficulty:8
ApproachRate:9.6
SliderMultiplier:1.5
SliderTickRate:1

[Events]
//Background and Video events
0,0,"anime-girl-shooting-gun-at-point-ku-1920x1080.jpg",0,0
//Break Periods
2,58611,67503
//Storyboard Layer 0 (Background)
//Storyboard Layer 1 (Fail)
//Storyboard Layer 2 (Pass)
//Storyboard Layer 3 (Foreground)
//Storyboard Sound Samples

[TimingPoints]
812,300,4,2,2,70,1,0
812,-111.111111111111,4,2,2,70,0,0
962,-111.111111111111,4,2,2,5,0,0
1037,-111.111111111111,4,2,2,70,0,0
1187,-111.111111111111,4,2,2,5,0,0
1262,-111.111111111111,4,2,2,70,0,0
3362,-111.111111111111,4,2,2,5,0,0
3437,-111.111111111111,4,2,2,70,0,0
3587,-111.111111111111,4,2,2,5,0,0
3662,-111.111111111111,4,2,2,70,0,0
5012,-166.666666666667,4,2,2,70,0,0
5612,-111.111111111111,4,2,2,70,0,0
5762,-111.111111111111,4,2,2,5,0,0
5837,-111.111111111111,4,2,2,70,0,0
5987,-111.111111111111,4,2,2,70,0,0
9812,-166.666666666667,4,2,2,70,0,0
10412,-66.6666666666667,4,2,2,70,0,0
10712,-80,4,2,2,70,0,0
11012,-66.6666666666667,4,2,2,70,0,0
11312,-80,4,2,2,70,0,0
11612,-66.6666666666667,4,2,2,70,0,0
11912,-90.9090909090909,4,2,2,70,0,0
12812,-80,4,2,2,70,0,0
14312,-100,4,2,2,70,0,0
14912,-43.4782608695652,4,2,2,70,0,0
15212,-100,4,2,2,70,0,0
18212,-76.9230769230769,4,2,2,70,0,0
20012,-55.5555555555556,4,2,2,70,0,0
20312,-66.6666666666667,4,2,2,70,0,0
21812,-100,4,2,2,70,0,0
22412,-55.5555555555556,4,2,2,70,0,0
22712,-66.6666666666667,4,2,2,70,0,0
24212,-55.5555555555556,4,2,2,70,0,0
24512,-43.4782608695652,4,2,2,70,0,0
24812,-55.5555555555556,4,2,2,70,0,0
25112,-66.6666666666667,4,2,2,70,0,0
26612,-100,4,2,2,70,0,0
27212,-55.5555555555556,4,2,2,70,0,0
27512,-100,4,2,2,70,0,0
28412,-66.6666666666667,4,2,2,70,0,0
29312,-43.4782608695652,4,2,2,70,0,0
29612,-66.6666666666667,4,2,2,70,0,0
32012,-80,4,2,2,70,0,0
33212,-55.5555555555556,4,2,2,70,0,0
34412,-50,4,2,2,70,0,0
34712,-66.6666666666667,4,2,2,70,0,0
35162,-55.5555555555556,4,2,2,70,0,0
35612,-66.6666666666667,4,2,2,70,0,0
36212,-43.4782608695652,4,2,2,70,0,0
36812,-66.6666666666667,4,2,2,70,0,0
37412,-76.9230769230769,4,2,2,70,0,0
39212,-200,4,2,2,70,0,1
39812,-50,4,2,2,70,0,1
41312,-66.6666666666667,4,2,2,70,0,1
41612,-200,4,2,2,70,0,1
42212,-50,4,2,2,70,0,1
43712,-100,4,2,2,70,0,1
44012,-133.333333333333,4,2,2,70,0,1
44612,-55.5555555555556,4,2,2,70,0,1
45812,-66.6666666666667,4,2,2,70,0,1
46112,-100,4,2,2,70,0,1
48812,-133.333333333333,4,2,2,70,0,1
49262,-66.6666666666667,4,2,2,70,0,1
51212,-90.9090909090909,4,2,2,70,0,1
51812,-50,4,2,2,70,0,1
52862,-66.6666666666667,4,2,2,70,0,1
53612,-66.6666666666667,4,2,2,70,0,1
55712,-166.666666666667,4,2,2,70,0,1
56012,-90.9090909090909,4,2,2,70,0,1
56312,-71.4285714285714,4,2,2,70,0,1
56612,-58.8235294117647,4,2,2,70,0,1
56912,-50,4,2,2,70,0,1
57212,-133.333333333333,4,2,2,70,0,1
58412,-133.333333333333,4,2,2,70,0,0
68012,-66.6666666666667,4,2,2,70,0,0
68312,-80,4,2,2,70,0,0
68612,-66.6666666666667,4,2,2,70,0,0
68912,-80,4,2,2,70,0,0
69212,-66.6666666666667,4,2,2,70,0,0
69512,-90.9090909090909,4,2,2,70,0,0
70412,-80,4,2,2,70,0,0
71912,-100,4,2,2,70,0,0
72512,-43.4782608695652,4,2,2,70,0,0
72812,-100,4,2,2,70,0,0
74912,-66.6666666666667,4,2,2,70,0,0
75812,-76.9230769230769,4,2,2,70,0,0
76412,-200,4,2,2,70,0,0
76712,-43.4782608695652,4,2,2,70,0,0
77012,-76.9230769230769,4,2,2,70,0,0
77612,-66.6666666666667,4,2,2,70,0,0
79112,-100,4,2,2,70,0,0
79412,-66.6666666666667,4,2,2,70,0,0
81812,-76.9230769230769,4,2,2,70,0,0
82412,-66.6666666666667,4,2,2,70,0,0
87212,-66.6666666666667,4,2,2,70,0,1
88712,-100,4,2,2,70,0,1
89012,-66.6666666666667,4,2,2,70,0,1
90812,-100,4,2,2,70,0,1
91412,-66.6666666666667,4,2,2,70,0,1
94412,-80,4,2,2,70,0,1
95612,-66.6666666666667,4,2,2,70,0,1
96812,-66.6666666666667,4,2,2,70,0,0
101612,-83.3333333333333,4,2,2,70,0,0
105212,-55.5555555555556,4,2,2,70,0,0
105362,-100,4,2,2,70,0,0
106412,-55.5555555555556,4,2,2,70,0,0
106712,-66.6666666666667,4,2,2,70,0,0
111212,-66.6666666666667,4,2,2,70,0,0
114212,-76.9230769230769,4,2,2,70,0,0

[Colours]
Combo1 : 175,116,175
Combo2 : 38,147,143
Combo3 : 30,185,26
Combo4 : 255,26,31

[HitObjects]
102,306,812,6,0,L|164:264,1,67.4999979400635
95,220,1037,2,0,L|127:152,1,67.4999979400635
45,149,1262,1,0,0:0:0:0:
102,306,3212,6,0,L|164:264,1,67.4999979400635
95,220,3437,2,0,L|127:152,1,67.4999979400635
45,149,3662,1,0,0:0:0:0:
244,111,5012,6,0,B|314:157|208:184|268:237,1,134.999995880127
410,306,5612,6,0,L|348:264,1,67.4999979400635
417,220,5837,2,0,L|384:152,1,67.4999979400635
467,149,6062,1,0,0:0:0:0:
410,306,8012,6,0,L|348:264,1,67.4999979400635
417,220,8237,2,0,L|384:152,1,67.4999979400635
467,149,8462,1,0,0:0:0:0:
268,111,9812,6,0,B|198:157|304:184|244:237,1,134.999995880127
74,322,10412,6,0,L|119:288,1,56.2500021457673
81,273,10562,2,0,L|125:238,1,56.2500021457673
166,115,10712,2,0,P|126:161|74:167,1,93.75
0,31,11012,6,0,L|34:75,1,56.2500021457673
50,36,11162,2,0,L|108:105,1,56.2500021457673
166,115,11312,2,0,B|192:127|192:127|230:117|230:117|286:133,1,93.75
429,49,11612,6,0,L|394:93,1,56.2500021457673
379,54,11762,2,0,L|326:118,1,56.2500021457673
254,124,11912,1,0,0:0:0:0:
364,197,12062,1,0,0:0:0:0:
380,229,12137,1,0,0:0:0:0:
343,227,12212,1,0,0:0:0:0:
254,124,12362,1,0,0:0:0:0:
229,248,12512,2,0,L|222:275,4,20.6250006294251
112,300,12812,6,0,P|82:345|37:363,1,93.75
27,268,13112,2,0,P|3:219|9:171,1,93.75
183,165,13412,2,0,L|189:141,4,23.4375
76,24,13712,1,0,0:0:0:0:
5,181,13862,1,0,0:0:0:0:
183,165,14012,6,0,P|227:192|251:241,1,93.75
168,246,14312,2,0,L|139:279,1,37.5
310,171,14462,2,0,L|334:142,1,37.5
244,306,14612,1,0,0:0:0:0:
230,323,14687,1,0,0:0:0:0:
216,341,14762,2,0,L|189:379,1,37.5
406,316,14912,2,0,B|474:260|432:189|352:211|359:263|374:252,1,172.500003290176
310,171,15212,6,0,P|351:134|396:128,1,75
349,50,15512,2,0,P|404:52|440:80,1,75
238,83,15812,2,0,P|182:80|146:52,1,75
87,71,16112,1,0,0:0:0:0:
88,245,16262,5,0,0:0:0:0:
88,245,16337,1,0,0:0:0:0:
88,245,16412,2,0,L|132:318,1,75
125,135,16712,2,0,L|86:70,1,75
196,250,17012,1,0,0:0:0:0:
259,130,17162,1,0,0:0:0:0:
269,110,17237,1,0,0:0:0:0:
289,100,17312,2,0,P|313:104|331:122,1,37.5
396,51,17462,1,0,0:0:0:0:
418,49,17537,1,0,0:0:0:0:
436,61,17612,6,0,L|490:37,1,37.5
468,202,17762,2,0,L|521:229,1,37.5
296,223,17912,2,0,L|262:205,1,37.5
392,356,18062,2,0,L|432:383,1,37.5
223,355,18212,5,0,0:0:0:0:
177,342,18287,1,0,0:0:0:0:
150,302,18362,1,0,0:0:0:0:
148,253,18437,1,0,0:0:0:0:
144,204,18512,1,0,0:0:0:0:
100,184,18587,1,0,0:0:0:0:
60,211,18662,1,0,0:0:0:0:
64,261,18737,1,0,0:0:0:0:
109,282,18812,1,0,0:0:0:0:
277,111,19712,6,0,L|241:49,1,48.7499977684022
364,55,19862,2,0,L|328:-7,1,48.7499977684022
456,99,20012,6,0,P|509:152|439:206,1,134.999995880127
288,295,20312,2,0,B|248:307|248:307|227:343|227:343|181:361,1,112.500004291535
277,110,20612,1,0,0:0:0:0:
402,193,20762,1,0,0:0:0:0:
261,269,20912,2,0,B|221:281|221:281|200:317|200:317|154:335,1,112.500004291535
178,98,21212,6,0,P|238:83|283:120,1,112.500004291535
234,243,21512,2,0,B|194:255|194:255|173:291|173:291|127:309,1,112.500004291535
159,128,21812,1,0,0:0:0:0:
178,98,21887,1,0,0:0:0:0:
195,131,21962,1,0,0:0:0:0:
234,244,22112,2,0,L|253:288,1,37.5
335,329,22262,2,0,L|354:373,1,37.5
462,275,22412,6,0,P|515:222|445:168,1,134.999995880127
399,91,22712,2,0,B|359:79|359:79|338:43|338:43|292:25,1,112.500004291535
234,244,23012,1,0,0:0:0:0:
415,289,23162,1,0,0:0:0:0:
372,117,23312,2,0,B|332:105|332:105|311:69|311:69|265:51,1,112.500004291535
217,211,23612,5,0,0:0:0:0:
198,241,23687,1,0,0:0:0:0:
234,244,23762,1,0,0:0:0:0:
345,143,23912,2,0,B|305:131|305:131|284:95|284:95|238:77,1,112.500004291535
122,101,24212,2,0,L|76:88,1,33.7499989700318
106,141,24287,2,0,L|60:128,1,33.7499989700318
91,181,24362,2,0,L|45:168,1,33.7499989700318
75,221,24437,2,0,L|29:208,1,33.7499989700318
60,263,24512,6,0,P|49:292|63:282,1,86.2500016450882
238,345,24662,2,0,P|249:316|235:326,1,86.2500016450882
167,201,24812,6,0,P|111:156|132:89,1,134.999995880127
307,53,25112,2,0,B|344:100|344:100|284:142,1,112.500004291535
167,201,25412,1,0,0:0:0:0:
178,28,25562,1,0,0:0:0:0:
345,62,25712,2,0,B|382:109|382:109|322:151,1,112.500004291535
167,201,26012,6,0,P|182:147|226:114,1,112.500004291535
383,71,26312,2,0,B|420:118|420:118|360:160,1,112.500004291535
277,286,26612,5,0,0:0:0:0:
287,319,26687,1,0,0:0:0:0:
313,294,26762,1,0,0:0:0:0:
413,172,26912,2,0,L|469:132,1,37.5
383,71,27062,2,0,L|411:8,1,37.5
276,56,27212,6,0,P|231:112|164:91,1,134.999995880127
72,54,27512,2,0,L|40:107,1,37.5
113,201,27662,2,0,L|93:233,1,37.5
226,114,27812,1,0,0:0:0:0:
82,87,27962,5,0,0:0:0:0:
82,87,28037,1,0,0:0:0:0:
82,87,28112,2,0,L|50:140,1,37.5
123,234,28262,2,0,L|103:266,1,37.5
270,328,28412,6,0,P|297:360|332:367,1,56.2500021457673
376,339,28562,2,0,P|349:307|314:300,1,56.2500021457673
238,220,28712,2,0,P|214:204|200:180,1,56.2500021457673
226,114,28862,2,0,P|249:129|263:153,1,56.2500021457673
372,223,29012,2,0,P|411:237|445:225,1,56.2500021457673
456,164,29162,2,0,P|493:146|509:114,1,56.2500021457673
425,67,29312,2,0,B|435:117|489:81|460:19|415:12|340:91,1,172.500003290176
226,114,29612,6,0,L|177:57,1,56.2500021457673
182,118,29762,2,0,L|133:61,1,56.2500021457673
105,175,29912,2,0,B|118:214|135:222|173:205|184:210|190:230,1,112.500004291535
127,313,30212,6,0,L|78:370,1,56.2500021457673
83,309,30362,2,0,L|34:366,1,56.2500021457673
11,222,30512,2,0,P|61:178|107:175,1,112.500004291535
226,114,30812,6,0,L|275:57,1,56.2500021457673
270,118,30962,2,0,L|319:61,1,56.2500021457673
384,182,31112,1,0,0:0:0:0:
477,71,31262,1,0,0:0:0:0:
484,37,31337,1,0,0:0:0:0:
449,46,31412,1,0,0:0:0:0:
384,182,31562,1,0,0:0:0:0:
478,300,31712,2,0,L|501:323,4,28.1250010728836
384,182,32012,6,0,P|356:137|293:109,1,93.75
221,124,32312,2,0,P|249:169|312:197,1,93.75
440,299,32612,2,0,L|467:328,4,23.4375
384,182,32912,1,0,0:0:0:0:
316,384,33062,1,0,0:0:0:0:
228,191,33212,6,0,L|220:123,1,67.4999979400635
122,88,33362,1,0,0:0:0:0:
122,88,33437,1,0,0:0:0:0:
122,88,33512,2,0,P|115:50|88:26,1,67.4999979400635
42,121,33662,1,0,0:0:0:0:
42,121,33737,1,0,0:0:0:0:
42,121,33812,2,0,P|48:158|76:183,1,67.4999979400635
184,313,33962,1,0,0:0:0:0:
184,313,34037,1,0,0:0:0:0:
184,313,34112,2,0,P|177:350|150:375,1,67.4999979400635
99,286,34262,2,0,P|105:248|133:224,1,67.4999979400635
219,148,34412,6,0,P|188:81|108:103,1,150
68,178,34712,2,0,P|87:240|103:299,1,112.500004291535
219,148,35012,1,0,0:0:0:0:
284,285,35162,2,0,B|295:321|295:321|270:363,1,67.4999979400635
372,298,35312,2,0,B|383:334|383:334|358:376,1,67.4999979400635
460,311,35462,2,0,B|471:347|471:347|446:389,1,67.4999979400635
427,222,35612,6,0,P|391:179|413:119,1,112.500004291535
424,23,35912,2,0,L|297:44,1,112.500004291535
219,148,36212,2,0,P|248:196|215:152,1,172.500003290176
64,63,36512,2,0,P|23:24|61:67,1,172.500003290176
56,207,36812,2,0,L|23:232,4,28.1250010728836
59,304,37112,2,0,L|26:329,4,28.1250010728836
185,334,37412,5,0,0:0:0:0:
231,321,37487,1,0,0:0:0:0:
258,282,37562,1,0,0:0:0:0:
249,235,37637,1,0,0:0:0:0:
223,194,37712,1,0,0:0:0:0:
197,153,37787,1,0,0:0:0:0:
191,105,37862,1,0,0:0:0:0:
220,67,37937,1,0,0:0:0:0:
266,54,38012,2,0,P|311:59|342:107,1,97.4999955368044
416,348,38312,6,0,P|451:321|454:264,1,97.4999955368044
430,231,38537,1,0,0:0:0:0:
385,213,38612,1,0,0:0:0:0:
339,229,38687,1,0,0:0:0:0:
300,257,38762,1,0,0:0:0:0:
258,282,38837,1,0,0:0:0:0:
211,280,38912,2,0,P|166:263|148:219,1,97.4999955368044
160,43,39212,6,0,B|196:8|236:79|277:46,1,112.5
435,160,39812,2,0,L|462:244,1,75
344,342,39962,1,0,0:0:0:0:
344,342,40037,1,0,0:0:0:0:
344,342,40112,1,0,0:0:0:0:
232,207,40262,1,0,0:0:0:0:
408,178,40412,6,0,L|435:262,1,75
319,359,40562,1,0,0:0:0:0:
207,224,40712,1,0,0:0:0:0:
381,196,40862,2,0,L|408:280,1,75
292,377,41012,1,0,0:0:0:0:
180,242,41162,1,0,0:0:0:0:
349,213,41312,2,0,P|355:154|316:99,1,112.500004291535
198,48,41612,6,0,B|161:57|161:57|144:95|144:95|108:110,1,112.5
60,240,42212,2,0,L|86:324,1,75
238,336,42362,1,0,0:0:0:0:
238,336,42437,1,0,0:0:0:0:
238,336,42512,1,0,0:0:0:0:
253,162,42662,1,0,0:0:0:0:
92,239,42812,6,0,L|118:323,1,75
270,335,42962,1,0,0:0:0:0:
285,161,43112,1,0,0:0:0:0:
124,238,43262,6,0,L|150:322,1,75
302,334,43412,1,0,0:0:0:0:
317,160,43562,1,0,0:0:0:0:
188,263,43712,2,0,P|156:232|108:233,1,75
134,133,44012,6,0,L|76:61,1,84.3750032186509
103,39,44312,2,0,P|139:49|174:32,1,56.2500021457673
315,98,44612,2,0,L|404:118,1,67.4999979400635
480,145,44762,1,0,0:0:0:0:
510,164,44837,1,0,0:0:0:0:
477,181,44912,1,0,0:0:0:0:
337,225,45062,1,0,0:0:0:0:
203,258,45212,6,0,L|137:272,1,67.4999979400635
30,304,45362,1,0,0:0:0:0:
0,323,45437,1,0,0:0:0:0:
33,340,45512,1,0,0:0:0:0:
154,382,45662,1,0,0:0:0:0:
203,258,45812,6,0,P|217:218|201:196,1,56.2500021457673
292,126,45962,2,0,P|273:87|246:83,1,56.2500021457673
131,118,46112,2,0,L|79:105,1,37.5
104,136,46262,2,0,L|52:123,1,37.5
203,258,46412,5,0,0:0:0:0:
321,274,46562,1,0,0:0:0:0:
276,163,46712,1,0,0:0:0:0:
180,232,46862,5,0,0:0:0:0:
309,306,47012,1,0,0:0:0:0:
309,156,47162,1,0,0:0:0:0:
166,192,47312,5,0,0:0:0:0:
281,338,47462,1,0,0:0:0:0:
351,164,47612,1,0,0:0:0:0:
169,138,47762,5,0,0:0:0:0:
234,362,47912,1,0,0:0:0:0:
396,193,48062,1,0,0:0:0:0:
269,230,48212,1,0,0:0:0:0:
303,83,48362,6,0,L|326:34,1,37.5
388,83,48512,2,0,L|411:34,1,37.5
473,83,48662,2,0,L|496:34,1,37.5
396,193,48812,6,0,P|409:262|444:297,1,112.500004291535
335,384,49262,1,0,0:0:0:0:
269,230,49412,6,0,L|189:212,1,75
167,343,49562,1,0,0:0:0:0:
167,343,49637,1,0,0:0:0:0:
167,343,49712,1,0,0:0:0:0:
327,346,49862,1,0,0:0:0:0:
256,198,50012,2,0,L|176:180,1,75
154,311,50162,1,0,0:0:0:0:
314,314,50312,1,0,0:0:0:0:
243,166,50462,2,0,P|202:145|199:79,1,112.500004291535
353,36,50762,1,0,0:0:0:0:
474,169,50912,5,0,0:0:0:0:
454,68,51062,1,0,0:0:0:0:
353,36,51212,2,0,P|298:34|256:52,1,82.5000025177003
112,99,51512,2,0,P|167:97|209:115,1,82.5000025177003
264,214,51812,6,0,L|239:292,1,75
115,245,51962,1,0,0:0:0:0:
115,245,52037,1,0,0:0:0:0:
115,245,52112,1,0,0:0:0:0:
192,105,52262,1,0,0:0:0:0:
285,241,52412,2,0,L|260:319,1,75
136,273,52562,1,0,0:0:0:0:
213,133,52712,1,0,0:0:0:0:
307,269,52862,2,0,P|294:313|335:360,1,112.500004291535
421,276,53162,5,0,0:0:0:0:
421,276,53312,2,0,P|434:232|393:185,1,112.500004291535
347,35,53612,5,0,0:0:0:0:
393,185,53762,1,0,0:0:0:0:
264,90,53912,1,0,0:0:0:0:
310,240,54062,1,0,0:0:0:0:
168,66,54212,1,0,0:0:0:0:
214,216,54362,1,0,0:0:0:0:
152,369,54512,2,0,P|112:374|77:359,1,56.2500021457673
85,121,54662,5,0,0:0:0:0:
85,121,54737,1,0,0:0:0:0:
85,121,54812,1,0,0:0:0:0:
131,271,54962,1,0,0:0:0:0:
168,66,55112,1,0,0:0:0:0:
214,216,55262,1,0,0:0:0:0:
264,90,55412,1,0,0:0:0:0:
310,240,55562,1,0,0:0:0:0:
355,50,55712,2,0,P|371:27|402:32,1,44.999998626709
458,175,56012,5,0,0:0:0:0:
480,209,56087,1,0,0:0:0:0:
492,248,56162,1,0,0:0:0:0:
493,289,56237,1,0,0:0:0:0:
475,338,56312,1,0,0:0:0:0:
444,379,56387,1,0,0:0:0:0:
394,389,56462,1,0,0:0:0:0:
350,363,56537,1,0,0:0:0:0:
319,307,56612,1,0,0:0:0:0:
318,244,56687,1,0,0:0:0:0:
285,190,56762,1,0,0:0:0:0:
229,162,56837,1,0,0:0:0:0:
154,158,56912,1,0,0:0:0:0:
82,176,56987,1,0,0:0:0:0:
41,236,57062,1,0,0:0:0:0:
50,309,57137,1,0,0:0:0:0:
104,372,57212,2,0,B|140:393|278:384|305:294|276:222|191:173|104:215|87:281|117:345|191:338|188:284,1,450.000017166138
74,62,68012,6,0,L|119:96,1,56.2500021457673
81,111,68161,2,0,L|125:146,1,56.2500021457673
166,269,68312,2,0,P|126:223|74:217,1,93.75
0,353,68612,6,0,L|34:309,1,56.2500021457673
50,348,68762,2,0,L|83:303,1,56.2500021457673
166,269,68912,2,0,B|192:257|192:257|230:267|230:267|286:251,1,93.75
429,335,69212,6,0,L|394:291,1,56.2500021457673
379,330,69362,2,0,L|345:285,1,56.2500021457673
254,260,69512,1,0,0:0:0:0:
364,187,69662,1,0,0:0:0:0:
380,155,69737,1,0,0:0:0:0:
343,157,69812,1,0,0:0:0:0:
254,260,69962,1,0,0:0:0:0:
229,136,70112,2,0,L|222:109,4,20.6250006294251
112,84,70412,6,0,P|82:39|37:21,1,93.75
27,116,70712,2,0,P|3:165|9:213,1,93.75
183,219,71012,2,0,L|189:243,4,23.4375
76,360,71312,1,0,0:0:0:0:
5,203,71462,1,0,0:0:0:0:
183,219,71612,6,0,P|227:192|251:143,1,93.75
168,138,71912,2,0,L|139:105,1,37.5
310,213,72062,2,0,L|334:242,1,37.5
244,78,72212,1,0,0:0:0:0:
230,61,72287,1,0,0:0:0:0:
216,43,72362,2,0,L|189:5,1,37.5
406,68,72512,2,0,B|474:124|432:195|352:173|359:121|374:132,1,172.500003290176
310,213,72812,6,0,P|332:240|382:257,1,75
488,222,73112,2,0,P|502:256|499:293,1,75
380,327,73412,2,0,P|365:292|368:255,1,75
369,130,73712,2,0,L|343:80,1,37.5
275,103,73862,2,0,L|249:53,1,37.5
189,160,74012,6,0,P|182:218|153:248,1,75
74,201,74312,2,0,P|57:234|58:271,1,75
233,310,74612,1,0,0:0:0:0:
173,230,74762,1,0,0:0:0:0:
173,230,74837,1,0,0:0:0:0:
173,230,74912,2,0,P|207:205|250:208,1,56.2500021457673
74,201,75062,1,0,0:0:0:0:
74,201,75137,1,0,0:0:0:0:
74,201,75212,6,0,L|108:130,1,56.2500021457673
197,31,75362,2,0,L|172:81,1,56.2500021457673
173,230,75512,2,0,L|207:159,1,56.2500021457673
296,60,75662,2,0,L|271:110,1,56.2500021457673
275,283,75812,5,0,0:0:0:0:
288,329,75887,1,0,0:0:0:0:
320,365,75962,1,0,0:0:0:0:
365,384,76037,1,0,0:0:0:0:
413,382,76112,1,0,0:0:0:0:
456,359,76187,1,0,0:0:0:0:
484,320,76262,1,0,0:0:0:0:
493,272,76337,1,0,0:0:0:0:
481,226,76412,6,0,L|464:177,1,37.5
247,102,76712,2,0,P|194:74|239:114,1,172.500003290176
368,14,77012,1,0,0:0:0:0:
385,59,77087,1,0,0:0:0:0:
387,107,77162,1,0,0:0:0:0:
376,155,77237,1,0,0:0:0:0:
362,201,77312,2,0,L|397:299,1,97.4999955368044
275,283,77612,6,0,L|230:228,1,56.2500021457673
283,145,77762,2,0,L|237:90,1,56.2500021457673
138,66,77912,1,0,0:0:0:0:
120,31,77987,1,0,0:0:0:0:
85,49,78062,1,0,0:0:0:0:
103,84,78137,1,0,0:0:0:0:
61,186,78287,1,0,0:0:0:0:
88,230,78362,1,0,0:0:0:0:
169,310,78512,2,0,P|197:344|237:349,1,56.2500021457673
313,321,78662,2,0,P|285:287|245:282,1,56.2500021457673
247,188,78812,6,0,L|292:133,1,56.2500021457673
239,50,78962,2,0,L|285:-5,1,56.2500021457673
409,49,79112,1,0,0:0:0:0:
389,80,79187,1,0,0:0:0:0:
389,117,79262,1,0,0:0:0:0:
409,148,79337,1,0,0:0:0:0:
436,162,79412,2,0,B|469:163|469:163|499:177,1,56.2500021457673
409,271,79562,2,0,B|439:283|439:283|461:308,1,56.2500021457673
313,321,79712,2,0,B|336:343|336:343|347:375,1,56.2500021457673,0|0,0:3|0:3,0:3:0:0:
199,323,79862,2,0,B|214:352|214:352|210:386,1,56.2500021457673,0|0,0:3|0:3,0:3:0:0:
260,218,80012,6,0,L|330:229,1,56.2500021457673
220,121,80162,2,0,L|290:133,1,56.2500021457673
150,207,80312,1,0,0:0:0:0:
115,225,80387,1,0,0:0:0:0:
97,190,80462,1,0,0:0:0:0:
132,172,80537,1,0,0:0:0:0:
99,65,80687,1,0,0:0:0:0:
134,47,80762,1,0,0:0:0:0:
220,121,80912,6,0,P|248:125|270:141,1,56.2500021457673
260,218,81062,2,0,P|287:223|308:241,1,56.2500021457673
484,299,81212,6,0,L|428:289,1,56.2500021457673
443,202,81363,2,0,L|387:192,1,56.2500021457673
407,93,81512,2,0,L|351:83,3,56.2500021457673
226,235,81812,1,0,0:0:0:0:
179,248,81887,1,0,0:0:0:0:
133,234,81962,1,0,0:0:0:0:
103,197,82037,1,0,0:0:0:0:
98,149,82112,1,0,0:0:0:0:
120,107,82187,1,0,0:0:0:0:
162,83,82262,1,0,0:0:0:0:
210,87,82337,1,0,0:0:0:0:
249,114,82412,6,0,L|294:169,1,56.2500021457673
226,235,82562,2,0,L|272:290,1,56.2500021457673
371,314,82712,1,0,0:0:0:0:
389,349,82787,1,0,0:0:0:0:
424,331,82862,1,0,0:0:0:0:
406,296,82937,1,0,0:0:0:0:
448,194,83087,1,0,0:0:0:0:
421,150,83162,1,0,0:0:0:0:
340,70,83312,2,0,P|312:36|272:31,1,56.2500021457673
196,59,83462,2,0,P|224:93|264:98,1,56.2500021457673
262,192,83612,6,0,L|217:247,1,56.2500021457673
270,330,83762,2,0,L|224:385,1,56.2500021457673
103,335,83912,1,0,0:0:0:0:
122,303,83987,1,0,0:0:0:0:
122,266,84062,1,0,0:0:0:0:
102,235,84137,1,0,0:0:0:0:
73,218,84212,2,0,B|40:217|40:217|10:203,1,56.2500021457673
100,109,84362,2,0,B|70:97|70:97|48:72,1,56.2500021457673
196,59,84512,2,0,B|173:37|173:37|162:5,1,56.2500021457673,0|0,0:3|0:3,0:3:0:0:
310,57,84662,2,0,B|295:28|295:28|299:-6,1,56.2500021457673,0|0,0:3|0:3,0:3:0:0:
249,162,84812,6,0,L|179:151,1,56.2500021457673
289,259,84962,2,0,L|219:247,1,56.2500021457673
359,173,85112,1,0,0:0:0:0:
394,155,85187,1,0,0:0:0:0:
412,190,85262,1,0,0:0:0:0:
377,208,85337,1,0,0:0:0:0:
410,315,85487,1,0,0:0:0:0:
375,333,85562,1,0,0:0:0:0:
290,258,85712,2,0,P|259:204|192:201,1,112.500004291535
108,278,86012,5,0,0:0:0:0:
169,56,86162,1,0,0:0:0:0:
81,259,86312,1,0,0:0:0:0:
142,37,86462,1,0,0:0:0:0:
0,82,86612,2,0,P|31:136|98:139,1,112.500004291535
213,194,86912,2,0,B|186:167|186:167|202:133,1,56.2500021457673
301,59,87062,2,0,B|288:89|288:89|253:91,1,56.2500021457673
213,194,87212,6,0,L|163:242,1,56.2500021457673
290,258,87362,2,0,L|240:306,1,56.2500021457673
386,319,87512,1,0,0:0:0:0:
404,354,87587,1,0,0:0:0:0:
439,336,87662,1,0,0:0:0:0:
421,301,87737,1,0,0:0:0:0:
458,195,87887,1,0,0:0:0:0:
440,160,87962,1,0,0:0:0:0:
367,55,88112,2,0,P|348:29|310:26,1,56.2500021457673
223,58,88262,2,0,P|242:84|280:87,1,56.2500021457673
336,172,88412,6,0,L|286:220,1,56.2500021457673
213,194,88562,2,0,L|163:242,1,56.2500021457673
94,176,88712,1,0,0:0:0:0:
59,162,88787,1,0,0:0:0:0:
40,130,88862,1,0,0:0:0:0:
43,93,88937,1,0,0:0:0:0:
68,66,89012,2,0,B|81:36|81:36|116:29,1,56.2500021457673
163,100,89162,2,0,B|185:76|185:76|220:83,1,56.2500021457673
213,194,89312,2,0,B|243:180|243:180|273:199,1,56.2500021457673
187,297,89462,2,0,B|219:295|219:295|240:325,1,56.2500021457673
89,282,89612,6,0,L|42:317,1,56.2500021457673
94,176,89762,2,0,L|47:211,1,56.2500021457673
163,100,89912,1,0,0:0:0:0:
145,65,89987,1,0,0:0:0:0:
180,47,90062,1,0,0:0:0:0:
198,82,90137,1,0,0:0:0:0:
299,55,90287,1,0,0:0:0:0:
317,90,90362,1,0,0:0:0:0:
432,148,90512,2,0,P|474:160|498:188,1,56.2500021457673
506,257,90662,2,0,P|464:245|440:217,1,56.2500021457673
320,203,90812,5,0,0:0:0:0:
282,208,90887,1,0,0:0:0:0:
245,214,90962,1,0,0:0:0:0:
208,220,91037,1,0,0:0:0:0:
171,226,91112,1,0,0:0:0:0:
134,232,91187,1,0,0:0:0:0:
97,238,91262,1,0,0:0:0:0:
60,244,91337,1,0,0:0:0:0:
21,251,91412,6,0,L|4:318,1,56.2500021457673
89,94,91562,2,0,L|102:39,1,56.2500021457673
171,226,91712,2,0,L|154:293,1,56.2500021457673
239,69,91862,2,0,L|252:14,1,56.2500021457673
320,203,92012,6,0,P|358:223|380:164,1,112.500004291535
386,65,92312,1,0,0:0:0:0:
404,30,92387,1,0,0:0:0:0:
439,48,92462,1,0,0:0:0:0:
421,83,92537,1,0,0:0:0:0:
480,209,92687,1,0,0:0:0:0:
462,244,92762,1,0,0:0:0:0:
367,329,92912,2,0,P|348:355|310:358,1,56.2500021457673
223,326,93062,2,0,P|242:300|280:297,1,56.2500021457673
320,203,93212,6,0,L|270:155,1,56.2500021457673
197,181,93362,2,0,L|147:133,1,56.2500021457673
78,199,93512,1,0,0:0:0:0:
43,213,93587,1,0,0:0:0:0:
24,245,93662,1,0,0:0:0:0:
27,282,93737,1,0,0:0:0:0:
52,309,93812,2,0,B|65:339|65:339|100:346,1,56.2500021457673
147,275,93962,2,0,B|169:299|169:299|204:292,1,56.2500021457673
197,181,94112,2,0,B|227:195|227:195|257:176,1,56.2500021457673
172,64,94262,2,0,B|204:66|204:66|225:36,1,56.2500021457673
76,42,94412,6,0,L|52:136,1,93.75
246,182,94712,2,0,L|269:91,1,93.75
172,64,95012,2,0,L|148:158,1,93.75
342,204,95312,2,0,L|365:113,1,93.75
461,104,95612,6,0,B|492:92|492:92|527:110,1,56.2500021457673
460,187,95762,2,0,B|491:175|491:175|526:193,1,56.2500021457673
342,204,95912,2,0,B|311:192|311:192|276:210,1,56.2500021457673
343,287,96062,2,0,B|312:275|312:275|277:293,1,56.2500021457673
460,315,96212,2,0,L|522:347,2,56.2500021457673
343,287,96512,2,0,P|312:234|346:203,1,112.500004291535
322,89,96812,6,0,L|191:55,1,112.500004291535
76,143,97112,2,0,L|184:171,1,112.500004291535
322,89,97412,1,0,0:0:0:0:
213,60,97562,1,0,0:0:0:0:
76,143,97712,1,0,0:0:0:0:
184,171,97862,1,0,0:0:0:0:
135,297,98012,6,0,P|157:361|228:390,1,112.500004291535
241,258,98312,2,0,P|219:194|148:165,1,112.500004291535
134,298,98612,1,0,0:0:0:0:
192,384,98762,1,0,0:0:0:0:
241,258,98912,1,0,0:0:0:0:
183,170,99062,1,0,0:0:0:0:
213,60,99212,6,0,L|330:19,1,112.500004291535
465,91,99512,2,0,L|358:128,1,112.500004291535
212,60,99812,1,0,0:0:0:0:
319,22,99962,1,0,0:0:0:0:
465,91,100112,1,0,0:0:0:0:
358,128,100262,1,0,0:0:0:0:
212,60,100412,5,0,0:0:0:0:
234,209,100562,1,0,0:0:0:0:
234,209,100637,1,0,0:0:0:0:
234,209,100712,2,0,B|226:245|226:245|257:273,1,56.2500021457673
309,344,100862,1,0,0:0:0:0:
358,128,101012,1,0,0:0:0:0:
443,268,101162,1,0,0:0:0:0:
443,268,101237,1,0,0:0:0:0:
443,268,101312,2,0,B|435:304|435:304|466:332,1,56.2500021457673
309,344,101462,2,0,B|273:336|273:336|245:367,1,56.2500021457673
234,209,101612,6,0,L|133:192,1,89.9999972534181
68,105,101912,2,0,L|156:119,1,89.9999972534181
94,252,102212,1,0,0:0:0:0:
210,61,102362,1,0,0:0:0:0:
68,104,102512,1,0,0:0:0:0:
234,209,102662,1,0,0:0:0:0:
480,211,102812,6,0,P|417:199|381:149,1,89.9999972534181
363,80,103112,2,0,P|426:92|462:142,1,89.9999972534181
307,255,103412,1,0,0:0:0:0:
363,80,103562,1,0,0:0:0:0:
363,80,103637,1,0,0:0:0:0:
363,80,103712,1,0,0:0:0:0:
480,211,103862,1,0,0:0:0:0:
307,255,104012,6,0,P|237:275|218:299,1,89.9999972534181
295,341,104312,2,0,L|316:387,1,44.999998626709
228,184,104462,2,0,L|209:143,1,44.999998626709
165,360,104612,1,0,0:0:0:0:
71,252,104762,1,0,0:0:0:0:
46,224,104837,1,0,0:0:0:0:
82,218,104912,1,0,0:0:0:0:
228,184,105062,1,0,0:0:0:0:
137,69,105212,6,0,P|85:60|136:73,1,134.999995880127
155,90,105437,1,0,0:0:0:0:
191,98,105512,1,0,0:0:0:0:
225,84,105587,1,0,0:0:0:0:
255,61,105662,1,0,0:0:0:0:
290,49,105737,1,0,0:0:0:0:
325,62,105812,1,0,0:0:0:0:
323,99,105887,1,0,0:0:0:0:
349,125,105962,1,0,0:0:0:0:
375,152,106037,1,0,0:0:0:0:
402,179,106112,1,0,0:0:0:0:
379,208,106187,1,0,0:0:0:0:
405,234,106262,1,0,0:0:0:0:
431,261,106337,1,0,0:0:0:0:
458,288,106412,2,0,P|501:319|444:357,1,134.999995880127
292,369,106712,5,0,0:0:0:0:
265,260,106862,2,0,L|251:203,1,56.2500021457673
252,351,107012,5,0,0:0:0:0:
225,242,107162,2,0,L|211:185,1,56.2500021457673
212,333,107312,5,0,0:0:0:0:
185,224,107462,2,0,L|171:167,1,56.2500021457673
172,315,107612,5,0,0:0:0:0:
145,206,107762,2,0,L|131:149,1,56.2500021457673
132,297,107912,5,0,0:0:0:0:
105,188,108062,2,0,L|91:131,1,56.2500021457673
92,279,108212,5,0,0:0:0:0:
65,170,108362,2,0,L|51:113,1,56.2500021457673
106,56,108512,6,0,B|137:49|137:49|163:15,1,56.2500021457673
211,85,108662,2,0,B|244:90|244:90|279:68,1,56.2500021457673
293,0,108812,2,0,P|339:29|352:85,1,112.500004291535
316,199,109112,5,0,0:0:0:0:
343,308,109262,2,0,L|357:365,1,56.2500021457673
316,199,109412,5,0,0:0:0:0:
300,310,109562,2,0,L|291:368,1,56.2500021457673
316,199,109712,5,0,0:0:0:0:
259,296,109862,2,0,L|229:346,1,56.2500021457673
316,199,110012,5,0,0:0:0:0:
227,267,110162,2,0,L|180:302,1,56.2500021457673
316,199,110312,2,0,L|381:182,1,56.2500021457673
199,157,110462,2,0,L|144:171,1,56.2500021457673
294,80,110612,1,0,0:0:0:0:
174,35,110762,2,0,L|108:46,2,56.2500021457673
294,80,111062,1,0,0:0:0:0:
416,37,111212,2,0,P|476:39|514:95,1,112.500004291535
357,151,111512,5,0,0:0:0:0:
447,189,111662,2,0,L|508:216,1,56.2500021457673
354,195,111812,5,0,0:0:0:0:
444,233,111962,2,0,L|505:260,1,56.2500021457673
351,239,112112,5,0,0:0:0:0:
441,277,112262,2,0,L|502:304,1,56.2500021457673
292,353,112412,2,0,P|232:351|194:295,1,112.500004291535
351,239,112712,5,0,0:0:0:0:
261,201,112862,2,0,L|200:174,1,56.2500021457673
354,195,113012,5,0,0:0:0:0:
264,157,113162,2,0,L|203:130,1,56.2500021457673
357,151,113312,5,0,0:0:0:0:
267,113,113462,2,0,L|206:86,1,56.2500021457673
129,28,113612,6,0,P|69:30|31:86,1,112.500004291535
104,107,113912,2,0,B|91:150|91:150|60:166|60:166|49:205,1,112.500004291535
65,282,114212,1,0,0:0:0:0:
104,310,114287,1,0,0:0:0:0:
150,322,114362,1,0,0:0:0:0:
198,314,114437,1,0,0:0:0:0:
236,284,114512,2,0,L|224:272|221:269|217:265|214:262|210:258|207:255|203:251|199:247|196:244|192:240|189:237|185:233|182:230|178:226|213:174,1,48.7499977684022
267,113,114662,2,0,L|239:153,1,48.7499977684022
236,284,114812,6,0,P|272:325|326:333,1,97.4999955368044
352,247,115112,2,0,P|406:250|450:218,1,97.4999955368044
380,133,115412,2,0,P|421:96|429:43,1,97.4999955368044
267,113,115712,1,0,0:0:0:0:
434,340,115862,1,0,0:0:0:0:
