osu file format v14

[General]
AudioFilename: audio.mp3
AudioLeadIn: 0
PreviewTime: 18962
Countdown: 0
SampleSet: Soft
StackLeniency: 0.6
Mode: 0
LetterboxInBreaks: 0
WidescreenStoryboard: 0

[Editor]
Bookmarks: 17687,69212,96812
DistanceSpacing: 1.6
BeatDivisor: 3
GridSize: 32
TimelineZoom: 6.259997

[Metadata]
Title:Fox4-Raize-
TitleUnicode:Fox4-Raize-
Artist:Getty vs. DJ DiA
ArtistUnicode:Getty vs. DJ DiA
Creator:Kaifin
Version:Xilver's Extra
Source:SOUND VOLTEX III GRAVITY WARS
Tags:sdvx xilver bonzi VINXIS Doormat The 4th KAC Original Song Contest オリジナル楽曲コンテスト PSYCHO†HOLIC Pumpcore
BeatmapID:1038473
BeatmapSetID:482552

[Difficulty]
HPDrainRate:6
CircleSize:4.2
OverallDifficulty:8.5
ApproachRate:9.5
SliderMultiplier:1.8
SliderTickRate:1

[Events]
//Background and Video events
0,0,"foxraizebghighrez.jpg",0,0
//Break Periods
2,1462,2687
2,6262,7487
2,58612,62687
//Storyboard Layer 0 (Background)
//Storyboard Layer 1 (Fail)
//Storyboard Layer 2 (Pass)
//Storyboard Layer 3 (Foreground)
//Storyboard Sound Samples

[TimingPoints]
812,300,4,2,2,70,1,0
812,-111.111111111111,4,2,2,70,0,0
5012,-333.333333333333,4,2,2,70,0,0
5612,-111.111111111111,4,2,2,70,0,0
9812,-333.333333333333,4,2,2,70,0,0
10412,-83.3333333333333,4,2,2,70,0,0
11612,-66.6666666666667,4,2,2,70,0,0
11912,-200,4,2,2,70,0,0
12212,-100,4,2,2,70,0,0
12512,-66.6666666666667,4,2,2,70,0,0
12812,-100,4,2,2,70,0,0
13412,-83.3333333333333,4,2,2,70,0,0
14762,-71.4285714285714,4,2,2,70,0,0
15212,-100,4,2,2,70,0,0
17612,-71.4285714285714,4,2,2,70,0,0
20012,-66.6666666666667,4,2,2,70,0,1
28412,-142.857142857143,4,2,2,70,0,0
29612,-83.3333333333333,4,2,2,70,0,0
30812,-66.6666666666667,4,2,2,70,0,0
31112,-200,4,2,2,70,0,0
31412,-100,4,2,2,70,0,0
32012,-83.3333333333333,4,2,2,70,0,0
38012,-71.4285714285714,4,2,2,70,0,0
38312,-62.5,4,2,2,70,0,0
38537,-62.5,4,2,3,70,0,0
38912,-83.3333333333333,4,2,2,70,0,0
39212,-83.3333333333333,4,2,3,70,0,1
39812,-66.6666666666667,4,2,3,70,0,0
40412,-166.666666666667,4,2,3,70,0,0
40712,-71.4285714285715,4,2,3,70,0,0
41012,-62.5,4,2,3,70,0,0
41312,-83.3333333333333,4,2,3,70,0,0
41612,-200,4,2,3,70,0,1
42212,-66.6666666666667,4,2,3,70,0,0
42812,-200,4,2,3,70,0,0
43262,-66.6666666666667,4,2,3,70,0,0
43712,-66.6666666666667,4,2,3,70,0,1
44612,-66.6666666666667,4,2,3,70,0,0
45212,-200,4,2,3,70,0,0
45662,-66.6666666666667,4,2,3,70,0,0
46112,-90.9090909090909,4,2,2,70,0,0
46412,-90.9090909090909,4,2,2,70,0,0
48362,-83.3333333333333,4,2,2,70,0,0
48512,-76.9230769230769,4,2,2,70,0,0
48662,-71.4285714285714,4,2,2,70,0,0
48812,-83.3333333333333,4,2,3,70,0,0
53012,-71.4285714285714,4,2,3,70,0,0
53612,-83.3333333333333,4,2,3,70,0,0
54212,-200,4,2,3,70,0,0
54512,-125,4,2,3,70,0,0
55412,-200,4,2,3,70,0,0
56012,-66.6666666666667,4,2,3,70,0,0
57212,-125,4,2,4,70,0,0
58412,-125,4,2,2,70,0,0
67712,-83.3333333333333,4,2,2,70,0,0
68012,-83.3333333333333,4,2,2,70,0,0
69212,-55.5555555555556,4,2,2,70,0,0
69512,-200,4,2,2,70,0,0
69812,-83.3333333333333,4,2,2,70,0,0
75512,-71.4285714285714,4,2,2,70,0,0
76712,-62.5,4,2,2,70,0,0
76937,-62.5,4,2,3,70,0,0
77312,-62.5,4,2,2,70,0,0
77612,-83.3333333333333,4,2,2,70,0,1
82112,-166.666666666667,4,2,2,70,0,0
82412,-83.3333333333334,4,2,2,70,0,1
86012,-83.3333333333334,4,2,2,70,0,0
86612,-71.4285714285714,4,2,2,70,0,0
87212,-71.4285714285714,4,2,2,70,0,1
91712,-71.4285714285714,4,2,2,70,0,1
92012,-200,4,2,2,70,0,1
92312,-66.6666666666667,4,2,2,70,0,1
92612,-200,4,2,2,70,0,1
92912,-66.6666666666667,4,2,2,70,0,1
93212,-200,4,2,2,70,0,1
93512,-66.6666666666667,4,2,2,70,0,1
93812,-200,4,2,2,70,0,1
94112,-66.6666666666667,4,2,2,70,0,1
95012,-76.9230769230769,4,2,2,70,0,0
95312,-90.9090909090909,4,2,2,70,0,0
95612,-71.4285714285714,4,2,2,70,0,0
95912,-62.5,4,2,2,70,0,0
96212,-62.5,4,2,3,70,0,0
96512,-100,4,2,2,70,0,0
96812,-83.3333333333333,4,2,2,70,0,0
105362,-83.3333333333333,4,2,3,70,0,0
106112,-83.3333333333333,4,2,2,70,0,0
106412,-71.4285714285714,4,2,2,70,0,0
114812,-125,4,2,2,70,0,0

[Colours]
Combo1 : 175,116,175
Combo2 : 38,147,143
Combo3 : 30,185,26
Combo4 : 255,26,31

[HitObjects]
39,121,812,6,0,L|43:161,1,40.4999987640381,0|0,1:0|0:0,0:0:0:0:
132,152,1037,2,0,L|136:192,1,40.4999987640381,0|0,1:0|0:0,0:0:0:0:
206,102,1262,1,0,1:0:0:0:
470,118,3212,6,0,L|465:158,1,40.4999987640381,0|0,1:0|0:0,0:0:0:0:
377,149,3437,2,0,L|372:189,1,40.4999987640381,0|0,1:0|0:0,0:0:0:0:
303,99,3662,1,0,1:0:0:0:
133,83,5012,6,0,L|144:163,1,80.9999975280763,0|0,1:0|0:0,0:0:0:0:
68,224,5612,6,0,L|73:264,1,40.4999987640381,0|0,1:0|0:0,0:0:0:0:
161,255,5837,2,0,L|166:295,1,40.4999987640381,0|0,1:0|0:0,0:0:0:0:
235,205,6062,1,0,1:0:0:0:
481,230,8012,6,0,L|475:275,1,40.4999987640381,0|0,1:0|0:0,0:0:0:0:
388,261,8237,2,0,L|383:301,1,40.4999987640381,0|0,1:0|0:0,0:0:0:0:
314,211,8462,1,0,1:0:0:0:
74,172,9812,6,0,L|168:172,1,94.4999971160889,0|0,1:0|0:0,0:0:0:0:
48,148,10412,6,0,L|163:148,1,107.999996704102,0|0,1:0|0:0,0:0:0:0:
358,32,10712,2,0,L|347:92,2,53.9999983520508,8|0|0,0:0|0:0|0:0,0:0:0:0:
358,295,11012,2,0,P|333:305|307:299,1,53.9999983520508,0|0,0:0|0:0,0:0:0:0:
270,146,11162,2,0,P|291:161|298:187,1,53.9999983520508,0|0,1:0|0:0,0:0:0:0:
194,357,11312,2,0,P|185:304|210:257,1,107.999996704102,8|0,0:0|0:0,0:0:0:0:
487,255,11612,6,0,L|494:188,1,67.5000025749208,0|0,1:0|0:0,0:0:0:0:
387,101,11762,2,0,L|393:168,1,67.5000025749208,0|0,0:0|0:0,0:0:0:0:
294,254,11912,6,0,L|292:231,1,22.5,8|0,0:0|0:0,0:0:0:0:
217,107,12062,2,0,L|215:130,1,22.5,0|8,0:0|0:0,0:0:0:0:
141,234,12212,1,0,0:0:0:0:
130,258,12287,2,0,L|87:272,1,45,0|0,0:0|1:0,0:0:0:0:
13,103,12437,1,0,0:0:0:0:
24,127,12512,6,0,L|55:137,6,33.7500012874604,8|0|0|0|0|0|0,0:0|0:0|0:0|0:0|0:0|0:0|0:0,0:0:0:0:
228,33,12812,6,0,B|139:50,1,90,0|0,1:0|0:0,0:0:0:0:
208,291,13112,2,0,L|217:247,2,45,8|0|0,0:0|0:0|0:0,0:0:0:0:
301,110,13412,6,0,L|309:180,1,53.9999983520508,0|0,0:0|0:0,0:0:0:0:
399,14,13562,2,0,L|407:84,1,53.9999983520508,0|0,1:0|0:0,0:0:0:0:
506,188,13712,2,0,P|456:172|406:191,1,107.999996704102,10|0,0:1|0:0,0:0:0:0:
296,384,14012,6,0,L|307:331,1,53.9999983520508,0|0,1:0|0:0,0:0:0:0:
339,207,14162,1,0,0:0:0:0:
157,354,14312,2,0,L|145:301,1,53.9999983520508,8|0,0:0|0:0,0:0:0:0:
114,177,14462,1,0,1:0:0:0:
236,275,14612,1,8,0:0:0:0:
255,28,14762,6,0,L|255:91,1,62.9999980773926,0|0,1:0|0:0,0:0:0:0:
460,201,14912,2,0,B|377:189|377:189|336:208,1,125.999996154785,8|0,0:0|0:0,0:0:0:0:
128,160,15212,6,0,L|217:155,1,90,0|0,1:0|0:0,0:0:0:0:
242,357,15512,2,0,L|331:352,1,90,0|2,1:0|0:2,0:0:0:0:
39,286,15812,2,0,L|128:281,1,90,0|2,1:0|0:2,0:0:0:0:
287,265,16112,1,2,1:2:0:0:
182,39,16262,1,2,1:2:0:0:
182,39,16337,1,0,1:0:0:0:
182,39,16412,6,0,L|197:128,1,90,0|0,1:0|0:0,0:0:0:0:
348,219,16712,2,0,L|363:308,1,90,0|0,1:0|0:0,0:0:0:0:
467,15,17012,2,0,L|482:104,1,90,2|0,1:1|1:0,0:0:0:0:
457,199,17237,1,0,1:0:0:0:
457,199,17312,1,2,1:1:0:0:
192,77,17462,6,0,L|184:139,1,45,0|0,1:0|1:0,0:0:0:0:
108,290,17612,6,0,P|103:257|103:227,1,62.9999980773926,0|0,1:0|0:0,0:0:0:0:
315,235,17762,2,0,P|320:202|319:172,1,62.9999980773926,0|0,1:0|0:0,0:0:0:0:
187,122,17912,2,0,L|194:184,1,62.9999980773926,0|0,1:0|0:0,0:0:0:0:
434,101,18062,2,0,L|426:163,1,62.9999980773926,0|0,1:0|0:0,0:0:0:0:
258,46,18212,5,0,1:0:0:0:
253,68,18287,1,0,1:0:0:0:
258,90,18362,1,0,1:0:0:0:
253,112,18437,1,0,1:0:0:0:
258,134,18512,1,0,1:0:0:0:
253,156,18587,1,0,1:0:0:0:
258,178,18662,1,0,1:0:0:0:
253,200,18737,1,0,1:0:0:0:
258,222,18812,5,2,1:0:0:0:
326,62,18962,1,2,0:2:0:0:
259,260,19112,1,2,0:2:0:0:
182,69,19262,1,2,0:2:0:0:
145,200,19412,5,8,0:3:0:0:
386,185,19562,1,4,0:3:0:0:
138,212,19712,1,0,1:0:0:0:
379,197,19862,1,0,1:0:0:0:
219,359,20012,6,0,B|193:305|210:257|210:257|215:285|242:301,1,135.000005149842,0|0,1:0|0:0,0:0:0:0:
333,316,20312,2,0,L|437:312,1,67.5000025749208,8|0,0:0|0:0,0:0:0:0:
436,123,20462,2,0,L|432:227,1,67.5000025749208,2|0,0:2|0:0,0:0:0:0:
202,140,20612,2,0,B|283:119|283:119|330:140,1,135.000005149842,0|2,1:0|0:2,0:0:0:0:
127,364,20912,2,0,L|151:301,1,67.5000025749208,8|0,0:0|0:0,0:0:0:0:
53,172,21062,2,0,L|77:234,1,67.5000025749208,2|0,0:2|0:0,0:0:0:0:
322,213,21212,6,0,B|261:214|261:214|246:222|246:222|190:224,1,135.000005149842,0|0,1:0|0:0,0:0:0:0:
282,368,21512,2,0,P|301:341|301:308,1,67.5000025749208,8|0,0:0|0:0,0:0:0:0:
249,87,21662,2,0,P|262:117|291:134,1,67.5000025749208,2|0,0:2|0:0,0:0:0:0:
508,257,21812,6,0,L|409:269,2,90.0000034332277,0|2|2,1:0|0:2|0:2,0:0:0:0:
417,189,22112,6,0,P|400:161|404:128,1,67.5000025749208,8|0,0:0|0:0,0:0:0:0:
504,25,22262,2,0,P|475:42|442:38,1,67.5000025749208,2|0,1:2|0:0,0:0:0:0:
169,72,22412,6,0,B|224:67|249:87|249:87|262:51|301:22,1,135.000005149842,0|0,1:0|0:0,0:0:0:0:
8,135,22712,2,0,P|15:167|41:187,1,67.5000025749208,8|0,0:0|0:0,0:0:0:0:
137,260,22862,2,0,P|161:237|165:204,1,67.5000025749208,2|0,0:2|0:0,0:0:0:0:
126,2,23012,2,0,B|146:88|146:88|115:122,1,135.000005149842,0|2,1:0|0:2,0:0:0:0:
247,232,23312,2,0,L|270:168,1,67.5000025749208,8|0,0:0|0:0,0:0:0:0:
359,32,23462,2,0,L|382:95,1,67.5000025749208,2|0,0:2|0:0,0:0:0:0:
375,350,23612,5,2,1:2:0:0:
370,328,23687,1,2,0:2:0:0:
365,307,23762,1,2,0:2:0:0:
361,287,23837,1,2,0:2:0:0:
356,265,23912,1,10,0:2:0:0:
478,179,24062,1,2,1:2:0:0:
261,320,24212,5,0,1:0:0:0:
248,265,24287,1,0,0:0:0:0:
235,210,24362,1,2,1:1:0:0:
225,159,24437,1,0,1:0:0:0:
213,104,24512,2,0,L|199:38,1,67.5000025749208,8|0,0:0|0:0,0:0:0:0:
72,8,24662,2,0,L|85:74,1,67.5000025749208,2|0,1:1|0:0,0:0:0:0:
88,250,24812,6,0,B|109:202|91:160|91:160|77:177|55:187,1,135.000005149842,0|0,1:0|0:0,0:0:0:0:
142,351,25112,2,0,P|175:349|208:338,1,67.5000025749208,8|0,0:0|0:0,0:0:0:0:
318,219,25262,2,0,P|287:205|253:200,1,67.5000025749208,2|0,0:2|0:0,0:0:0:0:
0,256,25412,2,0,B|88:278|88:278|128:259,1,135.000005149842,0|2,1:0|0:2,0:0:0:0:
104,43,25712,2,0,L|101:110,1,67.5000025749208,8|0,0:0|0:0,0:0:0:0:
341,55,25862,2,0,P|307:47|273:58,1,67.5000025749208,2|0,0:2|0:0,0:0:0:0:
253,324,26012,6,0,P|231:259|263:189,1,135.000005149842,0|0,1:0|0:0,0:0:0:0:
401,339,26312,2,0,L|379:274,1,67.5000025749208,8|0,0:0|0:0,0:0:0:0:
509,174,26462,2,0,L|487:238,1,67.5000025749208,2|0,0:2|0:0,0:0:0:0:
183,80,26612,6,0,L|179:169,2,90.0000034332277,0|2|2,1:0|0:2|0:2,0:0:0:0:
267,212,26912,2,0,P|301:222|335:214,1,67.5000025749208,8|0,0:0|0:0,0:0:0:0:
341,55,27062,2,0,P|375:45|409:53,1,67.5000025749208,2|0,1:2|0:0,0:0:0:0:
419,315,27212,6,0,B|411:220|411:220|441:245,1,135.000005149842,0|0,1:0|0:0,0:0:0:0:
280,354,27512,2,0,L|214:345,1,67.5000025749208,8|0,0:0|0:0,0:0:0:0:
108,233,27662,2,0,L|174:223,1,67.5000025749208,2|0,1:2|0:0,0:0:0:0:
378,130,27812,2,0,B|344:112|311:121|311:121|288:144|249:135,1,135.000005149842,0|2,1:0|1:2,0:0:0:0:
145,47,28037,1,0,1:0:0:0:
130,36,28112,2,0,L|140:102,1,67.5000025749208,8|0,0:0|0:0,0:0:0:0:
321,282,28262,2,0,L|331:215,1,67.5000025749208,2|0,1:2|0:0,0:0:0:0:
22,182,28412,6,0,L|84:176,1,62.9999980773926,8|4,0:3|0:3,0:0:0:0:
41,209,28712,2,0,L|103:203,1,62.9999980773926,4|8,0:3|0:3,0:0:0:0:
60,236,29012,2,0,L|122:230,1,62.9999980773926,4|4,0:3|0:3,0:0:0:0:
91,340,29312,1,8,0:0:0:0:
389,111,29612,6,0,L|281:124,1,107.999996704102,0|0,1:0|0:0,0:0:0:0:
340,318,29912,2,0,L|360:268,2,53.9999983520508,8|0|2,0:0|0:0|0:2,0:0:0:0:
62,202,30212,2,0,P|41:184|33:159,1,53.9999983520508,0|0,1:0|0:0,0:0:0:0:
157,35,30362,2,0,P|161:62|150:86,1,53.9999983520508,2|0,0:2|0:0,0:0:0:0:
173,297,30512,2,0,P|155:246|172:196,1,107.999996704102,8|2,0:0|0:2,0:0:0:0:
417,258,30812,6,0,L|347:279,1,67.5000025749208,0|0,1:0|0:0,0:0:0:0:
280,138,30962,2,0,L|363:164,1,67.5000025749208,2|0,0:2|0:0,0:0:0:0:
473,134,31112,6,0,L|479:112,1,22.5,8|0,0:0|0:0,0:0:0:0:
354,16,31262,2,0,L|360:37,1,22.5,0|0,0:0|0:0,0:0:0:0:
270,219,31412,1,0,1:0:0:0:
257,249,31487,2,0,L|214:262,1,45,2|0,0:2|0:0,0:0:0:0:
96,67,31637,1,2,0:2:0:0:
109,96,31712,2,0,L|136:104,6,22.5,8|0|0|0|0|0|0,0:0|0:0|0:0|0:0|1:2|0:0|0:0,0:0:0:0:
68,324,32012,6,0,L|48:215,1,107.999996704102,0|0,1:0|0:0,0:0:0:0:
248,84,32312,2,0,L|236:142,2,53.9999983520508,8|0|2,0:0|0:0|0:2,0:0:0:0:
280,351,32612,2,0,P|301:335|312:310,1,53.9999983520508,0|0,1:0|0:0,0:0:0:0:
188,216,32762,2,0,P|196:243|219:261,1,53.9999983520508,2|0,0:2|0:0,0:0:0:0:
414,206,32912,2,0,P|362:191|311:206,1,107.999996704102,10|2,0:1|0:2,0:0:0:0:
104,345,33212,6,0,L|112:291,1,53.9999983520508,0|0,1:0|0:0,0:0:0:0:
143,113,33362,1,2,0:2:0:0:
288,269,33512,2,0,L|234:260,1,53.9999983520508,8|0,0:0|0:0,0:0:0:0:
56,230,33662,1,2,0:2:0:0:
272,136,33812,5,0,1:0:0:0:
203,359,33962,2,0,P|188:336|187:309,1,53.9999983520508,2|0,1:2|1:0,0:0:0:0:
55,210,34112,1,8,0:0:0:0:
255,137,34262,2,0,P|242:160|220:175,1,53.9999983520508,0|0,1:0|0:0,0:0:0:0:
395,276,34412,6,0,B|324:293|324:293|292:277,1,107.999996704102,0|0,1:0|0:0,0:0:0:0:
429,153,34712,2,0,L|446:102,1,53.9999983520508,8|0,0:0|0:0,0:0:0:0:
302,23,34862,2,0,L|318:74,1,53.9999983520508,2|0,0:1|0:0,0:0:0:0:
339,198,35012,1,0,1:0:0:0:
187,142,35162,6,0,L|199:215,1,53.9999983520508,2|0,0:1|0:0,0:0:0:0:
110,93,35312,2,0,L|122:166,1,53.9999983520508,8|0,0:0|0:0,0:0:0:0:
33,44,35462,2,0,L|45:117,1,53.9999983520508,0|0,0:0|0:0,0:0:0:0:
55,309,35612,6,0,P|73:260|55:211,1,107.999996704102,0|0,1:0|0:0,0:0:0:0:
161,353,35912,2,0,L|182:303,1,53.9999983520508,8|0,0:2|0:0,0:0:0:0:
245,200,36062,2,0,L|266:249,1,53.9999983520508,2|0,0:1|0:0,0:0:0:0:
319,348,36212,1,2,1:2:0:0:
452,102,36362,2,0,L|431:151,1,53.9999983520508,2|2,0:1|0:2,0:0:0:0:
378,250,36512,1,10,0:2:0:0:
270,39,36662,2,0,L|275:92,1,53.9999983520508,2|2,1:2|0:2,0:0:0:0:
245,200,36812,6,0,L|298:192,3,53.9999983520508,0|0|0|0,1:0|0:0|0:0|0:0,0:0:0:0:
132,75,37112,2,0,L|185:82,3,53.9999983520508,8|0|2|0,0:0|0:0|1:1|0:0,0:0:0:0:
87,220,37412,5,0,1:0:0:0:
35,203,37487,1,0,0:0:0:0:
35,149,37562,1,2,0:1:0:0:
87,132,37637,1,0,1:0:0:0:
118,176,37712,5,8,0:0:0:0:
102,197,37787,1,0,0:0:0:0:
98,224,37862,1,0,1:0:0:0:
103,250,37937,1,0,0:0:0:0:
119,272,38012,6,0,P|151:332|179:251,1,188.999994232178,8|0,1:0|0:0,0:0:0:0:
246,91,38312,6,0,B|183:55|183:55|225:208,1,216,8|0,1:0|3:0,0:0:0:0:
445,310,38612,5,0,3:0:0:0:
423,302,38687,1,0,3:0:0:0:
402,295,38762,1,0,3:0:0:0:
381,287,38837,1,0,3:0:0:0:
487,370,38912,6,0,B|468:317|517:276|517:276|491:259|490:229,1,161.999995056153,8|0,1:0|0:0,0:0:0:0:
451,91,39212,6,0,B|473:37|533:35|597:191|364:195|408:27|236:95,1,377.999988464356,2|0,1:1|0:0,0:0:0:0:
209,278,39812,6,0,L|227:212,1,67.5000025749208,8|0,0:2|0:0,0:0:0:0:
125,91,39962,1,0,3:0:0:0:
125,91,40037,1,0,3:0:0:0:
125,91,40112,2,0,L|143:156,1,67.5000025749208,0|0,3:0|0:0,0:0:0:0:
313,91,40262,2,0,L|245:91,1,67.5000025749208,0|0,3:2|0:0,0:0:0:0:
339,278,40412,6,0,L|346:304,1,26.9999991760254,0|0,1:0|0:0,0:0:0:0:
444,192,40562,2,0,L|452:166,1,26.9999991760254,0|0,3:2|0:2,0:0:0:0:
458,48,40712,6,0,P|426:44|396:53,1,62.9999980773926,0|0,3:0|0:0,0:0:0:0:
315,181,40862,2,0,P|283:184|253:175,1,62.9999980773926,0|0,1:2|0:0,0:0:0:0:
98,176,41012,6,0,B|55:111|90:33|90:33|100:66|125:90,1,216,8|0,1:1|0:0,0:0:0:0:
199,257,41312,6,0,P|198:319|177:265,1,161.999995056153,0|0,1:1|0:1,0:0:0:0:
467,176,41612,6,0,B|432:174|406:170|406:170|367:187|367:187|341:180|312:181,1,157.5,0|0,1:1|0:0,0:0:0:0:
429,315,42212,6,0,P|414:286|413:253,1,67.5000025749208,8|0,0:0|0:0,0:0:0:0:
477,31,42362,1,0,3:3:0:0:
477,31,42437,1,0,3:2:0:0:
477,31,42512,2,0,P|443:33|415:50,1,67.5000025749208,0|0,3:0|0:0,0:0:0:0:
217,148,42662,2,0,P|247:160|281:158,1,67.5000025749208,0|0,3:2|0:0,0:0:0:0:
493,210,42812,6,0,L|501:176,1,22.5,0|0,1:0|0:0,0:0:0:0:
292,49,42962,1,0,3:2:0:0:
292,49,43037,1,0,3:2:0:0:
292,49,43112,2,0,L|300:81,1,22.5,0|0,3:0|0:0,0:0:0:0:
336,307,43262,6,0,P|304:318|272:310,1,67.5000025749208,0|0,1:2|0:0,0:0:0:0:
125,213,43412,1,8,0:0:0:0:
125,213,43487,1,0,0:0:0:0:
125,213,43562,2,0,P|92:207|60:218,1,67.5000025749208,0|0,1:0|0:0,0:0:0:0:
281,157,43712,6,0,B|258:99|292:48|292:48|258:86|206:77,1,202.500007724762,0|0,1:1|0:0,0:0:0:0:
6,32,44012,6,0,P|12:106|44:34,1,202.500007724762,0|0,1:1|0:1,0:0:0:0:
164,332,44312,6,0,B|144:287|144:287|153:247|153:247|125:214|125:214|146:148,1,202.500007724762,0|0,1:1|0:1,0:0:0:0:
296,281,44612,2,0,P|263:283|229:270,1,67.5000025749208,8|0,0:0|0:0,0:0:0:0:
35,230,44762,1,0,3:2:0:0:
35,230,44837,1,0,3:2:0:0:
35,230,44912,2,0,P|68:232|101:219,1,67.5000025749208,0|0,3:0|0:0,0:0:0:0:
187,12,45062,2,0,L|172:82,1,67.5000025749208,0|0,3:2|0:0,0:0:0:0:
346,196,45212,6,0,L|338:162,1,22.5,0|0,1:0|0:0,0:0:0:0:
144,311,45362,1,0,3:2:0:0:
144,311,45437,1,0,3:2:0:0:
144,311,45512,6,0,L|152:277,1,22.5,0|0,3:0|0:0,0:0:0:0:
240,195,45662,6,0,L|249:128,1,67.5000025749208,0|0,1:2|0:0,0:0:0:0:
357,360,45812,1,8,0:0:0:0:
357,360,45887,1,0,0:0:0:0:
357,360,45962,2,0,L|347:293,1,67.5000025749208,0|0,1:2|0:0,0:0:0:0:
298,123,46112,6,0,L|226:130,1,49.5000015106202,8|0,1:0|0:0,0:0:0:0:
139,142,46262,2,0,L|67:149,1,49.5000015106202,8|0,1:0|0:0,0:0:0:0:
99,262,46412,6,0,L|197:254,1,99.0000030212403,0|2,1:0|0:2,0:0:0:0:
26,192,46712,1,10,0:2:0:0:
32,384,46862,2,0,P|3:344|10:295,1,99.0000030212403,0|2,1:0|0:2,0:0:0:0:
203,61,47162,1,10,0:2:0:0:
197,253,47312,2,0,P|226:213|219:164,1,99.0000030212403,0|2,1:0|0:2,0:0:0:0:
132,337,47612,5,10,0:2:0:0:
345,340,47762,2,0,L|246:347,1,99.0000030212403,0|2,1:0|0:2,0:0:0:0:
220,166,48062,1,10,0:2:0:0:
339,260,48212,1,0,1:0:0:0:
465,96,48362,6,0,L|459:149,1,53.9999983520508,10|0,0:1|0:0,0:0:0:0:
388,47,48512,6,0,L|382:105,1,58.4999973220826,2|0,1:1|0:0,0:0:0:0:
313,0,48662,6,0,L|306:66,1,62.9999980773926,2|0,1:1|0:0,0:0:0:0:
112,172,48812,6,0,L|219:166,1,107.999996704102,2|0,1:1|0:0,0:0:0:0:
168,378,49112,2,0,P|139:333|149:281,1,107.999996704102,8|2,0:1|0:3,0:0:0:0:
369,336,49412,2,0,P|388:317|395:292,1,53.9999983520508,0|0,0:0|0:0,0:0:0:0:
281,190,49562,2,0,P|279:216|291:240,1,53.9999983520508,2|0,1:2|0:0,0:0:0:0:
484,125,49712,2,0,B|407:116|407:116|380:132,1,107.999996704102,8|2,0:0|0:3,0:0:0:0:
79,110,50012,6,0,L|132:103,1,53.9999983520508,0|0,1:0|0:0,0:0:0:0:
276,75,50162,1,2,0:2:0:0:
225,238,50312,2,0,L|218:184,1,53.9999983520508,8|0,0:0|0:0,0:0:0:0:
190,41,50462,1,2,0:3:0:0:
36,209,50612,2,0,L|50:260,1,53.9999983520508,0|0,0:0|0:0,0:0:0:0:
129,369,50762,2,0,L|147:305,1,53.9999983520508,2|0,1:1|0:0,0:0:0:0:
261,216,50912,2,0,P|245:266|265:315,1,107.999996704102,8|2,0:1|1:1,0:0:0:0:
423,154,51212,6,0,B|350:140|350:140|318:158,1,107.999996704102,2|2,1:1|0:2,0:0:0:0:
350,376,51512,2,0,P|377:330|371:278,1,107.999996704102,10|2,0:2|0:3,0:0:0:0:
93,281,51812,2,0,L|76:230,1,53.9999983520508
199,101,51962,2,0,L|191:163,1,53.9999983520508,2|0,1:2|0:0,0:0:0:0:
288,267,52112,2,0,P|237:251|187:267,1,107.999996704102,8|2,0:0|0:3,0:0:0:0:
511,173,52412,6,0,L|458:166,1,53.9999983520508,0|0,1:0|0:0,0:0:0:0:
314,138,52562,1,2,0:2:0:0:
365,301,52712,2,0,L|372:247,1,53.9999983520508,8|0,0:0|0:0,0:0:0:0:
400,104,52862,1,2,1:3:0:0:
239,345,53012,6,0,L|222:280,1,62.9999980773926,8|0,0:0|0:0,0:0:0:0:
115,222,53162,2,0,L|96:289,1,62.9999980773926,2|0,1:1|0:0,0:0:0:0:
314,138,53312,6,0,P|312:212|282:152,1,188.999994232178,8|2,0:1|0:1,0:0:0:0:
424,92,53612,5,8,0:0:0:0:
443,241,53762,1,2,1:1:0:0:
420,102,53912,1,8,0:0:0:0:
439,251,54062,1,2,1:1:0:0:
416,112,54212,6,0,L|419:150,1,22.5,8|0,0:0|0:0,0:0:0:0:
435,261,54362,1,2,1:1:0:0:
204,217,54512,2,0,P|239:207|275:213,1,72,4|0,0:3|1:0,0:0:0:0:
325,278,54737,1,0,1:0:0:0:
326,294,54812,5,8,0:0:0:0:
303,116,54962,1,2,1:1:0:0:
330,282,55112,1,8,0:0:0:0:
308,104,55262,1,2,1:1:0:0:
335,270,55412,6,0,L|332:232,1,22.5,8|0,0:0|0:0,0:0:0:0:
312,92,55562,2,0,L|315:130,1,22.5,2|0,1:1|0:0,0:0:0:0:
483,138,55712,2,0,P|448:148|411:141,1,67.5,2|0,3:1|0:1,0:0:0:0:
406,350,56012,6,0,P|426:323|431:290,1,67.5000025749208,2|0,1:2|1:0,0:0:0:0:
308,206,56162,2,0,P|309:239|328:267,1,67.5000025749208,2|0,1:2|1:0,0:0:0:0:
237,361,56312,6,0,L|222:293,1,67.5000025749208,2|0,1:2|1:0,0:0:0:0:
139,186,56462,2,0,L|124:251,1,67.5000025749208,2|0,1:2|1:0,0:0:0:0:
70,367,56612,5,2,3:2:0:0:
43,366,56687,1,0,3:0:0:0:
24,345,56762,1,2,3:2:0:0:
21,319,56837,1,0,3:0:0:0:
36,297,56912,1,2,3:2:0:0:
64,290,56987,1,0,3:0:0:0:
87,302,57062,1,2,3:2:0:0:
101,327,57137,1,0,3:0:0:0:
92,353,57212,6,0,L|21:368,1,72,0|0,0:0|0:0,0:0:0:0:
212,324,57662,1,0,0:0:0:0:
343,298,57962,1,0,0:0:0:0:
474,272,58262,1,0,0:0:0:0:
474,272,58412,5,4,0:3:0:0:
256,192,63212,12,2,67562,0:0:0:0:
290,223,67712,6,0,L|282:290,1,53.9999983520508,8|0,1:0|0:0,0:0:0:0:
176,136,67862,2,0,L|184:203,1,53.9999983520508,8|0,1:0|0:0,0:0:0:0:
368,57,68012,6,0,B|296:47|296:47|260:67,1,107.999996704102,0|2,1:0|0:2,0:0:0:0:
425,248,68312,2,0,L|444:186,2,53.9999983520508,8|0|0,0:0|0:0|0:0,0:0:0:0:
265,326,68612,2,0,P|278:302|283:276,1,53.9999983520508,0|0,0:0|0:0,0:0:0:0:
93,177,68762,2,0,P|93:203|102:228,1,53.9999983520508,2|0,1:2|0:0,0:0:0:0:
323,167,68912,2,0,B|269:186|269:186|220:163,1,107.999996704102,8|2,0:0|0:2,0:0:0:0:
452,330,69212,6,0,P|416:344|371:336,1,80.9999975280763,0|0,1:0|0:0,0:0:0:0:
283,275,69362,2,0,P|247:261|202:268,1,80.9999975280763,2|0,0:2|0:0,0:0:0:0:
135,361,69512,6,0,L|127:333,1,22.5,8|0,0:0|0:0,0:0:0:0:
57,229,69662,2,0,L|50:250,1,22.5,0|10,0:0|0:2,0:0:0:0:
206,178,69812,5,0,0:0:0:0:
241,161,69887,2,0,L|260:98,1,53.9999983520508,0|2,0:0|1:2,0:0:0:0:
146,16,70037,1,0,0:0:0:0:
122,47,70112,2,0,L|127:79,6,26.9999991760254,8|0|0|0|2|0|0,0:0|0:0|0:0|0:0|0:2|0:0|0:0,0:0:0:0:
473,177,70412,6,0,B|417:166|417:166|364:196,1,107.999996704102,0|2,1:0|0:2,0:0:0:0:
395,361,70712,2,0,L|412:309,2,53.9999983520508,8|0|0,0:0|0:0|0:0,0:0:0:0:
77,260,71012,2,0,L|93:324,1,53.9999983520508,0|0,0:0|0:0,0:0:0:0:
204,154,71162,2,0,L|188:218,1,53.9999983520508,2|0,1:2|0:0,0:0:0:0:
281,321,71312,2,0,P|229:306|179:324,1,107.999996704102,10|2,0:1|0:2,0:0:0:0:
7,99,71612,6,0,L|60:97,1,53.9999983520508,0|0,1:0|0:0,0:0:0:0:
241,81,71762,1,2,0:2:0:0:
187,255,71912,2,0,L|185:201,1,53.9999983520508,8|0,0:0|0:0,0:0:0:0:
170,22,72062,1,2,1:2:0:0:
186,202,72212,6,0,L|184:148,1,53.9999983520508,8|0,0:0|0:0,0:0:0:0:
95,132,72362,2,0,L|93:78,1,53.9999983520508,2|0,1:2|0:1,0:0:0:0:
326,202,72512,2,0,L|327:148,1,53.9999983520508,8|0,0:0|0:0,0:0:0:0:
417,132,72662,2,0,L|418:78,1,53.9999983520508,2|0,0:2|0:0,0:0:0:0:
191,309,72812,6,0,L|185:197,1,107.999996704102,0|0,1:0|0:0,0:0:0:0:
23,191,73112,2,0,L|17:79,1,107.999996704102,0|0,1:0|0:0,0:0:0:0:
269,113,73412,2,0,L|263:1,1,107.999996704102,0|2,1:0|0:1,0:0:0:0:
77,280,73712,1,0,1:0:0:0:
320,224,73862,1,2,0:1:0:0:
320,224,73937,1,0,0:0:0:0:
320,224,74012,6,0,L|203:234,1,107.999996704102,0|0,1:0|0:0,0:0:0:0:
473,332,74312,2,0,L|356:342,1,107.999996704102,0|0,1:0|0:0,0:0:0:0:
509,105,74612,2,0,L|392:115,1,107.999996704102,0|2,1:0|1:1,0:0:0:0:
299,90,74837,1,0,1:0:0:0:
299,90,74912,1,0,1:0:0:0:
120,17,75062,2,0,L|126:73,1,53.9999983520508,2|0,1:1|1:0,0:0:0:0:
9,266,75212,6,0,L|63:261,1,53.9999983520508,0|0,1:0|0:0,0:0:0:0:
99,164,75362,2,0,L|153:169,1,53.9999983520508,2|0,1:2|0:0,0:0:0:0:
106,371,75512,6,0,L|173:363,1,62.9999980773926,0|0,1:0|0:0,0:0:0:0:
229,250,75662,2,0,L|296:258,1,62.9999980773926,2|0,1:2|0:1,0:0:0:0:
397,343,75812,5,0,1:0:0:0:
376,319,75887,1,0,1:0:0:0:
373,289,75962,1,2,1:2:0:0:
388,262,76037,1,0,1:0:0:0:
444,197,76112,5,0,1:0:0:0:
475,161,76187,1,0,1:0:0:0:
480,116,76262,1,2,1:2:0:0:
457,75,76337,1,0,1:0:0:0:
349,97,76412,6,0,P|295:67|373:39,1,188.999994232178,8|0,1:0|0:0,0:0:0:0:
238,288,76712,6,0,B|250:218|211:168|211:168|244:207|290:204,1,216,8|0,1:0|3:0,0:0:0:0:
381,287,77012,5,0,3:0:0:0:
363,282,77087,1,0,3:0:0:0:
346,278,77162,1,0,3:0:0:0:
328,273,77237,1,0,3:0:0:0:
419,365,77312,6,0,B|417:292|417:292|454:237|454:237|451:155,1,216,8|0,1:0|0:0,0:0:0:0:
511,28,77612,6,0,L|457:23,1,53.9999983520508,4|0,1:0|0:0,0:0:0:0:
375,110,77762,2,0,L|321:114,1,53.9999983520508,2|0,1:2|0:0,0:0:0:0:
263,22,77912,1,4,1:0:0:0:
209,25,77987,1,0,1:0:0:0:
155,28,78062,1,2,1:2:0:0:
101,32,78137,2,0,B|80:81|80:81|101:132,1,107.999996704102,2|0,1:2|1:0,0:0:0:0:
8,203,78362,2,0,P|34:211|60:204,1,53.9999983520508,2|0,1:0|0:0,0:0:0:0:
73,383,78512,2,0,P|67:357|47:338,1,53.9999983520508,12|0,1:0|0:0,0:0:0:0:
208,241,78662,2,0,P|189:259|184:285,1,53.9999983520508,2|0,1:0|0:0,0:0:0:0:
269,379,78812,6,0,L|280:326,1,53.9999983520508,4|0,1:0|0:0,0:0:0:0:
350,223,78962,2,0,L|361:275,1,53.9999983520508,2|0,1:2|0:0,0:0:0:0:
208,241,79112,1,4,1:0:0:0:
160,222,79187,1,0,1:0:0:0:
142,172,79262,1,2,1:2:0:0:
165,127,79337,2,0,P|177:75|160:24,1,107.999996704102,2|0,1:2|1:0,0:0:0:0:
289,172,79562,2,0,P|262:173|235:167,1,53.9999983520508,2|0,1:0|0:0,0:0:0:0:
68,81,79712,2,0,P|41:81|16:88,1,53.9999983520508,12|0,1:0|0:0,0:0:0:0:
78,250,79862,2,0,P|71:224|72:197,1,53.9999983520508,2|0,1:0|0:0,0:0:0:0:
245,114,80012,6,0,L|234:173,1,53.9999983520508,4|0,1:0|0:0,0:0:0:0:
362,244,80162,2,0,L|352:191,1,53.9999983520508,2|0,1:2|0:0,0:0:0:0:
384,57,80312,1,4,1:0:0:0:
436,58,80387,1,0,1:0:0:0:
471,96,80462,1,2,1:2:0:0:
466,149,80537,2,0,B|451:222|451:222|470:255,1,107.999996704102,2|0,1:2|1:0,0:0:0:0:
409,364,80762,2,0,P|408:332|395:309,1,53.9999983520508,2|0,1:1|0:0,0:0:0:0:
260,260,80912,2,0,P|263:290|279:312,1,53.9999983520508,12|0,1:0|0:0,0:0:0:0:
362,143,81062,2,0,P|366:173|357:198,1,53.9999983520508,2|0,1:1|0:0,0:0:0:0:
218,158,81212,6,0,L|236:107,1,53.9999983520508,4|0,1:0|0:0,0:0:0:0:
111,30,81362,2,0,L|129:80,1,53.9999983520508,2|0,1:2|0:0,0:0:0:0:
189,269,81512,1,4,1:0:0:0:
154,309,81587,1,0,1:0:0:0:
101,314,81662,1,2,1:2:0:0:
60,281,81737,2,0,P|49:256|50:229,1,53.9999983520508,2|4,1:2|0:1,0:0:0:0:
255,306,81887,1,0,1:0:0:0:
255,306,81962,2,0,L|239:362,1,53.9999983520508,0|0,1:0|1:0,0:0:0:0:
122,153,82112,6,0,B|120:180|120:180|126:200|126:200|122:253,1,80.9999975280763,12|0,1:0|0:0,0:0:0:0:
151,121,82412,6,0,L|148:182,1,53.9999983520508,4|0,1:0|0:0,0:0:0:0:
263,23,82562,2,0,L|260:84,1,53.9999983520508,2|0,1:2|0:0,0:0:0:0:
329,230,82712,1,4,1:0:0:0:
375,203,82787,1,0,1:0:0:0:
428,203,82862,1,2,1:2:0:0:
475,230,82937,2,0,P|455:177|474:130,1,107.999996704102,2|0,1:2|1:0,0:0:0:0:
410,330,83162,2,0,P|379:332|342:320,1,53.9999983520508,2|0,1:1|0:0,0:0:0:0:
298,149,83312,2,0,P|267:147|230:159,1,53.9999983520508,12|0,1:0|0:0,0:0:0:0:
201,328,83462,2,0,P|170:330|133:318,1,53.9999983520508,2|0,1:1|0:0,0:0:0:0:
31,189,83612,6,0,L|38:250,1,53.9999983520508,4|0,1:0|0:0,0:0:0:0:
140,88,83762,2,0,L|133:141,1,53.9999983520508,2|0,1:2|0:0,0:0:0:0:
201,328,83912,1,4,1:0:0:0:
207,274,83987,1,0,1:0:0:0:
214,220,84062,1,2,1:2:0:0:
218,161,84137,2,0,B|228:85|228:85|256:60,1,107.999996704102,2|0,1:2|1:0,0:0:0:0:
338,349,84362,2,0,P|353:329|354:299,1,53.9999983520508,2|0,1:1|0:0,0:0:0:0:
289,176,84512,2,0,P|298:199|323:214,1,53.9999983520508,12|0,1:0|0:0,0:0:0:0:
462,222,84662,2,0,P|437:218|411:232,1,53.9999983520508,2|0,1:1|0:0,0:0:0:0:
361,50,84812,6,0,L|366:105,1,53.9999983520508,4|0,1:0|0:0,0:0:0:0:
197,264,84962,2,0,L|201:210,1,53.9999983520508,2|0,1:2|0:0,0:0:0:0:
212,41,85112,1,4,1:0:0:0:
161,26,85187,1,0,1:0:0:0:
116,53,85262,1,2,1:2:0:0:
105,104,85337,2,0,P|121:151|107:212,1,107.999996704102,2|0,1:2|1:0,0:0:0:0:
49,313,85562,2,0,P|35:289|33:263,1,53.9999983520508,2|0,1:1|0:0,0:0:0:0:
218,161,85712,2,0,P|215:187|202:210,1,53.9999983520508,12|0,1:0|0:0,0:0:0:0:
164,360,85862,2,0,P|187:351|217:354,1,53.9999983520508,2|0,1:1|0:0,0:0:0:0:
332,181,86012,6,0,L|342:262,1,53.9999983520508,8|0,1:0|0:0,0:0:0:0:
354,153,86162,2,0,L|364:234,1,53.9999983520508,0|0,0:0|0:0,0:0:0:0:
376,125,86312,2,0,L|386:206,1,53.9999983520508,8|0,1:0|0:0,0:0:0:0:
398,97,86462,2,0,L|408:178,1,53.9999983520508,0|0,0:0|0:0,0:0:0:0:
404,290,86612,6,0,P|459:343|459:265,1,188.999994232178,8|0,1:0|0:0,0:0:0:0:
266,359,86912,6,0,B|279:302|248:251|248:251|274:288|324:283,1,188.999994232178,8|0,1:0|0:0,0:0:0:0:
472,60,87212,6,0,P|477:90|466:119,1,62.9999980773926,4|0,1:0|0:0,0:0:0:0:
324,201,87362,2,0,P|313:172|319:142,1,62.9999980773926,2|0,1:2|0:0,0:0:0:0:
341,40,87512,1,12,1:0:0:0:
286,11,87587,1,0,1:0:0:0:
226,27,87662,1,2,1:2:0:0:
192,77,87737,2,0,P|172:139|194:195,1,125.999996154785,2|0,1:2|1:0,0:0:0:0:
186,292,87962,2,0,P|161:272|130:269,1,62.9999980773926,2|0,1:1|0:0,0:0:0:0:
10,383,88112,2,0,P|38:371|57:346,1,62.9999980773926,12|0,1:0|0:0,0:0:0:0:
21,186,88262,2,0,P|16:216|28:245,1,62.9999980773926,2|0,1:1|0:0,0:0:0:0:
123,175,88412,6,0,L|105:114,1,62.9999980773926,4|0,1:0|0:0,0:0:0:0:
235,32,88562,2,0,L|217:93,1,62.9999980773926,2|0,1:2|0:0,0:0:0:0:
241,191,88712,1,12,1:0:0:0:
295,160,88787,1,0,1:0:0:0:
357,161,88862,1,2,1:2:0:0:
410,194,88937,2,0,P|385:137|409:80,1,125.999996154785,2|0,1:2|1:0,0:0:0:0:
427,343,89162,2,0,P|401:318|369:313,1,62.9999980773926,2|0,1:1|0:0,0:0:0:0:
270,273,89312,2,0,P|254:305|260:337,1,62.9999980773926,12|0,1:0|0:0,0:0:0:0:
410,194,89462,2,0,P|378:204|347:195,1,62.9999980773926,2|0,1:1|0:0,0:0:0:0:
185,156,89612,6,0,L|200:221,1,62.9999980773926,4|0,1:0|0:0,0:0:0:0:
326,74,89762,2,0,L|311:135,1,62.9999980773926,2|0,1:2|0:0,0:0:0:0:
214,30,89912,1,12,1:0:0:0:
158,4,89987,1,0,1:0:0:0:
101,25,90062,1,2,1:2:0:0:
76,81,90137,2,0,P|95:139|81:200,1,125.999996154785,2|0,1:2|1:0,0:0:0:0:
8,325,90362,2,0,L|76:311,1,62.9999980773926,2|0,1:1|0:0,0:0:0:0:
280,220,90512,2,0,L|212:206,1,62.9999980773926,12|0,1:0|0:0,0:0:0:0:
172,384,90662,2,0,P|181:354|172:321,1,62.9999980773926,2|0,1:1|0:0,0:0:0:0:
154,146,90812,6,0,L|180:83,1,62.9999980773926,4|0,1:0|0:0,0:0:0:0:
274,18,90962,2,0,L|298:76,1,62.9999980773926,2|0,1:2|0:0,0:0:0:0:
355,231,91112,1,12,1:0:0:0:
414,239,91187,1,0,1:0:0:0:
456,195,91262,1,2,1:2:0:0:
444,136,91337,2,0,P|423:74|457:18,1,125.999996154785,2|0,1:2|1:0,0:0:0:0:
228,175,91562,2,0,L|290:166,1,62.9999980773926,0|0,1:0|0:0,0:0:0:0:
336,348,91712,6,0,L|303:346,1,31.4999990386963,0|0,1:0|0:0,0:0:0:0:
382,237,91862,2,0,L|414:238,1,31.4999990386963,0|0,1:0|0:0,0:0:0:0:
140,240,92012,6,0,P|157:263|178:240,1,67.5,4|0,1:0|0:0,0:0:0:0:
97,325,92312,6,0,P|158:349|228:313,1,135.000005149842,12|0,1:0|0:0,0:0:0:0:
384,76,92612,6,0,P|367:99|346:76,1,67.5,4|0,1:1|0:1,0:0:0:0:
427,161,92912,6,0,P|366:185|296:149,1,135.000005149842,12|2,1:0|1:1,0:0:0:0:
28,211,93212,6,0,B|53:186|53:186|25:170,1,67.5,4|0,1:0|0:0,0:0:0:0:
119,246,93512,6,0,P|143:183|116:118,1,135.000005149842,12|0,1:0|0:0,0:0:0:0:
478,219,93812,6,0,B|453:194|453:194|481:178,1,67.5,4|0,1:1|0:1,0:0:0:0:
376,274,94112,6,0,L|372:196,1,67.5000025749208,12|0,1:0|0:0,0:0:0:0:
367,104,94262,2,0,L|363:26,1,67.5000025749208,2|0,1:1|0:0,0:0:0:0:
69,226,94412,5,4,1:0:0:0:
275,151,94562,1,2,1:2:0:0:
153,332,94712,1,12,1:0:0:0:
145,114,94862,1,2,1:2:0:0:
281,287,95012,6,0,L|296:218,1,58.4999973220826,4|0,1:0|1:0,0:0:0:0:
316,135,95162,2,0,L|331:66,1,58.4999973220826,2|0,1:1|1:0,0:0:0:0:
490,278,95312,6,0,L|475:209,1,49.5000015106202,12|0,1:0|1:0,0:0:0:0:
455,151,95462,2,0,L|440:82,1,49.5000015106202,2|0,1:1|1:0,0:0:0:0:
377,381,95612,6,0,B|385:317|355:268|355:268|382:300|428:299,1,188.999994232178,8|0,1:0|0:0,0:0:0:0:
229,139,95912,6,0,P|235:178|288:106,1,216,8|0,1:0|1:0,0:0:0:0:
223,320,96212,5,0,3:0:0:0:
188,310,96287,1,0,3:0:0:0:
153,320,96362,1,0,3:0:0:0:
118,310,96437,1,0,3:0:0:0:
83,320,96512,6,0,L|76:275,1,45,8|0,1:0|0:0,0:0:0:0:
176,221,96662,2,0,L|183:176,1,45,0|0,0:0|0:0,0:0:0:0:
19,115,96812,6,0,B|69:129|69:129|122:113,1,107.999996704102,0|0,1:0|0:0,0:0:0:0:
310,9,97112,2,0,L|301:66,2,53.9999983520508,8|0|0,0:0|0:0|0:0,0:0:0:0:
358,292,97412,2,0,P|375:271|376:245,1,53.9999983520508,0|0,1:0|0:0,0:0:0:0:
257,161,97562,2,0,P|258:187|275:207,1,53.9999983520508,2|0,0:2|0:0,0:0:0:0:
465,136,97712,2,0,P|414:119|363:133,1,107.999996704102,8|2,0:0|0:2,0:0:0:0:
63,211,98012,6,0,L|123:197,1,53.9999983520508,0|0,1:0|0:0,0:0:0:0:
257,161,98162,1,0,0:0:0:0:
230,308,98312,2,0,L|216:248,1,53.9999983520508,8|0,0:0|0:0,0:0:0:0:
184,119,98462,1,0,0:0:0:0:
400,266,98612,6,0,L|329:281,2,71.9999978027344,0|2|2,1:0|0:2|0:2,0:0:0:0:
432,84,98912,2,0,P|400:84|351:103,1,53.9999983520508,8|0,0:0|0:0,0:0:0:0:
287,209,99062,2,0,P|255:209|206:190,1,53.9999983520508,2|0,1:2|0:0,0:0:0:0:
187,18,99212,6,0,P|168:70|186:122,1,107.999996704102,0|0,1:0|0:0,0:0:0:0:
26,289,99512,2,0,L|86:278,2,53.9999983520508,8|0|0,0:0|0:0|0:0,0:0:0:0:
168,306,99812,2,0,L|178:253,1,53.9999983520508,0|0,1:0|0:0,0:0:0:0:
34,121,99962,2,0,L|44:173,1,53.9999983520508,2|0,0:2|0:0,0:0:0:0:
279,124,100112,2,0,B|208:142|208:142|173:121,1,107.999996704102,8|2,0:0|0:2,0:0:0:0:
265,320,100412,5,0,1:0:0:0:
392,179,100562,2,0,P|365:172|340:180,1,53.9999983520508,0|0,0:0|0:0,0:0:0:0:
395,358,100712,2,0,P|428:316|414:260,1,107.999996704102,8|0,0:0|1:0,0:0:0:0:
360,73,101012,1,0,1:0:0:0:
116,202,101162,1,2,1:2:0:0:
116,202,101237,1,0,1:0:0:0:
116,202,101312,2,0,L|190:193,1,53.9999983520508,8|0,0:0|0:0,0:0:0:0:
340,180,101462,1,2,1:2:0:0:
264,342,101612,6,0,B|242:270|242:270|260:234,1,107.999996704102,0|0,1:0|0:0,0:0:0:0:
450,277,101912,2,0,L|393:301,2,53.9999983520508,8|0|0,0:0|0:0|0:0,0:0:0:0:
487,130,102212,2,0,L|497:77,1,53.9999983520508,0|0,1:0|0:0,0:0:0:0:
317,24,102362,2,0,L|330:89,1,53.9999983520508,2|0,0:2|0:0,0:0:0:0:
395,215,102512,2,0,P|341:199|289:219,1,107.999996704102,8|2,0:0|0:2,0:0:0:0:
141,362,102812,6,0,P|124:332|124:297,1,53.9999983520508,0|0,1:0|0:0,0:0:0:0:
150,102,102962,1,0,0:0:0:0:
260,171,103112,2,0,P|243:201|212:218,1,53.9999983520508,8|0,0:0|0:0,0:0:0:0:
31,293,103262,1,0,0:0:0:0:
35,164,103412,6,0,P|75:167|110:201,2,71.9999978027344,0|2|2,1:0|0:2|0:2,0:0:0:0:
192,307,103712,2,0,L|252:296,1,53.9999983520508,8|0,0:0|0:0,0:0:0:0:
312,179,103862,2,0,L|251:168,1,53.9999983520508,2|0,1:2|0:0,0:0:0:0:
376,368,104012,6,0,B|402:317|402:317|385:269,1,107.999996704102,0|0,1:0|0:0,0:0:0:0:
490,93,104312,2,0,L|475:158,2,53.9999983520508,8|0|0,0:0|0:0|1:0,0:0:0:0:
259,170,104612,2,0,L|271:222,1,53.9999983520508,0|0,1:0|0:0,0:0:0:0:
103,328,104762,1,2,0:2:0:0:
103,328,104837,1,0,1:0:0:0:
103,328,104912,2,0,L|115:275,1,53.9999983520508,8|0,0:0|0:0,0:0:0:0:
311,328,105062,2,0,B|258:343|258:343|208:326,1,107.999996704102,2|0,1:2|0:0,0:0:0:0:
31,115,105362,5,0,3:0:0:0:
44,114,105437,1,0,3:0:0:0:
57,114,105512,1,0,3:0:0:0:
71,113,105587,1,0,3:0:0:0:
84,113,105662,1,0,3:0:0:0:
98,112,105737,1,0,3:0:0:0:
111,112,105812,1,0,3:0:0:0:
125,111,105887,1,0,3:0:0:0:
138,111,105962,1,0,3:0:0:0:
152,110,106037,1,0,3:0:0:0:
165,110,106112,1,8,1:0:0:0:
294,18,106262,1,0,0:0:0:0:
454,158,106412,6,0,L|328:150,1,125.999996154785,0|0,1:0|0:0,0:0:0:0:
78,337,106712,2,0,L|203:329,1,125.999996154785,8|0,0:0|0:0,0:0:0:0:
184,37,107012,2,0,L|171:98,1,62.9999980773926,0|0,1:0|0:0,0:0:0:0:
37,205,107162,2,0,L|21:124,1,62.9999980773926,2|0,0:1|0:0,0:0:0:0:
252,211,107312,2,0,B|170:237|170:237|126:209,1,125.999996154785,8|2,0:0|0:1,0:0:0:0:
494,267,107612,6,0,L|427:251,1,62.9999980773926,0|0,1:0|0:0,0:0:0:0:
252,211,107762,1,0,0:0:0:0:
283,346,107912,2,0,L|299:280,1,62.9999980773926,8|0,0:0|0:0,0:0:0:0:
339,104,108062,1,0,0:0:0:0:
495,143,108212,6,0,L|403:158,2,83.9999974365235,0|2|2,1:0|0:2|0:2,0:0:0:0:
322,285,108512,2,0,L|340:220,1,62.9999980773926,8|0,0:0|0:0,0:0:0:0:
171,89,108662,2,0,L|188:149,1,62.9999980773926,2|0,1:1|0:0,0:0:0:0:
409,73,108812,6,0,B|345:53|345:53|283:73,1,125.999996154785,0|0,1:0|0:0,0:0:0:0:
100,280,109112,2,0,B|164:300|164:300|226:280,1,125.999996154785,8|0,0:0|0:0,0:0:0:0:
471,163,109412,2,0,L|391:178,1,62.9999980773926,0|0,1:0|0:0,0:0:0:0:
312,286,109562,2,0,L|392:301,1,62.9999980773926,2|0,0:1|0:0,0:0:0:0:
474,355,109712,2,0,B|482:263|482:263|456:235,1,125.999996154785,8|2,0:0|0:1,0:0:0:0:
215,331,110012,5,0,1:0:0:0:
157,81,110162,2,0,L|151:143,1,62.9999980773926,2|2,0:2|0:2,0:0:0:0:
369,194,110312,2,0,B|282:180|282:180|249:198,1,125.999996154785,8|2,0:0|1:2,0:0:0:0:
107,329,110612,2,0,L|115:266,1,62.9999980773926,0|0,1:0|0:0,0:0:0:0:
5,177,110762,1,2,1:2:0:0:
5,177,110837,1,2,1:2:0:0:
5,177,110912,2,0,L|69:169,1,62.9999980773926,8|0,0:0|0:0,0:0:0:0:
186,33,111062,2,0,L|122:25,1,62.9999980773926,2|0,1:2|0:0,0:0:0:0:
165,162,111212,6,0,L|290:177,1,125.999996154785,0|0,1:0|0:0,0:0:0:0:
254,327,111512,2,0,L|379:342,1,125.999996154785,8|2,0:0|0:1,0:0:0:0:
377,65,111812,2,0,L|502:80,1,125.999996154785,0|2,1:0|0:1,0:0:0:0:
195,30,112112,1,8,0:0:0:0:
380,194,112262,1,2,0:1:0:0:
380,194,112337,1,0,0:0:0:0:
380,194,112412,6,0,L|254:209,1,125.999996154785,0|0,1:0|0:0,0:0:0:0:
273,357,112712,2,0,L|147:372,1,125.999996154785,8|2,0:0|0:1,0:0:0:0:
160,98,113012,2,0,L|34:113,1,125.999996154785,0|2,1:0|0:1,0:0:0:0:
371,62,113312,1,8,0:0:0:0:
431,319,113462,1,2,1:1:0:0:
431,319,113537,1,0,0:0:0:0:
431,319,113612,6,0,B|443:232|443:232|401:252,1,125.999996154785,0|2,1:0|0:2,0:0:0:0:
335,324,113837,1,0,0:0:0:0:
327,337,113912,2,0,P|290:340|240:324,1,62.9999980773926,8|0,0:0|0:0,0:0:0:0:
248,137,114062,2,0,P|211:134|161:150,1,62.9999980773926,2|0,1:1|0:0,0:0:0:0:
89,323,114212,2,0,B|95:266|66:213|66:213|94:241|139:245,1,188.999994232178,0|0,1:0|1:1,0:0:0:0:
348,87,114512,2,0,L|337:149,1,62.9999980773926,8|0,0:0|0:0,0:0:0:0:
222,275,114662,2,0,L|209:200,1,62.9999980773926,2|0,1:1|0:0,0:0:0:0:
447,231,114812,6,0,B|429:286|429:286|362:298,1,96,4|2,0:3|0:3,0:0:0:0:
287,197,115112,2,0,B|343:185|343:185|387:237,1,96,4|2,0:3|0:3,0:0:0:0:
336,352,115412,2,0,B|297:308|297:308|320:244,1,96,4|2,0:3|0:3,0:0:0:0:
364,101,115712,5,8,1:0:0:0:
452,355,115862,1,8,1:0:0:0:
