osu file format v14

[General]
AudioFilename: audio.mp3
AudioLeadIn: 0
PreviewTime: 18962
Countdown: 0
SampleSet: Soft
StackLeniency: 0.3
Mode: 0
LetterboxInBreaks: 0
WidescreenStoryboard: 0

[Editor]
DistanceSpacing: 2.3
BeatDivisor: 8
GridSize: 16
TimelineZoom: 2.5

[Metadata]
Title:Fox4-Raize-
TitleUnicode:Fox4-Raize-
Artist:Getty vs. DJ DiA
ArtistUnicode:Getty vs. DJ DiA
Creator:Kaifin
Version:Kamal's Special Extra
Source:SOUND VOLTEX III GRAVITY WARS
Tags:sdvx xilver bonzi VINXIS Doormat The 4th KAC Original Song Contest オリジナル楽曲コンテスト PSYCHO†HOLIC Pumpcore
BeatmapID:1081292
BeatmapSetID:482552

[Difficulty]
HPDrainRate:6
CircleSize:2.7
OverallDifficulty:9
ApproachRate:9.5
SliderMultiplier:1.8
SliderTickRate:1

[Events]
//Background and Video events
0,0,"foxraizebghighrez.jpg",0,0
//Break Periods
2,1462,2687
2,6262,7487
2,58612,62687
//Storyboard Layer 0 (Background)
//Storyboard Layer 1 (Fail)
//Storyboard Layer 2 (Pass)
//Storyboard Layer 3 (Foreground)
//Storyboard Sound Samples

[TimingPoints]
812,300,4,2,2,70,1,0
5012,-200,4,2,2,70,0,0
5612,-100,4,2,2,70,0,0
9812,-200,4,2,2,70,0,0
10412,-111.111111111111,4,2,2,70,0,0
17612,-83.3333333333333,4,2,2,70,0,0
20012,-125,4,2,2,70,0,0
20312,-62.5,4,2,2,70,0,0
21212,-100,4,2,2,70,0,0
21512,-62.5,4,2,2,70,0,0
21812,-71.4285714285714,4,2,2,70,0,0
22412,-100,4,2,2,70,0,0
22712,-62.5,4,2,2,70,0,0
24512,-55.5555555555556,4,2,2,70,0,0
24812,-125,4,2,2,70,0,0
25112,-62.5,4,2,2,70,0,0
26012,-100,4,2,2,70,0,0
26312,-62.5,4,2,2,70,0,0
26612,-71.4285714285714,4,2,2,70,0,0
27212,-100,4,2,2,70,0,0
27812,-83.3333333333333,4,2,2,70,0,0
28412,-125,4,2,2,70,0,0
28562,-100,4,2,2,70,0,0
28712,-83.3333333333333,4,2,2,70,0,0
28862,-71.4285714285714,4,2,2,70,0,0
29012,-62.5,4,2,2,70,0,0
29162,-55.5555555555556,4,2,2,70,0,0
29312,-71.4285714285714,4,2,2,70,0,0
32612,-62.5,4,2,2,70,0,0
32912,-62.5,4,2,2,70,0,0
33062,-55.5555555555556,4,2,2,70,0,0
33812,-55.5555555555556,4,2,2,70,0,0
34412,-83.3333333333333,4,2,2,70,0,0
34712,-71.4285714285714,4,2,2,70,0,0
35612,-83.3333333333333,4,2,2,70,0,0
35912,-71.4285714285714,4,2,2,70,0,0
36812,-62.5,4,2,2,70,0,0
37112,-55.5555555555556,4,2,2,70,0,0
38012,-83.3333333333333,4,2,2,70,0,0
38537,-83.3333333333333,4,2,3,70,0,0
38912,-83.3333333333333,4,2,2,70,0,0
39212,-125,4,2,3,70,0,0
39812,-55.5555555555556,4,2,3,70,0,0
41312,-76.9230769230769,4,2,3,70,0,0
41612,-125,4,2,3,70,0,0
42212,-55.5555555555556,4,2,3,70,0,0
43712,-76.9230769230769,4,2,3,70,0,0
44012,-52.6315789473684,4,2,3,70,0,0
44612,-55.5555555555556,4,2,3,70,0,0
45212,-62.5,4,2,3,70,0,0
46112,-83.3333333333333,4,2,2,70,0,0
46412,-100,4,2,2,70,0,0
48212,-71.4285714285714,4,2,2,70,0,0
48512,-62.5,4,2,2,70,0,0
48662,-55.5555555555556,4,2,2,70,0,0
48812,-83.3333333333333,4,2,3,70,0,0
49112,-71.4285714285714,4,2,3,70,0,0
57212,-111.111111111111,4,2,4,70,0,0
58412,-111.111111111111,4,2,2,70,0,0
63212,-125,4,2,2,70,0,0
68012,-111.111111111111,4,2,2,70,0,0
75212,-83.3333333333333,4,2,2,70,0,0
76937,-83.3333333333333,4,2,3,70,0,0
77312,-62.5,4,2,2,70,0,0
86012,-111.111111111111,4,2,2,70,0,0
86312,-125,4,2,2,70,0,0
86612,-142.857142857143,4,2,2,70,0,0
87212,-58.8235294117647,4,2,2,70,0,0
95612,-111.111111111111,4,2,2,70,0,0
95912,-125,4,2,2,70,0,0
96212,-71.4285714285714,4,2,3,70,0,0
96512,-71.4285714285714,4,2,2,70,0,0
96812,-100,4,2,2,70,0,0
97112,-62.5,4,2,2,70,0,0
98012,-100,4,2,2,70,0,0
98312,-62.5,4,2,2,70,0,0
98612,-71.4285714285714,4,2,2,70,0,0
99212,-100,4,2,2,70,0,0
99662,-62.5,4,2,2,70,0,0
100412,-55.5555555555556,4,2,2,70,0,0
101612,-100,4,2,2,70,0,0
102062,-62.5,4,2,2,70,0,0
102812,-100,4,2,2,70,0,0
103112,-62.5,4,2,2,70,0,0
104012,-100,4,2,2,70,0,0
104312,-62.5,4,2,2,70,0,0
105362,-62.5,4,2,3,70,0,0
106112,-62.5,4,2,2,70,0,0
106412,-100,4,2,2,70,0,0
106862,-62.5,4,2,2,70,0,0
107612,-100,4,2,2,70,0,0
108062,-62.5,4,2,2,70,0,0
108812,-100,4,2,2,70,0,0
109262,-62.5,4,2,2,70,0,0
110012,-71.4285714285714,4,2,2,70,0,0
111212,-125,4,2,2,70,0,0
111662,-62.5,4,2,2,70,0,0
112412,-125,4,2,2,70,0,0
112862,-62.5,4,2,2,70,0,0
113612,-125,4,2,2,70,0,0
113912,-100,4,2,2,70,0,0
114212,-83.3333333333333,4,2,2,70,0,0
114512,-71.4285714285714,4,2,2,70,0,0
114812,-100,4,2,2,70,0,0

[Colours]
Combo1 : 175,116,175
Combo2 : 38,147,143
Combo3 : 30,185,26
Combo4 : 255,26,31

[HitObjects]
405,254,812,5,0,1:0:0:0:
405,254,1037,1,0,1:0:0:0:
405,254,1262,1,0,1:0:0:0:
405,130,3212,5,0,1:0:0:0:
405,130,3437,1,0,1:0:0:0:
405,130,3662,1,0,1:0:0:0:
404,255,5012,6,0,B|388:283|388:283|330:233|260:278,1,157.5,0|0,1:0|0:0,0:0:0:0:
214,360,5612,5,0,1:0:0:0:
214,360,5837,1,0,1:0:0:0:
214,360,6062,1,0,1:0:0:0:
64,153,8012,5,0,1:0:0:0:
64,153,8237,1,0,1:0:0:0:
64,153,8462,1,0,1:0:0:0:
64,153,9812,6,0,B|80:180|80:180|138:130|208:175,1,157.5,0|0,1:0|0:0,0:0:0:0:
146,259,10412,6,0,L|187:261,1,40.4999987640381,0|0,1:0|0:0,0:0:0:0:
352,275,10562,1,0,0:0:0:0:
211,45,10712,5,8,0:0:0:0:
386,70,10862,1,0,0:0:0:0:
175,67,11012,6,0,L|161:4,1,40.4999987640381,0|0,0:0|0:0,0:0:0:0:
350,42,11162,2,0,L|336:-21,1,40.4999987640381,0|0,1:0|0:0,0:0:0:0:
289,180,11312,2,0,L|380:182,1,80.9999975280763,8|0,0:0|0:0,0:0:0:0:
252,360,11612,6,0,L|257:309,1,40.4999987640381,0|0,1:0|0:0,0:0:0:0:
171,107,11762,2,0,L|176:56,1,40.4999987640381,0|0,0:0|0:0,0:0:0:0:
167,248,11912,2,0,P|103:258|96:214,1,121.499996292114,8|8,0:0|0:0,0:0:0:0:
93,357,12212,6,0,P|112:362|132:363,1,40.4999987640381,0|0,0:0|0:0,0:0:0:0:
264,218,12362,2,0,P|283:212|303:211,1,40.4999987640381,0|0,1:0|0:0,0:0:0:0:
460,324,12512,2,0,L|481:328,6,20.2499993820191,8|0|0|0|0|0|0,0:0|0:0|0:0|0:0|0:0|0:0|0:0,0:0:0:0:
315,322,12812,5,0,1:0:0:0:
318,49,12962,1,0,0:0:0:0:
512,171,13112,5,8,0:0:0:0:
217,112,13262,1,0,0:0:0:0:
476,176,13412,6,0,L|422:175,1,40.4999987640381,0|0,0:0|0:0,0:0:0:0:
184,128,13562,2,0,L|130:129,1,40.4999987640381,0|0,1:0|0:0,0:0:0:0:
154,296,13712,6,0,L|208:297,1,40.4999987640381,10|0,0:1|0:0,0:0:0:0:
446,344,13862,2,0,L|500:343,1,40.4999987640381,0|0,0:0|0:0,0:0:0:0:
298,35,14012,6,0,L|310:156,1,121.499996292114,0|0,1:0|0:0,0:0:0:0:
313,197,14312,1,8,0:0:0:0:
170,16,14462,1,0,1:0:0:0:
39,221,14612,5,8,0:0:0:0:
196,49,14762,1,0,1:0:0:0:
193,372,14912,2,0,P|216:337|296:348,1,121.499996292114,8|0,0:0|0:0,0:0:0:0:
288,340,15212,5,0,1:0:0:0:
180,206,15362,1,0,0:0:0:0:
387,222,15512,5,0,1:0:0:0:
81,343,15662,1,2,0:2:0:0:
153,41,15812,6,0,L|201:37,1,40.4999987640381,0|0,1:0|0:0,0:0:0:0:
353,248,15962,2,0,L|312:244,1,40.4999987640381,2|0,0:2|0:0,0:0:0:0:
43,203,16112,5,2,1:2:0:0:
410,72,16262,1,2,1:2:0:0:
410,72,16337,1,0,1:0:0:0:
410,72,16412,6,0,L|271:74,1,121.499996292114,0|0,1:0|0:0,0:0:0:0:
289,73,16712,5,0,1:0:0:0:
273,369,16862,1,0,0:0:0:0:
428,179,17012,5,2,1:1:0:0:
118,282,17162,1,0,1:0:0:0:
118,282,17237,1,0,1:0:0:0:
118,282,17312,1,2,1:1:0:0:
289,74,17462,1,0,1:0:0:0:
289,74,17537,1,0,1:0:0:0:
289,74,17612,6,0,L|296:141,1,53.9999983520508,0|0,1:0|0:0,0:0:0:0:
118,282,17762,2,0,L|111:215,1,53.9999983520508,0|0,1:0|0:0,0:0:0:0:
302,265,17912,6,0,L|234:272,1,53.9999983520508,0|0,1:0|0:0,0:0:0:0:
98,86,18062,2,0,L|165:80,1,53.9999983520508,0|0,1:0|0:0,0:0:0:0:
431,55,18212,5,0,1:0:0:0:
70,211,18362,1,0,1:0:0:0:
297,30,18512,6,0,L|326:95,1,53.9999983520508,0|0,1:0|1:0,0:0:0:0:
238,326,18662,2,0,L|216:277,1,53.9999983520508,0|0,1:0|1:0,0:0:0:0:
267,174,18812,5,2,1:0:0:0:
267,174,19712,5,0,1:0:0:0:
267,174,19862,1,0,1:0:0:0:
36,44,20012,6,0,L|157:45,1,108,0|0,1:0|0:0,0:0:0:0:
188,46,20312,5,8,0:0:0:0:
143,321,20462,2,0,L|140:227,1,72,2|0,0:2|0:0,0:0:0:0:
393,220,20612,1,0,1:0:0:0:
33,148,20762,6,0,L|119:142,1,72,2|0,0:2|0:0,0:0:0:0:
455,121,20912,1,8,0:0:0:0:
295,277,21062,2,0,P|281:243|279:208,1,72,2|0,0:2|0:0,0:0:0:0:
316,42,21212,6,0,P|252:61|188:46,1,135,0|0,1:0|0:0,0:0:0:0:
188,46,21512,5,8,0:0:0:0:
451,228,21662,2,0,L|380:224,1,72,2|0,0:2|0:0,0:0:0:0:
201,167,21812,6,0,L|296:161,2,83.9999974365235,0|2|2,1:0|0:2|0:2,0:0:0:0:
109,254,22112,5,8,0:0:0:0:
92,0,22262,1,2,1:2:0:0:
112,295,22412,6,0,L|263:296,1,135,0|0,1:0|0:0,0:0:0:0:
275,295,22712,5,8,0:0:0:0:
370,48,22862,2,0,L|380:140,1,72,2|0,0:2|0:0,0:0:0:0:
395,332,23012,1,0,1:0:0:0:
201,167,23162,6,0,L|272:162,1,72,2|0,0:2|0:0,0:0:0:0:
510,138,23312,1,8,0:0:0:0:
275,295,23462,1,2,0:2:0:0:
64,74,23612,5,2,1:2:0:0:
67,84,23687,1,2,0:2:0:0:
70,94,23762,1,2,0:2:0:0:
73,104,23837,1,2,0:2:0:0:
76,114,23912,1,10,0:2:0:0:
79,124,23987,1,2,0:2:0:0:
82,134,24062,1,2,1:2:0:0:
85,144,24137,1,2,0:2:0:0:
95,168,24212,6,0,B|117:197|117:197|149:183,1,72,0|0,1:0|0:0,0:0:0:0:
218,28,24362,2,0,B|240:57|240:57|272:43,1,72,2|0,1:1|1:0,0:0:0:0:
314,272,24512,6,0,L|202:279,1,80.9999975280763,8|0,0:0|0:0,0:0:0:0:
415,100,24662,2,0,L|495:105,1,80.9999975280763,2|0,1:1|0:0,0:0:0:0:
457,313,24812,6,0,P|442:262|446:206,1,108,0|0,1:0|0:0,0:0:0:0:
445,207,25112,5,8,0:0:0:0:
313,376,25262,2,0,L|314:300,1,72,2|0,0:2|0:0,0:0:0:0:
321,102,25412,1,0,1:0:0:0:
87,220,25562,6,0,L|158:220,1,72,2|0,0:2|0:0,0:0:0:0:
428,230,25712,1,8,0:0:0:0:
216,57,25862,2,0,P|206:91|211:127,1,72,2|0,0:2|0:0,0:0:0:0:
454,102,26012,6,0,P|387:92|320:102,1,135,0|0,1:0|0:0,0:0:0:0:
321,102,26312,5,8,0:0:0:0:
211,380,26462,2,0,L|214:289,1,72,2|0,0:2|0:0,0:0:0:0:
327,140,26612,6,0,L|330:240,2,83.9999974365235,0|2|2,1:0|0:2|0:2,0:0:0:0:
122,211,26912,5,8,0:0:0:0:
333,349,27062,1,2,1:2:0:0:
81,186,27212,6,0,L|86:39,1,135,0|0,1:0|0:0,0:0:0:0:
90,18,27512,1,8,0:0:0:0:
232,198,27662,1,2,1:2:0:0:
235,90,27812,6,0,L|232:198,1,107.999996704102,0|2,1:0|1:2,0:0:0:0:
232,198,28037,1,0,1:0:0:0:
232,198,28112,2,0,L|143:206,1,53.9999983520508,8|0,0:0|0:0,0:0:0:0:
366,27,28262,1,2,1:2:0:0:
448,225,28412,6,0,L|385:227,1,36,8|0,0:3|0:0,0:0:0:0:
439,250,28562,6,0,L|376:252,1,45,4|0,0:3|0:0,0:0:0:0:
430,275,28712,6,0,L|367:277,1,53.9999983520508,4|0,0:3|0:0,0:0:0:0:
421,300,28862,6,0,L|358:302,1,62.9999980773926,8|0,0:3|0:0,0:0:0:0:
412,325,29012,6,0,L|339:323,1,72,4|0,0:3|0:0,0:0:0:0:
230,143,29162,6,0,L|312:145,1,80.9999975280763,4|0,0:3|0:0,0:0:0:0:
97,301,29312,6,0,B|80:240|80:240|109:184|109:184|88:112,1,188.999994232178,8|0,0:0|0:0,0:0:0:0:
81,87,29612,5,0,1:0:0:0:
222,254,29762,1,0,0:0:0:0:
279,31,29912,5,8,0:0:0:0:
212,282,30062,2,0,L|212:188,1,62.9999980773926,2|0,0:2|0:0,0:0:0:0:
437,137,30212,5,0,1:0:0:0:
210,120,30362,1,2,0:2:0:0:
438,285,30512,6,0,L|357:230,1,62.9999980773926,8|0,0:0|0:0,0:0:0:0:
180,103,30662,2,0,L|99:48,1,62.9999980773926,2|0,0:2|0:0,0:0:0:0:
159,363,30812,6,0,P|187:375|218:377,1,62.9999980773926,0|0,1:0|0:0,0:0:0:0:
393,157,30962,2,0,P|361:159|333:171,1,62.9999980773926,2|0,0:2|0:0,0:0:0:0:
274,279,31112,1,8,0:0:0:0:
267,34,31262,1,0,0:0:0:0:
53,232,31412,6,0,L|147:237,1,62.9999980773926,0|2,1:0|0:2,0:0:0:0:
403,265,31562,1,0,0:0:0:0:
403,265,31637,1,2,0:2:0:0:
403,265,31712,1,8,0:0:0:0:
251,377,31862,1,0,1:2:0:0:
257,124,32012,6,0,L|257:193,1,62.9999980773926,0|0,1:0|0:0,0:0:0:0:
115,172,32162,2,0,L|115:241,1,62.9999980773926,0|0,0:0|0:0,0:0:0:0:
399,172,32312,6,0,L|399:103,1,62.9999980773926,8|0,0:0|0:0,0:0:0:0:
257,124,32462,2,0,L|257:55,1,62.9999980773926,2|0,0:2|0:0,0:0:0:0:
257,284,32612,6,0,L|400:290,1,144,0|2,1:0|0:2,0:0:0:0:
161,259,32912,6,0,P|158:290|171:336,1,72,10|0,0:1|0:0,0:0:0:0:
356,173,33062,2,0,P|363:133|360:93,1,80.9999975280763,2|0,0:2|0:0,0:0:0:0:
96,146,33212,5,0,1:0:0:0:
266,293,33362,1,2,0:2:0:0:
266,293,33437,1,0,0:0:0:0:
266,293,33512,1,8,0:0:0:0:
263,73,33662,1,2,0:2:0:0:
266,293,33812,6,0,L|149:293,1,80.9999975280763,0|0,1:0|0:0,0:0:0:0:
263,73,33962,1,2,1:2:0:0:
263,73,34037,1,0,1:0:0:0:
263,73,34112,2,0,L|266:172,1,80.9999975280763,8|0,0:0|0:0,0:0:0:0:
99,227,34262,2,0,L|96:146,1,80.9999975280763,0|0,1:0|0:0,0:0:0:0:
347,224,34412,6,0,L|509:224,1,161.999995056153,0|0,1:0|0:0,0:0:0:0:
509,224,34712,5,8,0:0:0:0:
250,192,34862,2,0,P|246:237|256:273,1,62.9999980773926,2|0,0:1|0:0,0:0:0:0:
401,362,35012,5,0,1:0:0:0:
119,333,35162,2,0,L|199:341,1,62.9999980773926,2|0,0:1|0:0,0:0:0:0:
256,86,35312,6,0,L|168:97,1,62.9999980773926,8|0,0:0|0:0,0:0:0:0:
40,171,35462,2,0,L|128:182,1,62.9999980773926,0|0,0:0|0:0,0:0:0:0:
71,9,35612,6,0,P|45:48|112:32,1,161.999995056153,0|0,1:0|0:0,0:0:0:0:
200,192,35912,6,0,P|273:201|345:177,1,125.999996154785,8|2,0:2|0:1,0:0:0:0:
188,343,36212,5,2,1:2:0:0:
170,343,36287,1,2,0:2:0:0:
152,343,36362,1,2,0:1:0:0:
134,344,36437,1,2,0:2:0:0:
116,344,36512,1,10,0:2:0:0:
98,345,36587,1,2,0:2:0:0:
80,345,36662,1,2,1:2:0:0:
62,345,36737,1,2,0:2:0:0:
35,346,36812,6,0,P|35:298|38:265,1,72,0|0,1:0|0:0,0:0:0:0:
170,168,36962,2,0,P|168:114|167:87,1,72,0|0,0:0|0:0,0:0:0:0:
317,255,37112,6,0,L|320:337,1,80.9999975280763,8|0,0:0|0:0,0:0:0:0:
475,142,37262,2,0,L|483:222,1,80.9999975280763,2|0,1:1|0:0,0:0:0:0:
319,66,37412,5,0,1:0:0:0:
421,338,37562,1,2,0:1:0:0:
421,338,37637,1,0,1:0:0:0:
421,338,37712,1,8,0:0:0:0:
172,214,37862,1,0,1:0:0:0:
430,157,38012,5,8,1:0:0:0:
170,168,38162,1,0,0:0:0:0:
310,325,38312,2,0,L|186:326,1,107.999996704102,8|0,1:0|0:0,0:0:0:0:
66,329,38537,1,0,3:0:0:0:
66,329,38612,5,0,3:0:0:0:
65,275,38687,1,0,3:0:0:0:
65,221,38762,1,0,3:0:0:0:
64,167,38837,1,0,3:0:0:0:
64,113,38912,6,0,P|108:57|155:117,1,161.999995056153,8|0,1:0|0:0,0:0:0:0:
170,168,39212,6,0,B|230:167|230:167|268:139|268:139|314:176|314:176|346:159|346:159|408:157,1,252,2|0,1:1|0:0,0:0:0:0:
354,258,39812,6,0,P|315:269|276:259,1,80.9999975280763,8|0,0:2|0:0,0:0:0:0:
424,35,39962,2,0,L|432:130,1,80.9999975280763,0|0,3:0|3:0,0:0:0:0:
505,313,40112,2,0,L|499:233,1,80.9999975280763,0|0,3:0|0:0,0:0:0:0:
262,57,40262,2,0,L|268:137,1,80.9999975280763,0|0,3:2|0:0,0:0:0:0:
402,346,40412,6,0,P|364:357|324:354,1,80.9999975280763,0|0,1:0|0:0,0:0:0:0:
113,159,40562,2,0,L|121:254,1,80.9999975280763,0|0,3:2|0:2,0:0:0:0:
361,249,40712,2,0,L|355:169,1,80.9999975280763,0|0,3:0|0:0,0:0:0:0:
122,30,40862,2,0,P|81:25|43:36,1,80.9999975280763,0|0,0:2|0:0,0:0:0:0:
243,267,41012,5,8,0:0:0:0:
384,15,41162,1,0,1:0:0:0:
217,289,41312,2,0,L|216:94,1,175.499991966248,0|0,1:1|0:1,0:0:0:0:
384,119,41612,6,0,L|382:371,1,252,0|0,1:1|0:0,0:0:0:0:
492,313,42212,6,0,P|495:272|489:232,1,80.9999975280763,8|0,0:0|0:0,0:0:0:0:
244,212,42362,1,0,3:3:0:0:
244,212,42437,1,0,3:2:0:0:
244,212,42512,2,0,L|150:216,1,80.9999975280763,0|0,3:0|0:0,0:0:0:0:
398,97,42662,2,0,L|304:101,1,80.9999975280763,0|0,3:2|0:0,0:0:0:0:
68,174,42812,6,0,P|61:213|65:254,1,80.9999975280763,0|0,1:0|0:0,0:0:0:0:
349,258,42962,1,0,3:2:0:0:
349,258,43037,1,0,3:2:0:0:
349,258,43112,1,0,3:0:0:0:
267,73,43262,6,0,P|227:66|186:70,1,80.9999975280763,0|0,1:2|0:0,0:0:0:0:
185,354,43412,2,0,L|281:362,1,80.9999975280763,8|0,0:0|0:0,0:0:0:0:
68,174,43562,1,0,1:0:0:0:
391,256,43712,6,0,P|424:177|364:179,1,175.499991966248,0|0,1:1|0:0,0:0:0:0:
428,354,44012,6,0,B|369:367|329:339|329:339|290:360|290:360|237:333|185:354,1,256.499993150711,0|0,1:1|0:1,0:0:0:0:
230,232,44312,6,0,B|171:234|171:234|209:170|180:103|180:103|242:109,1,256.499993150711,0|0,1:1|0:1,0:0:0:0:
240,108,44612,5,8,0:0:0:0:
9,229,44762,1,0,3:2:0:0:
9,229,44837,1,0,3:2:0:0:
9,229,44912,2,0,L|89:230,1,80.9999975280763,0|0,3:0|0:0,0:0:0:0:
248,235,45062,2,0,L|328:236,1,80.9999975280763,0|0,3:2|0:0,0:0:0:0:
92,343,45212,5,0,1:0:0:0:
115,62,45362,1,0,3:2:0:0:
115,62,45437,1,0,3:2:0:0:
115,62,45512,1,0,3:0:0:0:
309,283,45662,1,0,1:2:0:0:
0,172,45812,5,8,0:0:0:0:
272,150,45962,1,0,1:2:0:0:
0,172,46112,2,0,L|177:157,1,161.999995056153,8|0,1:0|0:0,0:0:0:0:
217,239,46412,6,0,P|211:283|218:327,1,90,0|2,1:0|0:2,0:0:0:0:
377,154,46712,1,10,0:2:0:0:
223,58,46862,6,0,P|187:30|145:14,1,90,0|2,1:0|0:2,0:0:0:0:
218,239,47162,1,10,0:2:0:0:
377,154,47312,6,0,P|418:136|453:108,1,90,0|2,1:0|0:2,0:0:0:0:
223,58,47612,1,10,0:2:0:0:
309,283,47762,5,0,1:0:0:0:
339,0,47912,1,2,0:2:0:0:
121,183,48062,1,10,0:2:0:0:
464,207,48212,5,0,1:0:0:0:
114,80,48362,2,0,L|202:83,1,62.9999980773926,10|0,0:1|0:0,0:0:0:0:
262,265,48512,6,0,L|191:263,1,72,2|0,1:1|0:0,0:0:0:0:
347,101,48662,6,0,L|435:104,1,80.9999975280763,2|0,1:1|0:0,0:0:0:0:
469,317,48812,6,0,P|396:293|357:201,1,161.999995056153,2|0,1:1|0:0,0:0:0:0:
357,221,49112,5,8,0:1:0:0:
176,82,49262,2,0,L|265:88,1,62.9999980773926,2|0,0:3|0:0,0:0:0:0:
104,308,49412,2,0,P|94:277|94:246,1,62.9999980773926,0|0,0:0|0:0,0:0:0:0:
327,205,49562,1,2,1:2:0:0:
136,63,49712,1,8,0:0:0:0:
190,262,49862,2,0,L|191:199,1,62.9999980773926,2|0,0:3|0:0,0:0:0:0:
423,173,50012,6,0,P|426:204|423:235,1,62.9999980773926,0|0,1:0|0:0,0:0:0:0:
284,36,50162,2,0,L|370:42,1,62.9999980773926,2|0,0:2|0:0,0:0:0:0:
511,57,50312,1,8,0:0:0:0:
359,306,50462,2,0,P|328:309|297:306,1,62.9999980773926,2|0,0:3|0:0,0:0:0:0:
181,93,50612,1,0,0:0:0:0:
327,205,50762,1,2,1:1:0:0:
72,230,50912,1,8,0:1:0:0:
211,367,51062,1,2,1:1:0:0:
37,211,51212,5,2,1:1:0:0:
207,198,51362,1,2,0:2:0:0:
21,58,51512,1,10,0:2:0:0:
191,45,51662,1,2,0:3:0:0:
0,58,51812,6,0,P|-1:90|3:121,1,62.9999980773926
313,113,51962,1,2,1:2:0:0:
313,113,52037,1,0,0:0:0:0:
313,113,52112,1,8,0:0:0:0:
140,289,52262,1,2,0:3:0:0:
158,57,52412,6,0,P|187:46|219:44,1,62.9999980773926,0|0,1:0|0:0,0:0:0:0:
401,172,52562,1,2,0:2:0:0:
213,144,52712,1,8,0:0:0:0:
406,70,52862,2,0,P|436:76|465:89,1,62.9999980773926,2|0,1:3|0:0,0:0:0:0:
379,283,53012,1,8,0:0:0:0:
303,91,53162,1,2,1:1:0:0:
238,348,53312,2,0,L|31:353,1,188.999994232178,8|2,0:1|0:1,0:0:0:0:
49,352,53612,5,8,0:0:0:0:
230,187,53762,2,0,L|148:196,1,62.9999980773926,2|0,1:1|0:0,0:0:0:0:
27,215,53912,5,8,0:0:0:0:
365,97,54062,2,0,L|283:88,1,62.9999980773926,2|0,1:1|0:0,0:0:0:0:
112,65,54212,6,0,P|102:95|96:126,1,62.9999980773926,8|0,0:0|0:0,0:0:0:0:
184,301,54362,1,2,1:1:0:0:
309,295,54512,2,0,L|184:301,1,125.999996154785,4|0,0:3|1:0,0:0:0:0:
184,301,54737,1,0,1:0:0:0:
184,301,54812,5,8,0:0:0:0:
405,196,54962,2,0,L|424:275,1,62.9999980773926,2|0,1:1|0:0,0:0:0:0:
216,146,55112,5,8,0:0:0:0:
437,41,55262,2,0,L|456:120,1,62.9999980773926,2|0,1:1|0:0,0:0:0:0:
125,198,55412,6,0,P|113:168|112:137,1,62.9999980773926,8|0,0:0|0:0,0:0:0:0:
307,94,55562,2,0,P|318:123|319:154,1,62.9999980773926,2|0,1:1|0:0,0:0:0:0:
179,44,55712,2,0,L|375:58,1,188.999994232178,2|0,3:1|0:1,0:0:0:0:
437,41,56012,5,2,1:2:0:0:
439,96,56087,1,0,1:0:0:0:
442,151,56162,1,2,1:2:0:0:
444,206,56237,1,0,1:0:0:0:
447,261,56312,2,0,L|375:270,1,62.9999980773926,2|0,1:2|1:0,0:0:0:0:
196,79,56462,2,0,L|258:86,1,62.9999980773926,2|0,1:2|1:0,0:0:0:0:
174,328,56612,5,2,3:2:0:0:
128,338,56687,1,0,3:0:0:0:
81,331,56762,1,2,3:2:0:0:
41,307,56837,1,0,3:0:0:0:
12,270,56912,1,2,3:2:0:0:
0,225,56987,1,0,3:0:0:0:
4,178,57062,1,2,3:2:0:0:
26,136,57137,1,0,3:0:0:0:
61,106,57212,5,0,0:0:0:0:
132,209,57362,2,0,L|303:215,2,161.999995056153,0|0|0,0:0|0:0|0:0,0:0:0:0:
375,88,58262,1,0,0:0:0:0:
375,88,58412,5,4,0:3:0:0:
209,108,63212,6,0,L|440:110,1,216,2|0,0:0|0:0,0:0:0:0:
185,130,64412,6,0,L|416:132,1,216,2|0,0:0|0:0,0:0:0:0:
161,152,65612,6,0,L|392:154,1,216,2|0,0:0|0:0,0:0:0:0:
137,174,66812,6,0,L|368:176,1,216,4|0,0:3|0:0,0:0:0:0:
61,65,67712,5,8,1:0:0:0:
61,65,67862,1,8,1:0:0:0:
76,257,68012,6,0,L|122:252,1,40.4999987640381,0|0,1:0|0:0,0:0:0:0:
270,233,68162,1,2,0:2:0:0:
157,128,68312,5,8,0:0:0:0:
205,373,68462,1,0,0:0:0:0:
168,113,68612,6,0,L|223:114,1,40.4999987640381,0|0,0:0|0:0,0:0:0:0:
181,356,68762,2,0,L|126:355,1,40.4999987640381,2|0,1:2|0:0,0:0:0:0:
287,229,68912,2,0,L|374:232,1,80.9999975280763,8|2,0:0|0:2,0:0:0:0:
472,133,69212,6,0,L|470:92,1,40.4999987640381,0|0,1:0|0:0,0:0:0:0:
476,316,69362,2,0,L|474:275,1,40.4999987640381,2|0,0:2|0:0,0:0:0:0:
204,163,69512,2,0,P|162:187|196:240,1,121.499996292114,8|10,0:0|0:2,0:0:0:0:
77,254,69812,6,0,P|73:235|69:215,1,40.4999987640381,0|0,0:0|0:0,0:0:0:0:
308,167,69962,2,0,P|304:186|299:206,1,40.4999987640381,2|0,1:2|0:0,0:0:0:0:
160,56,70112,2,0,L|161:23,6,20.2499993820191,8|0|0|0|2|0|0,0:0|0:0|0:0|0:0|0:2|0:0|0:0,0:0:0:0:
279,37,70412,5,0,1:0:0:0:
392,69,70562,1,2,0:2:0:0:
203,160,70712,5,8,0:0:0:0:
441,179,70862,1,0,0:0:0:0:
127,283,71012,6,0,L|182:294,1,40.4999987640381,0|0,0:0|0:0,0:0:0:0:
339,198,71162,2,0,L|299:205,1,40.4999987640381,2|0,1:2|0:0,0:0:0:0:
274,356,71312,6,0,L|285:301,1,40.4999987640381,10|0,0:1|0:0,0:0:0:0:
189,144,71462,2,0,L|196:183,1,40.4999987640381,2|0,0:2|0:0,0:0:0:0:
300,30,71612,6,0,L|162:30,1,121.499996292114,0|0,1:0|0:0,0:0:0:0:
149,29,71912,1,8,0:0:0:0:
348,161,72062,1,2,1:2:0:0:
68,149,72212,5,8,0:0:0:0:
333,25,72362,1,2,1:2:0:0:
262,285,72512,2,0,P|315:271|373:304,1,121.499996292114,8|0,0:0|0:0,0:0:0:0:
381,322,72812,5,0,1:0:0:0:
122,317,72962,1,0,0:0:0:0:
327,154,73112,5,0,1:0:0:0:
68,149,73262,2,0,L|73:96,1,40.4999987640381,0|2,0:0|0:1,0:0:0:0:
222,230,73412,6,0,L|228:289,1,40.4999987640381,0|0,1:0|0:0,0:0:0:0:
198,76,73562,1,2,0:1:0:0:
370,301,73712,1,0,1:0:0:0:
94,285,73862,1,2,0:1:0:0:
350,123,74012,6,0,L|361:252,1,121.499996292114,0|2,1:0|0:2,0:0:0:0:
370,301,74312,1,0,1:0:0:0:
225,215,74462,1,0,0:0:0:0:
468,40,74612,1,0,1:0:0:0:
471,80,74687,1,0,0:0:0:0:
474,120,74762,1,2,1:1:0:0:
478,161,74837,1,0,1:0:0:0:
458,206,74912,5,0,1:0:0:0:
461,246,74987,1,0,0:0:0:0:
464,286,75062,1,2,1:1:0:0:
468,327,75137,1,0,1:0:0:0:
447,371,75212,6,0,L|379:367,1,53.9999983520508,0|0,1:0|0:0,0:0:0:0:
253,226,75362,2,0,L|321:230,1,53.9999983520508,2|0,1:2|0:0,0:0:0:0:
170,374,75512,2,0,L|102:370,1,53.9999983520508,0|0,1:0|0:0,0:0:0:0:
102,105,75662,2,0,L|170:109,1,53.9999983520508,2|0,1:2|0:1,0:0:0:0:
6,303,75812,6,0,L|8:228,1,53.9999983520508,0|0,1:0|1:0,0:0:0:0:
378,118,75962,2,0,L|379:171,1,53.9999983520508,2|0,1:2|1:0,0:0:0:0:
210,217,76112,6,0,L|204:293,1,53.9999983520508,0|0,1:0|1:0,0:0:0:0:
210,217,76262,2,0,L|134:211,1,53.9999983520508,2|0,1:2|1:0,0:0:0:0:
210,217,76412,2,0,L|216:141,1,53.9999983520508,8|0,1:0|0:0,0:0:0:0:
210,217,76562,2,0,L|286:222,1,53.9999983520508,0|0,0:0|0:0,0:0:0:0:
210,217,76712,6,0,P|210:283|292:328,1,161.999995056153,8|0,1:0|3:0,0:0:0:0:
361,242,77012,5,0,3:0:0:0:
365,224,77087,1,0,3:0:0:0:
369,206,77162,1,0,3:0:0:0:
373,188,77237,1,0,3:0:0:0:
377,169,77312,6,0,B|334:145|295:162|295:162|274:137|274:137|235:177|161:169,1,216,8|0,1:0|0:0,0:0:0:0:
194,52,77612,5,4,1:0:0:0:
77,283,77762,1,2,1:2:0:0:
16,39,77912,1,4,1:0:0:0:
203,195,78062,2,0,L|215:266,1,72,2|2,1:2|1:2,0:0:0:0:
220,10,78212,5,4,1:0:0:0:
78,148,78362,1,2,1:0:0:0:
398,66,78512,1,12,1:0:0:0:
398,66,78662,1,2,1:0:0:0:
312,340,78812,5,4,1:0:0:0:
173,99,78962,1,2,1:2:0:0:
431,105,79112,1,4,1:0:0:0:
201,221,79262,1,2,1:2:0:0:
154,235,79337,1,2,1:2:0:0:
109,254,79412,6,0,P|73:257|37:256,1,72,4|0,0:1|1:0,0:0:0:0:
162,69,79562,2,0,P|197:68|233:71,1,72,2|0,1:0|0:0,0:0:0:0:
266,364,79712,1,12,1:0:0:0:
329,168,79862,1,2,1:0:0:0:
492,317,80012,5,4,1:0:0:0:
201,221,80162,1,2,1:2:0:0:
433,73,80312,1,4,1:0:0:0:
433,73,80387,1,0,1:0:0:0:
433,73,80462,1,2,1:2:0:0:
321,284,80612,6,0,L|332:369,1,72,4|0,1:0|1:0,0:0:0:0:
238,86,80762,1,2,1:1:0:0:
444,236,80912,1,12,1:0:0:0:
154,235,81062,1,2,1:1:0:0:
326,16,81212,5,4,1:0:0:0:
281,270,81362,1,2,1:2:0:0:
84,63,81512,2,0,P|79:98|79:134,1,72,4|0,1:0|1:0,0:0:0:0:
94,330,81662,1,2,1:2:0:0:
129,356,81737,1,2,1:2:0:0:
166,373,81812,2,0,L|257:369,1,72,4|0,0:1|1:0,0:0:0:0:
473,195,81962,6,0,L|401:191,1,72,0|0,1:0|1:0,0:0:0:0:
125,45,82112,2,0,L|350:57,1,216,12|0,1:0|0:0,0:0:0:0:
366,57,82412,5,4,1:0:0:0:
240,232,82562,1,2,1:2:0:0:
442,314,82712,1,4,1:0:0:0:
196,231,82862,2,0,L|206:313,1,72,2|2,1:2|1:2,0:0:0:0:
247,23,83012,5,4,1:0:0:0:
379,195,83162,1,2,1:1:0:0:
81,164,83312,1,12,1:0:0:0:
81,164,83462,1,2,1:1:0:0:
376,66,83612,5,4,1:0:0:0:
331,375,83762,1,2,1:2:0:0:
228,189,83912,1,4,1:0:0:0:
491,217,84062,1,2,1:2:0:0:
504,247,84137,1,2,1:2:0:0:
506,279,84212,6,0,P|506:314|500:350,1,72,4|0,0:1|1:0,0:0:0:0:
381,137,84362,2,0,P|375:101|375:65,1,72,2|0,1:1|0:0,0:0:0:0:
307,318,84512,1,12,1:0:0:0:
307,318,84662,1,2,1:1:0:0:
244,83,84812,5,4,1:0:0:0:
472,195,84962,1,2,1:2:0:0:
168,233,85112,1,4,1:0:0:0:
168,233,85187,1,0,1:0:0:0:
168,233,85262,1,2,1:2:0:0:
366,120,85412,6,0,L|376:211,1,72,4|0,1:0|1:0,0:0:0:0:
207,50,85562,1,2,1:1:0:0:
278,309,85712,1,12,1:0:0:0:
141,210,85862,1,2,1:1:0:0:
389,97,86012,6,0,L|478:106,1,80.9999975280763,8|0,1:0|0:0,0:0:0:0:
328,200,86312,6,0,L|403:207,1,72,8|0,1:0|0:0,0:0:0:0:
278,309,86612,6,0,L|381:319,1,94.499997116089,8|0,1:0|0:0,0:0:0:0:
401,325,86912,5,8,1:0:0:0:
292,191,87062,1,0,0:0:0:0:
129,344,87212,5,4,1:0:0:0:
189,154,87362,1,2,1:2:0:0:
8,180,87512,1,12,1:0:0:0:
8,180,87587,1,0,1:0:0:0:
8,180,87662,1,2,1:2:0:0:
278,309,87812,5,4,1:0:0:0:
373,55,87962,1,2,1:1:0:0:
423,297,88112,1,12,1:0:0:0:
226,66,88262,1,2,1:1:0:0:
497,142,88412,5,4,1:0:0:0:
185,187,88562,2,0,P|172:224|165:261,1,76.5000014591217,2|0,1:2|0:0,0:0:0:0:
342,47,88712,1,12,1:0:0:0:
296,334,88862,5,2,1:2:0:0:
296,334,88937,1,2,1:2:0:0:
296,334,89012,2,0,L|400:348,1,76.5000014591217,4|0,0:1|1:0,0:0:0:0:
185,187,89162,2,0,L|109:197,1,76.5000014591217,2|0,1:1|0:0,0:0:0:0:
296,40,89312,1,12,1:0:0:0:
296,40,89462,1,2,1:1:0:0:
399,190,89612,5,4,1:0:0:0:
262,340,89762,1,2,1:2:0:0:
186,150,89912,1,12,1:0:0:0:
186,150,89987,1,0,1:0:0:0:
186,150,90062,1,2,1:2:0:0:
392,306,90212,6,0,L|490:293,1,76.5000014591217,4|0,1:0|1:0,0:0:0:0:
399,68,90362,2,0,L|301:55,1,76.5000014591217,2|0,1:1|0:0,0:0:0:0:
256,254,90512,1,12,1:0:0:0:
183,32,90662,1,2,1:1:0:0:
115,288,90812,5,4,1:0:0:0:
306,155,90962,1,2,1:2:0:0:
78,107,91112,2,0,P|73:144|76:183,1,76.5000014591217,12|0,1:0|1:0,0:0:0:0:
221,367,91262,1,2,1:2:0:0:
240,349,91337,1,2,1:2:0:0:
257,330,91412,6,0,P|260:291|255:253,1,76.5000014591217,4|0,0:1|1:0,0:0:0:0:
351,243,91562,2,0,P|354:204|349:166,1,76.5000014591217,0|0,1:0|0:0,0:0:0:0:
445,156,91712,1,0,1:0:0:0:
186,150,91862,1,0,1:0:0:0:
359,353,92012,6,0,L|511:356,1,153.000002918243,4|0,1:0|0:0,0:0:0:0:
225,265,92312,2,0,L|72:268,1,153.000002918243,12|0,1:0|0:0,0:0:0:0:
351,155,92612,2,0,L|503:158,1,153.000002918243,4|0,1:1|0:0,0:0:0:0:
217,67,92912,2,0,L|64:70,1,153.000002918243,12|2,1:0|1:1,0:0:0:0:
351,155,93212,6,0,P|365:80|351:5,1,153.000002918243,4|0,1:0|0:0,0:0:0:0:
142,183,93512,2,0,P|127:257|141:332,1,153.000002918243,12|0,1:0|0:0,0:0:0:0:
168,347,93737,1,2,0:1:0:0:
194,361,93812,2,0,P|249:362|279:357,1,76.5000014591217,4|0,1:1|0:0,0:0:0:0:
329,187,93962,2,0,P|384:186|414:191,1,76.5000014591217,0|0,0:0|0:1,0:0:0:0:
478,365,94112,1,12,1:0:0:0:
366,297,94262,1,2,1:1:0:0:
466,32,94412,6,0,P|474:70|475:108,1,76.5000014591217,4|0,1:0|0:0,0:0:0:0:
227,241,94562,2,0,P|218:203|217:165,1,76.5000014591217,2|0,1:2|0:0,0:0:0:0:
458,246,94712,2,0,P|466:284|467:322,1,76.5000014591217,12|0,1:0|0:0,0:0:0:0:
331,90,94862,2,0,P|322:52|321:14,1,76.5000014591217,2|0,1:2|0:0,0:0:0:0:
244,272,95012,5,4,1:0:0:0:
218,285,95087,1,0,1:0:0:0:
191,295,95162,1,2,1:1:0:0:
163,302,95237,1,0,1:0:0:0:
135,305,95312,1,12,1:0:0:0:
106,304,95387,1,0,1:0:0:0:
78,300,95462,1,2,1:1:0:0:
50,292,95537,1,0,1:0:0:0:
23,279,95612,6,0,L|25:198,1,80.9999975280763,8|0,1:0|1:0,0:0:0:0:
145,193,95912,6,0,L|147:112,1,72,8|0,1:0|1:0,0:0:0:0:
155,12,96137,1,0,1:0:0:0:
155,12,96212,5,0,3:0:0:0:
205,14,96287,1,0,3:0:0:0:
255,16,96362,2,0,L|331:21,1,62.9999980773926,0|0,3:0|3:0,0:0:0:0:
463,28,96512,1,8,1:0:0:0:
335,156,96662,1,0,0:0:0:0:
437,363,96812,6,0,L|434:211,1,135,0|0,1:0|0:0,0:0:0:0:
434,228,97112,1,8,0:0:0:0:
185,317,97262,6,0,P|242:318|273:309,1,72,0|0,0:0|0:0,0:0:0:0:
241,113,97412,1,0,1:0:0:0:
49,210,97562,6,0,P|106:211|137:202,1,72,2|0,0:2|0:0,0:0:0:0:
105,6,97712,1,8,0:0:0:0:
277,89,97862,1,2,0:2:0:0:
136,235,98012,6,0,P|113:171|113:104,1,135,0|0,1:0|0:0,0:0:0:0:
113,104,98312,1,8,0:0:0:0:
365,221,98462,6,0,P|333:236|298:244,1,72,0|0,0:0|0:0,0:0:0:0:
277,89,98612,2,0,B|270:-21,2,83.9999974365235,0|2|2,1:0|0:2|0:2,0:0:0:0:
443,317,98912,5,8,0:0:0:0:
431,48,99062,1,2,1:2:0:0:
444,357,99212,6,0,L|303:364,1,135,0|0,1:0|0:0,0:0:0:0:
287,366,99512,5,8,0:0:0:0:
163,140,99662,2,0,P|197:130|233:132,1,72,0|0,0:0|0:0,0:0:0:0:
429,196,99812,1,0,1:0:0:0:
211,259,99962,5,2,0:2:0:0:
349,41,100112,2,0,L|345:123,1,72,8|0,0:0|0:0,0:0:0:0:
50,155,100262,1,2,0:2:0:0:
261,369,100412,6,0,L|341:373,1,80.9999975280763,0|0,1:0|0:0,0:0:0:0:
236,26,100562,2,0,L|155:30,1,80.9999975280763,0|0,0:0|0:0,0:0:0:0:
345,237,100712,2,0,L|425:241,1,80.9999975280763,8|0,0:0|0:0,0:0:0:0:
130,150,100862,2,0,L|49:154,1,80.9999975280763,0|0,1:0|0:0,0:0:0:0:
367,109,101012,5,0,1:0:0:0:
182,279,101162,1,2,1:2:0:0:
182,279,101237,1,0,1:0:0:0:
182,279,101312,1,8,0:0:0:0:
155,30,101462,1,2,1:2:0:0:
300,220,101612,6,0,P|310:286|295:351,1,135,0|0,1:0|0:0,0:0:0:0:
295,351,101912,1,8,0:0:0:0:
178,144,102062,5,0,0:0:0:0:
441,213,102212,2,0,L|444:284,1,72,0|0,1:0|0:0,0:0:0:0:
191,174,102362,5,2,0:2:0:0:
454,105,102512,2,0,L|457:33,1,72,8|0,0:0|0:0,0:0:0:0:
322,248,102662,1,2,0:2:0:0:
210,48,102812,6,0,P|143:46|92:87,1,135,0|0,1:0|0:0,0:0:0:0:
92,87,103112,1,8,0:0:0:0:
329,127,103262,6,0,L|332:38,1,72,0|0,0:0|0:0,0:0:0:0:
201,200,103412,2,0,L|204:303,2,96,0|2|2,1:0|0:2|0:2,0:0:0:0:
431,214,103712,5,8,0:0:0:0:
90,321,103862,1,2,1:2:0:0:
467,203,104012,6,0,L|476:355,1,135,0|0,1:0|0:0,0:0:0:0:
477,359,104312,6,0,L|396:367,1,72,8|0,0:0|0:0,0:0:0:0:
240,208,104462,2,0,L|321:216,1,72,0|0,1:0|0:0,0:0:0:0:
438,63,104612,5,0,1:0:0:0:
44,78,104837,1,0,1:0:0:0:
44,78,104912,6,0,L|56:172,1,72,8|0,0:0|0:0,0:0:0:0:
111,366,105062,2,0,L|120:294,1,72,2|0,1:2|0:0,0:0:0:0:
111,366,105362,5,0,3:0:0:0:
139,365,105437,1,0,0:0:0:0:
168,364,105512,1,0,3:0:0:0:
197,364,105587,1,0,3:0:0:0:
226,363,105662,1,0,3:0:0:0:
254,363,105737,1,0,3:0:0:0:
283,362,105812,1,0,3:0:0:0:
312,361,105887,1,0,3:0:0:0:
341,361,105962,1,0,3:0:0:0:
370,360,106037,1,0,3:0:0:0:
397,358,106112,6,0,L|381:100,1,216,8|0,1:0|0:0,0:0:0:0:
283,199,106412,6,0,L|273:48,1,135,0|2,1:0|0:2,0:0:0:0:
274,64,106712,1,8,0:0:0:0:
197,293,106862,6,0,P|228:311|262:320,1,72,0|2,0:0|0:2,0:0:0:0:
149,126,107012,1,0,1:0:0:0:
149,126,107162,6,0,P|148:161|157:196,1,72,2|0,0:1|0:0,0:0:0:0:
269,0,107312,1,8,0:0:0:0:
269,0,107462,6,0,P|238:16|212:41,1,72,2|0,0:1|0:0,0:0:0:0:
438,40,107612,6,0,L|450:197,1,135,0|2,1:0|0:2,0:0:0:0:
448,174,107912,1,8,0:0:0:0:
248,149,108062,6,0,L|319:152,1,72,0|2,0:0|0:2,0:0:0:0:
169,241,108212,2,0,L|67:245,2,96,0|2|2,1:0|0:2|0:2,0:0:0:0:
340,130,108512,5,8,0:0:0:0:
341,372,108662,1,2,1:1:0:0:
339,107,108812,6,0,L|204:111,1,135,0|2,1:0|0:2,0:0:0:0:
204,111,109112,1,8,0:0:0:0:
338,336,109262,6,0,P|302:333|267:324,1,72,0|2,0:0|0:2,0:0:0:0:
453,222,109412,1,0,1:0:0:0:
453,222,109562,6,0,P|450:257|441:292,1,72,2|0,0:1|0:0,0:0:0:0:
339,107,109712,1,8,0:0:0:0:
339,107,109862,6,0,P|374:110|409:119,1,72,2|0,0:1|0:0,0:0:0:0:
224,221,110012,6,0,L|229:57,2,83.9999974365235,0|0|0,1:0|0:0|0:0,0:0:0:0:
108,123,110312,2,0,L|103:60,1,62.9999980773926,8|0,0:0|0:0,0:0:0:0:
339,289,110462,2,0,L|343:226,1,62.9999980773926,2|0,1:2|0:0,0:0:0:0:
120,320,110612,5,0,1:0:0:0:
250,112,110762,1,2,1:2:0:0:
250,112,110837,1,2,1:2:0:0:
250,112,110912,1,8,0:0:0:0:
0,155,111062,1,2,1:2:0:0:
232,313,111212,6,0,L|371:311,1,108,0|0,1:0|0:0,0:0:0:0:
339,311,111512,1,8,0:0:0:0:
108,123,111662,6,0,L|116:212,1,72,2|0,0:1|0:0,0:0:0:0:
206,44,111812,1,0,1:0:0:0:
222,214,111962,6,0,L|230:303,1,72,2|0,0:1|0:0,0:0:0:0:
320,135,112112,1,8,0:0:0:0:
336,305,112262,6,0,L|344:394,1,72,2|0,0:1|0:0,0:0:0:0:
434,226,112412,6,0,P|391:192|340:178,1,108,0|0,1:0|0:0,0:0:0:0:
340,178,112712,1,8,0:0:0:0:
264,307,112862,6,0,L|363:303,1,72,2|0,0:1|0:0,0:0:0:0:
206,184,113012,1,0,1:0:0:0:
206,184,113162,6,0,L|107:180,1,72,2|0,0:1|0:0,0:0:0:0:
267,55,113312,1,8,0:0:0:0:
267,313,113462,1,2,1:1:0:0:
477,123,113612,6,0,P|492:174|487:227,1,108,0|0,1:0|0:0,0:0:0:0:
389,186,113912,6,0,P|369:250|321:299,1,135,8|0,0:0|0:0,0:0:0:0:
280,197,114212,6,0,P|233:242|107:249,1,161.999995056153,0|0,1:0|1:1,0:0:0:0:
180,151,114512,6,0,P|101:166|-5:96,1,188.999994232178,8|0,0:0|0:0,0:0:0:0:
116,34,114812,6,0,L|254:39,1,120,4|2,0:3|0:3,0:0:0:0:
399,192,115112,2,0,L|261:197,1,120,4|2,0:3|0:3,0:0:0:0:
237,69,115412,6,0,L|245:194,1,120,4|2,0:3|0:3,0:0:0:0:
253,331,115712,5,8,1:0:0:0:
235,38,115862,1,8,1:0:0:0:
