osu file format v14

[General]
AudioFilename: audio.mp3
AudioLeadIn: 0
PreviewTime: 18962
Countdown: 0
SampleSet: Soft
StackLeniency: 0.6
Mode: 0
LetterboxInBreaks: 0
WidescreenStoryboard: 0

[Editor]
DistanceSpacing: 1.3
BeatDivisor: 4
GridSize: 16
TimelineZoom: 2.060001

[Metadata]
Title:Fox4-Raize-
TitleUnicode:Fox4-Raize-
Artist:Getty vs. DJ DiA
ArtistUnicode:Getty vs. DJ DiA
Creator:Kaifin
Version:Hard
Source:SOUND VOLTEX III GRAVITY WARS
Tags:sdvx xilver bonzi VINXIS Doormat The 4th KAC Original Song Contest オリジナル楽曲コンテスト PSYCHO†HOLIC Pumpcore
BeatmapID:1085771
BeatmapSetID:482552

[Difficulty]
HPDrainRate:4
CircleSize:4
OverallDifficulty:6
ApproachRate:8
SliderMultiplier:1.4
SliderTickRate:1

[Events]
//Background and Video events
0,0,"foxraizebghighrez.jpg",0,0
//Break Periods
2,1462,2462
2,6262,7262
2,58412,62462
//Storyboard Layer 0 (Background)
//Storyboard Layer 1 (Fail)
//Storyboard Layer 2 (Pass)
//Storyboard Layer 3 (Foreground)
//Storyboard Sound Samples

[TimingPoints]
812,300,4,2,2,70,1,0
5012,-133.333333333333,4,2,2,70,0,0
5612,-100,4,2,2,70,0,0
9812,-133.333333333333,4,2,2,70,0,0
10412,-100,4,2,2,70,0,0
38012,-133.333333333333,4,2,2,70,0,0
38537,-133.333333333333,4,2,3,70,0,0
38612,-100,4,2,3,70,0,0
38912,-100,4,2,2,70,0,0
39212,-100,4,2,3,70,0,1
46112,-100,4,2,2,70,0,1
48812,-100,4,2,3,70,0,1
57212,-100,4,2,4,70,0,0
58412,-100,4,2,2,70,0,0
76937,-100,4,2,3,70,0,0
77312,-100,4,2,2,70,0,0
77612,-100,4,2,2,70,0,1
95612,-100,4,2,2,70,0,0
96212,-100,4,2,3,70,0,0
96512,-100,4,2,2,70,0,0
105362,-100,4,2,3,70,0,0
106112,-100,4,2,2,70,0,0

[Colours]
Combo1 : 175,116,175
Combo2 : 38,147,143
Combo3 : 30,185,26
Combo4 : 255,26,31

[HitObjects]
334,93,812,6,0,L|449:81,2,105,0|0|0,1:0|1:0|1:0,0:0:0:0:
345,118,3212,6,0,L|460:106,2,105,0|0|0,1:0|1:0|1:0,0:0:0:0:
218,332,5012,6,0,P|209:299|133:350,1,157.500006008148,0|0,1:0|0:0,0:0:0:0:
61,271,5612,6,0,L|68:138,2,105,0|0|0,1:0|1:0|1:0,0:0:0:0:
81,256,8012,6,0,L|88:123,2,105,0|0|0,1:0|1:0|1:0,0:0:0:0:
302,119,9812,6,0,P|311:152|387:101,1,157.500006008148,0|0,1:0|0:0,0:0:0:0:
456,51,10412,6,0,B|389:23|389:23|323:37,1,140,0|8,1:0|0:0,0:0:0:0:
234,59,10862,1,0,0:0:0:0:
146,85,11012,2,0,P|147:147|160:172,1,70,0|0,0:0|1:0,0:0:0:0:
291,204,11312,2,0,P|290:142|277:117,1,70,8|0,0:0|0:0,0:0:0:0:
209,238,11612,6,0,P|145:240|112:326,2,140,0|8|0,1:0|0:0|0:0,0:0:0:0:
273,301,12362,1,0,1:0:0:0:
354,263,12512,2,0,L|364:163,1,70,8|0,0:0|0:0,0:0:0:0:
410,102,12812,6,0,B|444:131|444:131|434:256,1,140,0|8,1:0|0:0,0:0:0:0:
428,316,13262,1,0,0:0:0:0:
354,263,13412,2,0,P|296:261|260:243,1,70,0|0,0:0|1:0,0:0:0:0:
198,209,13712,2,0,P|154:170|138:133,1,70,10|0,0:1|0:0,0:0:0:0:
99,75,14012,6,0,B|167:51|167:51|253:77,1,140,0|8,1:0|0:0,0:0:0:0:
308,120,14462,1,0,1:0:0:0:
380,64,14612,2,0,L|397:159,1,70,8|0,0:0|1:0,0:0:0:0:
479,159,14912,2,0,L|462:254,1,70,8|0,0:0|0:0,0:0:0:0:
444,323,15212,5,0,1:0:0:0:
444,323,15512,1,0,1:0:0:0:
339,195,15812,5,0,1:0:0:0:
339,195,16112,1,2,1:2:0:0:
266,360,16412,6,0,P|201:371|163:298,1,140,0|0,1:0|1:0,0:0:0:0:
150,128,17012,2,0,P|111:74|45:84,1,140,2|2,1:1|1:1,0:0:0:0:
7,276,17612,6,0,L|88:257,1,70,0|0,1:0|1:0,0:0:0:0:
128,204,17912,2,0,L|210:213,1,70,0|0,1:0|1:0,0:0:0:0:
271,191,18212,2,0,L|345:228,1,70,0|0,1:0|1:0,0:0:0:0:
410,220,18512,2,0,L|466:280,1,70,0|0,1:0|1:0,0:0:0:0:
509,328,18812,5,2,1:0:0:0:
111,28,19712,6,0,L|100:118,1,70,0|0,1:0|1:0,0:0:0:0:
29,148,20012,6,0,P|96:185|176:147,1,140,0|8,1:0|0:0,0:0:0:0:
232,121,20462,1,2,0:2:0:0:
303,177,20612,2,0,L|292:267,1,70,0|2,1:0|0:2,0:0:0:0:
209,293,20912,2,0,L|220:203,1,70,8|2,0:0|0:2,0:0:0:0:
283,335,21212,6,0,P|350:372|430:334,1,140,0|8,1:0|0:0,0:0:0:0:
474,293,21662,1,2,0:2:0:0:
387,264,21812,2,0,L|398:174,1,70,0|0,1:0|0:0,0:0:0:0:
477,153,22112,2,0,L|488:63,1,70,8|2,0:0|1:2,0:0:0:0:
390,22,22412,6,0,P|323:-15|243:23,1,140,0|8,1:0|0:0,0:0:0:0:
193,58,22862,1,2,0:2:0:0:
275,96,23012,2,0,L|264:186,1,70,0|2,1:0|0:2,0:0:0:0:
179,226,23312,2,0,L|190:316,1,70,8|2,0:0|0:2,0:0:0:0:
321,353,23612,6,0,L|374:364,3,35,2|2|2|2,1:2|0:2|0:2|0:2,0:0:0:0:
393,335,23912,2,0,L|446:346,3,35,10|2|2|2,0:2|0:2|1:2|0:2,0:0:0:0:
469,325,24212,6,0,L|458:235,1,70,0|2,1:0|1:1,0:0:0:0:
449,165,24512,1,8,0:0:0:0:
449,165,24662,1,2,1:1:0:0:
379,269,24812,6,0,B|327:285|327:285|235:226,1,140,0|8,1:0|0:0,0:0:0:0:
185,180,25262,1,2,0:2:0:0:
150,264,25412,2,0,P|156:320|180:341,1,70,0|2,1:0|0:2,0:0:0:0:
268,303,25712,2,0,P|262:247|238:226,1,70,8|2,0:0|0:2,0:0:0:0:
255,118,26012,6,0,B|307:102|307:102|399:161,1,140,0|8,1:0|0:0,0:0:0:0:
446,209,26462,1,2,0:2:0:0:
465,120,26612,2,0,P|459:64|435:43,1,70,0|0,1:0|0:0,0:0:0:0:
365,83,26912,2,0,P|371:139|395:160,1,70,8|2,0:0|1:2,0:0:0:0:
490,277,27212,6,0,B|438:293|438:293|365:246,1,140,0|8,1:0|0:0,0:0:0:0:
285,204,27662,1,2,1:2:0:0:
227,274,27812,2,0,P|233:330|257:351,1,70,0|2,1:0|1:2,0:0:0:0:
379,311,28112,2,0,P|373:255|349:234,1,70,8|2,0:0|1:2,0:0:0:0:
322,375,28412,5,8,0:3:0:0:
322,375,28712,1,4,0:3:0:0:
322,375,29012,1,4,0:3:0:0:
34,359,29312,6,0,L|118:342,1,70,8|0,0:0|0:0,0:0:0:0:
191,324,29612,6,0,P|201:273|123:286,1,140,0|8,1:0|0:0,0:0:0:0:
45,235,30062,1,2,0:2:0:0:
115,177,30212,2,0,L|197:160,1,70,0|2,1:0|0:2,0:0:0:0:
57,115,30512,2,0,L|139:98,1,70,8|2,0:0|0:2,0:0:0:0:
6,51,30812,6,0,L|174:18,1,140,0|8,1:0|0:0,0:0:0:0:
232,4,31262,1,0,0:0:0:0:
295,69,31412,2,0,L|314:163,1,70,0|0,1:0|0:0,0:0:0:0:
388,182,31712,2,0,L|407:276,1,70,8|0,0:0|1:2,0:0:0:0:
466,317,32012,6,0,B|406:353|406:353|327:308,1,140,0|8,1:0|0:0,0:0:0:0:
268,269,32462,1,2,0:2:0:0:
229,351,32612,2,0,P|169:357|149:331,1,70,0|2,1:0|0:2,0:0:0:0:
204,271,32912,2,0,P|264:265|284:291,1,70,10|2,0:1|0:2,0:0:0:0:
345,318,33212,6,0,L|358:249,2,70,0|2|8,1:0|0:2|0:0,0:0:0:0:
267,268,33662,1,2,0:2:0:0:
357,249,33812,6,0,L|370:180,2,70,0|2|8,1:0|1:2|0:0,0:0:0:0:
391,91,34262,1,0,1:0:0:0:
305,120,34412,6,0,B|259:117|259:117|218:142|218:142|172:137,1,140,0|8,1:0|0:0,0:0:0:0:
82,125,34862,1,2,0:1:0:0:
37,45,35012,2,0,P|94:33|131:47,1,70,0|2,1:0|0:1,0:0:0:0:
172,137,35312,2,0,P|206:138|239:127,1,70,8|0,0:0|0:0,0:0:0:0:
329,36,35612,6,0,P|399:27|434:102,1,140,0|8,1:0|0:2,0:0:0:0:
417,167,36062,1,2,0:1:0:0:
487,224,36212,2,0,L|502:320,1,70,2|2,1:2|0:1,0:0:0:0:
392,298,36512,2,0,L|407:394,1,70,10|2,0:2|1:2,0:0:0:0:
301,239,36812,5,0,1:0:0:0:
301,239,36962,1,0,0:0:0:0:
254,332,37112,5,8,0:0:0:0:
254,332,37262,1,2,1:1:0:0:
191,247,37412,6,0,L|206:156,1,70,0|2,1:0|0:1,0:0:0:0:
221,88,37712,1,8,0:0:0:0:
221,88,37862,1,0,1:0:0:0:
288,152,38012,6,0,B|339:164|339:164|396:131,1,105.000004005432,8|8,1:0|1:0,0:0:0:0:
202,177,38612,2,0,L|194:234,3,35,0|0|0|0,3:0|3:0|3:0|3:0,0:0:0:0:
189,256,38912,2,0,P|127:263|99:240,1,70,8|0,1:0|0:0,0:0:0:0:
46,210,39212,6,0,B|30:254|30:254|42:299|42:299|18:339,1,140,2|0,1:1|0:0,0:0:0:0:
84,133,39812,6,0,L|153:125,1,70,8|0,0:2|3:0,0:0:0:0:
195,44,40112,2,0,L|126:52,1,70,0|0,3:0|3:2,0:0:0:0:
112,205,40412,6,0,L|181:197,1,70,0|0,1:0|3:2,0:0:0:0:
223,116,40712,2,0,L|154:124,1,70,0|0,3:0|0:2,0:0:0:0:
268,184,41012,1,8,0:0:0:0:
268,184,41162,1,0,1:0:0:0:
336,127,41312,2,0,P|354:183|349:220,1,70,0|0,1:1|0:0,0:0:0:0:
391,276,41612,6,0,P|387:220|452:157,1,140,0|0,1:1|0:0,0:0:0:0:
492,363,42212,6,0,L|392:358,1,70,8|0,0:0|3:3,0:0:0:0:
391,276,42512,2,0,L|291:271,1,70,0|0,3:0|3:2,0:0:0:0:
247,348,42812,6,0,L|232:256,1,70,0|0,1:0|3:2,0:0:0:0:
152,241,43112,2,0,L|167:333,1,70,0|0,3:0|1:2,0:0:0:0:
220,182,43412,1,8,0:0:0:0:
220,182,43562,1,0,1:0:0:0:
133,154,43712,2,0,P|100:159|41:135,1,70,0|2,1:1|0:1,0:0:0:0:
11,76,44012,6,0,B|64:45|64:45|149:71,1,140,0|0,1:1|1:1,0:0:0:0:
398,5,44612,6,0,L|391:87,1,70,8|0,0:0|3:2,0:0:0:0:
312,119,44912,2,0,L|319:37,1,70,0|0,3:0|3:2,0:0:0:0:
472,30,45212,6,0,L|465:112,1,70,0|0,1:0|3:2,0:0:0:0:
386,144,45512,2,0,L|393:62,1,70,0|0,3:0|1:2,0:0:0:0:
458,183,45812,5,8,0:0:0:0:
458,183,45962,1,0,1:2:0:0:
396,250,46112,1,8,1:0:0:0:
326,191,46262,1,8,1:0:0:0:
294,328,46412,6,0,P|359:319|418:371,1,140,0|10,1:0|0:2,0:0:0:0:
482,285,46862,2,0,P|417:276|358:328,1,140,0|10,1:0|0:2,0:0:0:0:
272,251,47312,6,0,P|207:260|148:208,1,140,0|10,1:0|0:2,0:0:0:0:
84,294,47762,2,0,P|149:303|208:251,1,140,0|10,1:0|0:2,0:0:0:0:
230,172,48212,1,0,1:0:0:0:
254,84,48362,2,0,L|339:94,2,70,10|2|2,0:1|1:1|1:1,0:0:0:0:
156,43,48812,6,0,B|92:21|92:21|41:72,1,140,2|8,1:1|0:1,0:0:0:0:
21,160,49262,1,2,0:3:0:0:
105,127,49412,2,0,P|160:127|186:138,1,70,0|2,0:0|1:2,0:0:0:0:
251,178,49712,2,0,P|293:213|305:238,1,70,8|2,0:0|0:3,0:0:0:0:
338,309,50012,5,0,1:0:0:0:
338,309,50162,1,2,0:2:0:0:
248,295,50312,2,0,L|159:287,1,70,8|2,0:0|0:3,0:0:0:0:
127,365,50612,2,0,L|196:371,1,70,0|2,0:0|1:1,0:0:0:0:
281,377,50912,5,8,0:1:0:0:
281,377,51062,1,2,1:1:0:0:
178,288,51212,6,0,B|114:266|114:266|63:317,1,140,2|10,1:1|0:2,0:0:0:0:
42,228,51662,1,2,0:3:0:0:
114,172,51812,2,0,L|125:73,1,70,0|2,0:0|1:2,0:0:0:0:
204,64,52112,2,0,L|193:163,1,70,8|2,0:0|0:3,0:0:0:0:
266,191,52412,5,0,1:0:0:0:
266,191,52562,1,2,0:2:0:0:
339,138,52712,2,0,P|395:123|423:132,1,70,8|2,0:0|1:3,0:0:0:0:
391,215,53012,2,0,P|443:239|459:264,1,70,8|2,0:0|1:1,0:0:0:0:
379,306,53312,2,0,P|403:358|399:387,1,70,8|0,0:1|0:0,0:0:0:0:
311,364,53612,5,8,0:0:0:0:
311,364,53762,1,2,1:1:0:0:
261,287,53912,2,0,L|162:298,1,70,8|2,0:0|1:1,0:0:0:0:
115,345,54212,2,0,L|16:334,1,70,8|2,0:0|1:1,0:0:0:0:
7,254,54512,2,0,P|37:235|82:250,1,70,4|0,0:3|1:0,0:0:0:0:
130,172,54812,5,8,0:0:0:0:
130,172,54962,1,2,1:1:0:0:
205,120,55112,2,0,L|304:131,1,70,8|2,0:0|1:1,0:0:0:0:
351,178,55412,2,0,L|450:167,1,70,8|2,0:0|1:1,0:0:0:0:
443,82,55712,2,0,P|409:77|380:95,1,70,2|0,3:1|0:0,0:0:0:0:
351,178,56012,6,0,L|341:240,3,35,2|0|2|0,1:2|1:0|1:2|1:0,0:0:0:0:
305,235,56312,2,0,L|295:297,3,35,2|0|2|0,1:2|1:0|1:2|1:0,0:0:0:0:
364,312,56612,2,0,L|354:374,3,35,2|0|2|0,3:2|3:0|3:2|3:0,0:0:0:0:
258,341,56912,2,0,L|248:407,3,35,2|0|2|0,3:2|3:0|3:2|3:0,0:0:0:0:
221,271,57212,5,0,0:0:0:0:
256,192,63212,12,4,66812,0:3:0:0:
420,342,67712,6,0,L|406:254,1,70,8|8,1:0|1:0,0:0:0:0:
463,198,68012,6,0,B|391:179|391:179|319:233,1,140,0|8,1:0|0:0,0:0:0:0:
271,280,68462,1,0,0:0:0:0:
199,224,68612,2,0,P|202:179|216:145,1,70,0|2,0:0|1:2,0:0:0:0:
128,115,68912,2,0,P|159:82|191:65,1,70,8|2,0:0|0:2,0:0:0:0:
249,10,69212,6,0,L|416:18,1,140,0|8,1:0|0:0,0:0:0:0:
480,23,69662,1,0,0:0:0:0:
425,95,69812,2,0,L|414:181,1,70,0|2,0:0|1:2,0:0:0:0:
481,228,70112,2,0,L|470:314,1,70,8|2,0:0|0:2,0:0:0:0:
403,356,70412,6,0,P|354:370|329:283,1,140,0|8,1:0|0:0,0:0:0:0:
239,351,70862,1,0,0:0:0:0:
158,309,71012,2,0,B|123:304|123:304|64:320,1,70,0|2,0:0|1:2,0:0:0:0:
44,233,71312,2,0,B|79:238|79:238|138:222,1,70,10|2,0:1|0:2,0:0:0:0:
193,186,71612,6,0,L|172:89,2,70,0|2|8,1:0|0:2|0:0,0:0:0:0:
269,235,72062,1,2,1:2:0:0:
323,162,72212,6,0,L|302:65,2,70,8|2|8,0:0|1:2|0:0,0:0:0:0:
398,212,72662,1,2,0:2:0:0:
404,121,72812,5,0,1:0:0:0:
404,121,73112,1,0,1:0:0:0:
320,245,73412,5,0,1:0:0:0:
320,245,73712,1,0,1:0:0:0:
114,124,74012,6,0,B|176:96|176:96|259:122,1,140,0|0,1:0|1:0,0:0:0:0:
390,309,74612,2,0,B|328:337|328:337|245:311,1,140,0|0,1:0|1:0,0:0:0:0:
27,157,75212,6,0,L|12:243,1,70,0|2,1:0|1:2,0:0:0:0:
101,196,75512,2,0,L|116:281,1,70,0|2,1:0|1:2,0:0:0:0:
189,214,75812,2,0,L|232:289,1,70,0|2,1:0|1:2,0:0:0:0:
278,201,76112,2,0,L|344:256,1,70,0|2,1:0|1:2,0:0:0:0:
420,227,76412,5,8,1:0:0:0:
420,227,76712,1,8,1:0:0:0:
488,58,77012,2,0,L|495:10,3,35,0|0|0|0,3:0|3:0|3:0|3:0,0:0:0:0:
448,13,77312,2,0,P|392:17|368:46,1,70,8|0,1:0|0:0,0:0:0:0:
312,103,77612,6,0,P|243:115|206:51,1,140,4|4,1:0|1:0,0:0:0:0:
133,8,78062,1,2,1:2:0:0:
70,73,78212,2,0,L|56:170,1,70,4|2,1:0|1:0,0:0:0:0:
133,210,78512,2,0,L|147:113,1,70,12|2,1:0|1:0,0:0:0:0:
27,248,78812,6,0,P|96:260|133:196,1,140,4|4,1:0|1:0,0:0:0:0:
221,184,79262,1,2,1:2:0:0:
270,273,79412,2,0,L|177:260,1,70,4|2,0:1|1:0,0:0:0:0:
149,339,79712,2,0,L|242:352,1,70,12|2,1:0|1:0,0:0:0:0:
325,366,80012,6,0,B|355:307|355:307|338:234,1,140,4|4,1:0|1:0,0:0:0:0:
311,148,80462,1,2,1:2:0:0:
400,166,80612,2,0,L|420:251,1,70,4|2,1:0|1:1,0:0:0:0:
509,300,80912,2,0,L|489:215,1,70,12|2,1:0|1:1,0:0:0:0:
501,107,81212,6,0,B|446:70|446:70|371:78,1,140,4|4,1:0|1:0,0:0:0:0:
311,148,81662,1,2,1:2:0:0:
246,84,81812,1,4,0:1:0:0:
137,179,81962,2,0,L|228:163,1,70,0|12,1:0|1:0,0:0:0:0:
137,179,82412,6,0,P|87:217|59:155,1,140,4|4,1:0|1:0,0:0:0:0:
110,92,82862,1,2,1:2:0:0:
165,19,83012,2,0,L|256:2,1,70,4|2,1:0|1:1,0:0:0:0:
303,65,83312,2,0,L|394:81,1,70,12|2,1:0|1:1,0:0:0:0:
450,146,83612,6,0,P|417:198|368:160,1,140,4|4,1:0|1:0,0:0:0:0:
299,220,84062,1,2,1:2:0:0:
359,287,84212,2,0,L|457:268,1,70,4|2,0:1|1:1,0:0:0:0:
489,340,84512,2,0,L|391:359,1,70,12|2,1:0|1:1,0:0:0:0:
297,350,84812,6,0,B|272:292|272:292|304:204,1,140,4|4,1:0|1:0,0:0:0:0:
368,160,85262,1,2,1:2:0:0:
280,135,85412,2,0,P|241:124|193:136,1,70,4|2,1:0|1:1,0:0:0:0:
127,160,85712,2,0,P|92:163|59:152,1,70,12|2,1:0|1:1,0:0:0:0:
7,74,86012,6,0,B|52:70|52:70|102:84|102:84|145:80,2,140,8|8|8,1:0|1:0|1:0,0:0:0:0:
226,136,86912,1,8,1:0:0:0:
144,80,87062,1,0,0:0:0:0:
212,7,87212,6,0,P|240:64|208:161,1,140,4|12,1:0|1:0,0:0:0:0:
173,211,87662,1,2,1:2:0:0:
136,127,87812,2,0,L|38:120,1,70,4|2,1:0|1:1,0:0:0:0:
11,209,88112,2,0,L|109:202,1,70,12|2,1:0|1:1,0:0:0:0:
242,272,88412,6,0,B|217:277|203:288|184:313|184:313|161:292|137:283|101:284,1,140,4|12,1:0|1:0,0:0:0:0:
60,350,88862,1,2,1:2:0:0:
6,278,89012,2,0,L|11:196,1,70,4|2,0:1|1:1,0:0:0:0:
66,122,89312,2,0,L|71:40,1,70,12|2,1:0|1:1,0:0:0:0:
159,36,89612,6,0,B|207:30|207:30|243:60|243:60|287:56,1,140,4|12,1:0|1:0,0:0:0:0:
378,46,90062,1,2,1:2:0:0:
467,28,90212,2,0,L|484:129,1,70,4|2,1:0|1:1,0:0:0:0:
405,195,90512,2,0,L|388:94,1,70,12|2,1:0|1:1,0:0:0:0:
287,55,90812,6,0,B|256:88|256:88|270:187,1,140,4|12,1:0|1:0,0:0:0:0:
285,271,91262,1,2,1:2:0:0:
203,230,91412,2,0,P|161:224|113:249,1,70,4|0,0:1|1:0,0:0:0:0:
104,317,91712,2,0,P|146:323|194:298,1,70,0|0,1:0|1:0,0:0:0:0:
285,271,92012,6,0,B|342:233|342:233|398:276,1,140,4|12,1:0|1:0,0:0:0:0:
506,131,92612,2,0,B|449:169|449:169|392:125,1,140,4|12,1:1|1:0,0:0:0:0:
247,14,93212,6,0,L|234:162,1,140,4|12,1:0|1:0,0:0:0:0:
79,249,93812,2,0,L|92:101,1,140,4|12,1:1|1:0,0:0:0:0:
184,266,94412,6,0,P|227:259|257:236,1,70,4|2,1:0|1:2,0:0:0:0:
274,332,94712,2,0,P|312:310|332:278,1,70,12|2,1:0|1:2,0:0:0:0:
377,365,95012,2,0,P|405:331|413:295,1,70,4|2,1:0|1:1,0:0:0:0:
488,358,95312,2,0,P|503:317|498:279,1,70,12|2,1:0|1:1,0:0:0:0:
448,222,95612,6,0,B|396:183|396:183|310:206,1,140,8|8,1:0|1:0,0:0:0:0:
480,110,96212,2,0,L|474:75,3,35,0|0|0|0,3:0|3:0|3:0|3:0,0:0:0:0:
443,42,96512,2,0,L|349:63,1,70,8|0,1:0|0:0,0:0:0:0:
297,105,96812,6,0,P|235:122|185:70,1,140,0|8,1:0|0:0,0:0:0:0:
122,139,97262,1,0,0:0:0:0:
55,77,97412,2,0,L|34:169,1,70,0|2,1:0|0:2,0:0:0:0:
106,207,97712,2,0,L|127:115,1,70,8|2,0:0|0:2,0:0:0:0:
185,73,98012,6,0,P|247:56|297:108,1,140,0|8,1:0|0:0,0:0:0:0:
317,193,98462,1,0,0:0:0:0:
386,133,98612,2,0,L|472:117,1,70,0|0,1:0|0:0,0:0:0:0:
512,216,98912,2,0,L|426:232,1,70,8|2,0:0|1:2,0:0:0:0:
335,354,99212,6,0,B|398:382|398:382|457:343,1,140,0|8,1:0|0:0,0:0:0:0:
389,291,99662,1,0,0:0:0:0:
298,276,99812,2,0,P|241:264|215:272,1,70,0|2,1:0|0:2,0:0:0:0:
162,327,100112,2,0,P|127:329|94:317,1,70,8|2,0:0|0:2,0:0:0:0:
46,239,100412,6,0,L|61:147,1,70,0|0,1:0|0:0,0:0:0:0:
74,80,100712,1,8,0:0:0:0:
74,80,100862,1,0,1:0:0:0:
173,30,101012,6,0,L|158:122,1,70,0|2,1:0|1:2,0:0:0:0:
145,189,101312,1,8,0:0:0:0:
145,189,101462,1,2,1:2:0:0:
251,116,101612,6,0,B|295:112|295:112|343:131|343:131|386:126,1,140,0|8,1:0|0:0,0:0:0:0:
477,115,102062,1,0,0:0:0:0:
416,47,102212,2,0,L|324:55,1,70,0|2,1:0|0:2,0:0:0:0:
263,15,102512,2,0,L|171:23,1,70,8|2,0:0|0:2,0:0:0:0:
154,103,102812,6,0,B|110:107|110:107|62:88|62:88|18:92,1,140,0|8,1:0|0:0,0:0:0:0:
51,177,103262,1,0,0:0:0:0:
86,260,103412,2,0,L|178:252,1,70,0|0,1:0|0:0,0:0:0:0:
228,199,103712,2,0,L|320:191,1,70,8|2,0:0|1:2,0:0:0:0:
435,292,104012,6,0,P|365:307|306:273,1,140,0|8,1:0|0:0,0:0:0:0:
380,210,104462,1,0,1:0:0:0:
468,190,104612,2,0,L|484:101,1,70,0|2,1:0|0:2,0:0:0:0:
391,101,104912,2,0,L|375:12,1,70,8|2,0:0|1:2,0:0:0:0:
435,292,105362,5,0,3:0:0:0:
435,292,105512,2,0,L|424:346,3,35,0|0|0|0,3:0|3:0|3:0|3:0,0:0:0:0:
382,326,105812,2,0,L|371:380,3,35,0|0|0|0,3:0|3:0|3:0|3:0,0:0:0:0:
330,369,106112,2,0,P|294:375|258:353,1,70,8|0,1:0|0:0,0:0:0:0:
191,287,106412,6,0,P|134:254|85:298,1,140,0|8,1:0|0:0,0:0:0:0:
49,382,106862,1,0,0:0:0:0:
2,303,107012,2,0,L|11:214,1,70,0|2,1:0|0:1,0:0:0:0:
88,187,107312,2,0,L|97:98,1,70,8|2,0:0|0:1,0:0:0:0:
190,160,107612,6,0,P|239:203|295:170,1,140,0|8,1:0|0:0,0:0:0:0:
350,96,108062,1,0,0:0:0:0:
390,177,108212,2,0,P|406:227|400:267,1,70,0|0,1:0|0:0,0:0:0:0:
311,237,108512,2,0,P|295:187|301:147,1,70,8|2,0:0|1:1,0:0:0:0:
350,96,108812,6,0,B|416:76|416:76|496:105,1,140,0|8,1:0|0:0,0:0:0:0:
465,10,109262,1,0,0:0:0:0:
374,10,109412,2,0,L|286:36,1,70,0|2,1:0|0:1,0:0:0:0:
221,64,109712,2,0,L|133:38,1,70,8|2,0:0|0:1,0:0:0:0:
67,12,110012,6,0,P|56:63|69:109,1,70,0|2,1:0|0:2,0:0:0:0:
84,167,110312,1,8,0:0:0:0:
84,167,110462,1,2,1:2:0:0:
161,213,110612,6,0,P|172:162|159:116,1,70,0|2,1:0|1:2,0:0:0:0:
144,58,110912,1,8,0:0:0:0:
144,58,111062,1,2,1:2:0:0:
233,76,111212,6,0,B|300:90|300:90|363:57,1,140,0|8,1:0|0:0,0:0:0:0:
161,213,111812,2,0,B|98:246|98:246|31:232,1,140,0|8,1:0|0:0,0:0:0:0:
363,57,112412,6,0,L|377:208,1,140,0|8,1:0|0:0,0:0:0:0:
173,351,113012,2,0,L|159:200,1,140,0|8,1:0|0:0,0:0:0:0:
345,265,113612,6,0,P|399:267|434:250,1,70,0|2,1:0|0:2,0:0:0:0:
408,128,113912,2,0,P|354:126|319:143,1,70,8|2,0:0|1:1,0:0:0:0:
283,202,114212,6,0,L|261:291,1,70,0|0,1:0|0:0,0:0:0:0:
216,148,114512,2,0,L|238:59,1,70,8|2,0:0|1:1,0:0:0:0:
311,34,114812,6,0,P|406:19|467:48,2,140,4|4|4,0:3|0:3|0:3,0:0:0:0:
199,230,115712,1,8,1:0:0:0:
199,230,115862,1,8,1:0:0:0:
