osu file format v14

[General]
AudioFilename: audio.mp3
AudioLeadIn: 0
PreviewTime: 18962
Countdown: 0
SampleSet: Soft
StackLeniency: 0.6
Mode: 0
LetterboxInBreaks: 0
WidescreenStoryboard: 0

[Editor]
Bookmarks: 10412,20012,29612,39212,48812,58412,67712,77612,87212,96812,106412
DistanceSpacing: 2
BeatDivisor: 4
GridSize: 4
TimelineZoom: 3.459999

[Metadata]
Title:Fox4-Raize-
TitleUnicode:Fox4-Raize-
Artist:Getty vs. DJ DiA
ArtistUnicode:Getty vs. DJ DiA
Creator:Kaifin
Version:Doorfin's Extra
Source:SOUND VOLTEX III GRAVITY WARS
Tags:sdvx xilver bonzi VINXIS Doormat The 4th KAC Original Song Contest オリジナル楽曲コンテスト PSYCHO†HOLIC Pumpcore
BeatmapID:1097509
BeatmapSetID:482552

[Difficulty]
HPDrainRate:6
CircleSize:4
OverallDifficulty:8
ApproachRate:9.2
SliderMultiplier:1.8
SliderTickRate:1

[Events]
//Background and Video events
0,0,"foxraizebghighrez.jpg",0,0
//Break Periods
2,58612,62642
//Storyboard Layer 0 (Background)
//Storyboard Layer 1 (Fail)
//Storyboard Layer 2 (Pass)
//Storyboard Layer 3 (Foreground)
//Storyboard Sound Samples

[TimingPoints]
812,300,4,2,2,70,1,0
5012,-200,4,2,2,70,0,0
10412,-100,4,2,2,70,0,0
14912,-200,4,2,2,70,0,0
15212,-100,4,2,2,70,0,0
34412,-200,4,2,2,70,0,0
34712,-83.3333333333333,4,2,2,70,0,0
35612,-200,4,2,2,70,0,0
35912,-83.3333333333333,4,2,2,70,0,0
38012,-133.333333333333,4,2,2,70,0,0
38312,-66.6666666666667,4,2,2,70,0,0
38537,-66.6666666666667,4,2,3,70,0,0
38912,-66.6666666666667,4,2,2,70,0,0
39212,-133.333333333333,4,2,3,70,0,1
40412,-80,4,2,3,70,0,1
41612,-133.333333333333,4,2,3,70,0,1
43412,-80,4,2,3,70,0,1
46112,-80,4,2,2,70,0,1
48812,-66.6666666666667,4,2,3,70,0,1
49262,-80,4,2,3,70,0,1
54512,-200,4,2,3,70,0,1
54812,-80,4,2,3,70,0,1
55712,-200,4,2,3,70,0,1
56012,-80,4,2,3,70,0,1
57212,-80,4,2,4,70,0,0
58412,-80,4,2,2,70,0,0
69212,-100,4,2,2,70,0,0
70112,-80,4,2,2,70,0,0
70712,-66.6666666666667,4,2,2,70,0,0
71012,-100,4,2,2,70,0,0
72512,-133.333333333333,4,2,2,70,0,0
75362,-100,4,2,2,70,0,0
75512,-80,4,2,2,70,0,0
75662,-66.6666666666667,4,2,2,70,0,0
76937,-66.6666666666667,4,2,3,70,0,0
77312,-66.6666666666667,4,2,2,70,0,0
77612,-80,4,2,2,70,0,1
82112,-133.333333333333,4,2,2,70,0,1
82412,-80,4,2,2,70,0,1
86612,-133.333333333333,4,2,2,70,0,1
87212,-80,4,2,2,70,0,1
93212,-100,4,2,2,70,0,1
95612,-100,4,2,2,70,0,0
96212,-100,4,2,3,70,0,0
96512,-100,4,2,2,70,0,0
96812,-133.333333333333,4,2,2,70,0,0
97112,-100,4,2,2,70,0,0
99212,-133.333333333333,4,2,2,70,0,0
99512,-100,4,2,2,70,0,0
101612,-133.333333333333,4,2,2,70,0,0
101912,-100,4,2,2,70,0,0
104012,-133.333333333333,4,2,2,70,0,0
104312,-100,4,2,2,70,0,0
105362,-100,4,2,3,70,0,0
106112,-100,4,2,2,70,0,0
106412,-133.333333333333,4,2,2,70,0,0
106712,-100,4,2,2,70,0,0
108812,-133.333333333333,4,2,2,70,0,0
109112,-100,4,2,2,70,0,0
111212,-133.333333333333,4,2,2,70,0,0
113912,-100,4,2,2,70,0,0
114212,-80,4,2,2,70,0,0
114512,-66.6666666666667,4,2,2,70,0,0
114812,-133.333333333333,4,2,2,70,0,0

[Colours]
Combo1 : 175,116,175
Combo2 : 38,147,143
Combo3 : 30,185,26
Combo4 : 255,26,31

[HitObjects]
79,300,812,5,0,1:0:0:0:
158,283,1037,1,0,1:0:0:0:
237,266,1262,1,0,1:0:0:0:
79,300,1487,5,0,0:0:0:0:
79,300,1562,1,0,0:0:0:0:
180,208,1712,1,0,0:0:0:0:
180,208,1787,1,0,0:0:0:0:
180,208,1862,1,0,0:0:0:0:
180,208,1937,1,0,0:0:0:0:
180,208,2012,5,0,0:0:0:0:
237,266,2237,1,0,0:0:0:0:
292,325,2462,1,0,0:0:0:0:
180,208,2687,5,0,0:0:0:0:
180,208,2762,1,0,0:0:0:0:
292,325,2912,1,0,0:0:0:0:
292,325,2987,1,0,0:0:0:0:
292,325,3062,1,0,0:0:0:0:
292,325,3137,1,0,0:0:0:0:
292,325,3212,5,0,1:0:0:0:
213,342,3437,1,0,1:0:0:0:
134,359,3662,1,0,1:0:0:0:
292,325,3887,5,0,0:0:0:0:
292,325,3962,1,0,0:0:0:0:
158,283,4112,1,0,0:0:0:0:
158,283,4187,1,0,0:0:0:0:
158,283,4262,1,0,0:0:0:0:
158,283,4337,1,0,0:0:0:0:
158,283,4412,5,0,0:0:0:0:
184,276,4487,1,0,0:0:0:0:
210,269,4562,1,0,0:0:0:0:
236,262,4637,1,0,0:0:0:0:
262,255,4712,1,0,0:0:0:0:
158,283,4862,1,0,0:0:0:0:
340,228,5012,6,0,P|325:278|260:246,1,135,0|0,1:0|0:0,0:0:0:0:
441,136,5612,5,0,1:0:0:0:
362,153,5837,1,0,1:0:0:0:
283,170,6062,1,0,1:0:0:0:
441,136,6287,5,0,0:0:0:0:
441,136,6362,1,0,0:0:0:0:
340,228,6512,1,0,0:0:0:0:
340,228,6587,1,0,0:0:0:0:
340,228,6662,1,0,0:0:0:0:
340,228,6737,1,0,0:0:0:0:
340,228,6812,5,0,0:0:0:0:
283,170,7037,1,0,0:0:0:0:
228,111,7262,1,0,0:0:0:0:
340,228,7487,5,0,0:0:0:0:
340,228,7562,1,0,0:0:0:0:
228,111,7712,1,0,0:0:0:0:
228,111,7787,1,0,0:0:0:0:
228,111,7862,1,0,0:0:0:0:
228,111,7937,1,0,0:0:0:0:
228,111,8012,5,0,1:0:0:0:
307,94,8237,1,0,1:0:0:0:
386,77,8462,1,0,1:0:0:0:
228,111,8687,5,0,0:0:0:0:
228,111,8762,1,0,0:0:0:0:
362,153,8912,1,0,0:0:0:0:
362,153,8987,1,0,0:0:0:0:
362,153,9062,1,0,0:0:0:0:
362,153,9137,1,0,0:0:0:0:
362,153,9212,5,0,0:0:0:0:
336,160,9287,1,0,0:0:0:0:
310,167,9362,1,0,0:0:0:0:
284,174,9437,1,0,0:0:0:0:
258,181,9512,1,0,0:0:0:0:
362,153,9662,1,0,0:0:0:0:
180,208,9812,6,0,P|195:158|260:190,1,135,0|0,1:0|0:0,0:0:0:0:
224,300,10412,6,0,L|179:296,1,45,0|0,1:0|0:0,0:0:0:0:
312,352,10562,2,0,L|269:367,1,45,0|0,0:0|0:0,0:0:0:0:
364,264,10712,2,0,L|319:260,1,45,8|0,0:0|0:0,0:0:0:0:
452,316,10862,2,0,L|409:331,1,45,0|0,0:0|0:0,0:0:0:0:
504,228,11012,5,0,0:0:0:0:
319,260,11162,1,0,1:0:0:0:
442,147,11312,5,8,0:0:0:0:
409,331,11462,1,0,0:0:0:0:
240,207,11612,6,0,P|229:228|225:250,1,45,0|0,1:0|0:0,0:0:0:0:
208,364,11762,2,0,P|195:345|178:330,1,45,0|0,0:0|0:0,0:0:0:0:
72,264,11912,2,0,P|94:262|116:255,1,45,8|0,0:0|0:0,0:0:0:0:
160,148,12062,2,0,P|147:129|129:114,1,45,0|8,0:0|0:0,0:0:0:0:
36,32,12212,6,0,L|125:18,1,90,0|0,0:0|1:0,0:0:0:0:
212,32,12437,1,0,0:0:0:0:
224,60,12512,2,0,L|218:97,4,22.5,8|0|0|0|0,0:0|0:0|0:0|0:0|0:0,0:0:0:0:
120,156,12812,5,0,1:0:0:0:
300,136,12962,1,0,0:0:0:0:
100,256,13112,5,8,0:0:0:0:
281,254,13262,1,0,0:0:0:0:
16,281,13412,6,0,P|12:257|15:236,1,45,0|0,0:0|0:0,0:0:0:0:
183,230,13562,2,0,P|186:253|183:274,1,45,0|0,1:0|0:0,0:0:0:0:
264,380,13712,2,0,P|264:332|276:288,1,90,10|0,0:1|0:0,0:0:0:0:
344,240,13937,1,0,0:0:0:0:
368,256,14012,5,0,1:0:0:0:
176,216,14162,1,0,0:0:0:0:
348,160,14312,5,8,0:0:0:0:
388,352,14462,1,0,1:0:0:0:
388,352,14537,1,0,0:0:0:0:
388,352,14612,2,0,L|348:356,6,22.5,8|0|0|0|0|0|0,0:0|0:0|0:0|0:0|1:0|0:0|0:0,0:0:0:0:
479,367,14912,6,0,P|468:335|470:301,1,67.5,8|0,0:0|0:0,0:0:0:0:
512,208,15212,5,0,1:0:0:0:
408,232,15512,1,0,1:0:0:0:
304,256,15812,1,0,1:0:0:0:
200,280,16112,1,2,1:2:0:0:
231,177,16262,1,2,1:2:0:0:
169,383,16412,5,0,1:0:0:0:
118,288,16712,1,0,1:0:0:0:
67,193,17012,1,2,1:1:0:0:
10,284,17162,1,0,1:0:0:0:
10,284,17237,1,0,1:0:0:0:
10,284,17312,1,2,1:1:0:0:
0,136,17462,1,0,1:0:0:0:
172,112,17612,5,0,1:0:0:0:
202,127,17687,1,0,0:0:0:0:
235,130,17762,1,0,1:0:0:0:
268,122,17837,1,0,0:0:0:0:
295,104,17912,1,0,1:0:0:0:
326,90,17987,1,0,0:0:0:0:
360,92,18062,1,0,1:0:0:0:
389,108,18137,1,0,0:0:0:0:
409,134,18212,5,0,1:0:0:0:
389,175,18287,1,0,1:0:0:0:
382,219,18362,1,0,1:0:0:0:
389,263,18437,1,0,1:0:0:0:
408,304,18512,2,0,L|452:299,1,45,0|0,1:0|1:0,0:0:0:0:
313,354,18662,2,0,L|268:348,1,45,0|0,1:0|1:0,0:0:0:0:
101,318,18812,5,2,1:0:0:0:
124,148,19712,5,0,1:0:0:0:
308,236,19862,1,0,1:0:0:0:
47,286,20012,6,0,B|97:315|97:315|171:295,1,135,0|0,1:0|0:0,0:0:0:0:
172,219,20312,2,0,L|93:239,1,45,8|0,0:0|0:0,0:0:0:0:
217,354,20462,2,0,L|261:343,1,45,2|0,0:2|0:0,0:0:0:0:
308,236,20612,5,0,1:0:0:0:
308,236,20762,1,2,0:2:0:0:
466,353,20912,2,0,L|452:263,1,90,8|2,0:0|0:2,0:0:0:0:
503,97,21212,6,0,B|453:68|453:68|379:88,1,135,0|0,1:0|0:0,0:0:0:0:
305,110,21512,2,0,L|310:38,1,45,8|0,0:0|0:0,0:0:0:0:
230,133,21662,2,0,L|235:61,1,45,2|0,0:2|0:0,0:0:0:0:
363,162,21812,6,0,P|398:162|430:142,2,60,0|2|2,1:0|0:2|0:2,0:0:0:0:
308,65,22112,1,8,0:0:0:0:
226,215,22262,1,2,1:2:0:0:
82,176,22412,6,0,P|105:121|156:152,1,135,0|0,1:0|0:0,0:0:0:0:
50,253,22712,2,0,L|-27:243,1,45,8|0,0:0|0:0,0:0:0:0:
175,274,22862,2,0,L|130:268,1,45,2|0,0:2|0:0,0:0:0:0:
254,289,23012,5,0,1:0:0:0:
254,289,23162,1,2,0:2:0:0:
72,332,23312,2,0,L|200:354,1,90,8|2,0:0|0:2,0:0:0:0:
82,176,23612,5,2,1:2:0:0:
80,158,23687,1,2,0:2:0:0:
78,140,23762,1,2,0:2:0:0:
76,122,23837,1,2,0:2:0:0:
74,104,23912,1,10,0:2:0:0:
72,86,23987,1,2,0:2:0:0:
70,68,24062,1,2,1:2:0:0:
68,50,24137,1,2,0:2:0:0:
66,32,24212,5,0,1:0:0:0:
253,88,24362,2,0,L|306:76,2,45,2|0|8,1:1|1:0|0:0,0:0:0:0:
168,165,24662,1,2,1:1:0:0:
351,13,24812,6,0,B|385:49|385:49|372:154,1,135,0|0,1:0|0:0,0:0:0:0:
288,211,25112,2,0,L|297:144,1,45,8|0,0:0|0:0,0:0:0:0:
462,105,25262,2,0,L|453:172,1,45,2|0,0:2|0:0,0:0:0:0:
487,295,25412,5,0,1:0:0:0:
487,295,25562,1,2,0:2:0:0:
374,133,25712,2,0,L|360:249,1,90,8|2,0:0|0:2,0:0:0:0:
161,347,26012,6,0,B|127:311|127:311|137:226,1,135,0|0,1:0|0:0,0:0:0:0:
199,173,26312,2,0,L|275:164,1,45,8|0,0:0|0:0,0:0:0:0:
15,278,26462,2,0,L|91:269,1,45,2|0,0:2|0:0,0:0:0:0:
252,315,26612,6,0,P|281:311|323:330,2,60,0|2|2,1:0|0:2|0:2,0:0:0:0:
161,347,26912,1,8,0:0:0:0:
363,222,27062,1,2,1:2:0:0:
199,173,27212,6,0,B|138:146|138:146|72:174,1,135,0|0,1:0|0:0,0:0:0:0:
15,118,27512,2,0,L|3:40,1,45,8|0,0:0|0:0,0:0:0:0:
137,226,27662,2,0,L|143:270,1,45,2|0,1:2|0:0,0:0:0:0:
262,121,27812,5,0,1:0:0:0:
365,223,27962,1,2,1:2:0:0:
365,223,28037,1,0,1:0:0:0:
365,223,28112,1,8,0:0:0:0:
426,41,28262,1,2,1:2:0:0:
457,146,28412,5,8,0:3:0:0:
369,126,28712,1,4,0:3:0:0:
280,111,29012,1,4,0:3:0:0:
457,146,29312,6,0,B|465:192|465:192|454:236|454:236|462:278,1,135,8|0,0:0|0:0,0:0:0:0:
368,200,29612,6,0,L|359:155,1,45,0|0,1:0|0:0,0:0:0:0:
272,232,29762,2,0,L|263:277,1,45,0|0,0:0|0:0,0:0:0:0:
127,200,29912,2,0,P|149:193|171:192,1,45,8|0,0:0|0:0,0:0:0:0:
120,332,30062,2,0,P|97:331|76:324,1,45,2|0,0:2|0:0,0:0:0:0:
16,148,30212,6,0,L|9:192,1,45,0|0,1:0|0:0,0:0:0:0:
132,56,30362,2,0,L|138:100,1,45,2|0,0:2|0:0,0:0:0:0:
164,272,30512,1,8,0:0:0:0:
164,272,30662,5,2,0:2:0:0:
202,249,30737,1,0,0:0:0:0:
241,226,30812,6,0,P|263:223|285:227,1,45,0|0,1:0|0:0,0:0:0:0:
416,268,30962,2,0,P|393:270|371:266,1,45,2|0,0:2|0:0,0:0:0:0:
220,208,31112,6,0,P|242:205|264:209,1,45,8|0,0:0|0:0,0:0:0:0:
436,288,31262,2,0,P|413:290|391:286,1,45,0|0,0:0|0:0,0:0:0:0:
312,92,31412,5,0,1:0:0:0:
312,92,31487,1,2,0:2:0:0:
148,40,31637,1,2,0:2:0:0:
124,68,31712,2,0,L|128:104,6,22.5,8|0|0|0|0|0|0,0:0|0:0|0:0|0:0|1:2|0:0|0:0,0:0:0:0:
36,40,32012,5,0,1:0:0:0:
204,96,32162,1,0,0:0:0:0:
40,164,32312,5,8,0:0:0:0:
208,220,32462,1,2,0:2:0:0:
360,68,32612,6,0,P|356:91|356:113,1,45,0|0,1:0|0:0,0:0:0:0:
448,89,32762,2,0,P|451:66|451:44,1,45,2|0,0:2|0:0,0:0:0:0:
283,57,32912,2,0,P|279:101|286:146,1,90,10|2,0:1|0:2,0:0:0:0:
376,216,33212,5,0,1:0:0:0:
196,184,33362,1,2,0:2:0:0:
284,344,33512,5,8,0:0:0:0:
316,164,33662,1,2,0:2:0:0:
180,296,33812,5,0,1:0:0:0:
148,116,33962,1,2,1:2:0:0:
148,116,34037,1,0,1:0:0:0:
148,116,34112,2,0,P|211:104|247:120,1,90,8|0,0:0|1:0,0:0:0:0:
328,268,34412,6,0,L|338:201,1,67.5,0|0,1:0|0:0,0:0:0:0:
428,243,34712,6,0,L|438:351,1,107.999996704102,8|2,0:0|0:1,0:0:0:0:
438,351,35012,1,0,1:0:0:0:
228,344,35162,2,0,L|175:332,1,53.9999983520508,2|0,0:1|0:0,0:0:0:0:
216,260,35312,2,0,L|163:248,1,53.9999983520508,8|0,0:0|0:0,0:0:0:0:
204,176,35462,2,0,L|151:164,1,53.9999983520508,0|0,0:0|0:0,0:0:0:0:
192,92,35612,6,0,P|236:100|276:88,1,67.5,0|0,1:0|0:0,0:0:0:0:
348,40,35912,6,0,P|336:104|352:160,1,107.999996704102,8|2,0:2|0:1,0:0:0:0:
432,232,36212,2,0,L|484:216,3,53.9999983520508,2|2|2|2,1:2|0:2|0:1|0:2,0:0:0:0:
384,320,36512,2,0,L|332:336,3,53.9999983520508,10|2|2|2,0:2|0:2|1:2|0:2,0:0:0:0:
232,360,36812,5,0,1:0:0:0:
218,358,36887,1,0,0:0:0:0:
205,356,36962,1,0,0:0:0:0:
191,354,37037,1,0,0:0:0:0:
179,352,37112,2,0,L|111:340,3,53.9999983520508,8|0|2|0,0:0|0:0|1:1|0:0,0:0:0:0:
172,272,37412,5,0,1:0:0:0:
188,235,37487,1,0,0:0:0:0:
192,195,37562,1,2,0:1:0:0:
182,155,37637,1,0,1:0:0:0:
161,121,37712,1,8,0:0:0:0:
124,105,37787,1,0,0:0:0:0:
84,107,37862,1,0,1:0:0:0:
49,126,37937,1,0,0:0:0:0:
26,159,38012,6,0,B|25:225|25:225|41:209|61:201,1,101.250003862381,8|0,1:0|0:0,0:0:0:0:
121,269,38312,6,0,P|74:328|156:320,1,202.500007724762,8|0,1:0|3:0,0:0:0:0:
225,225,38612,5,0,3:0:0:0:
228,250,38687,1,0,3:0:0:0:
231,275,38762,1,0,3:0:0:0:
234,300,38837,1,0,3:0:0:0:
237,325,38912,1,8,1:0:0:0:
451,94,39212,6,0,P|376:56|372:161,1,202.500007724762,2|0,1:1|0:1,0:0:0:0:
451,94,39812,5,8,0:2:0:0:
409,238,39962,1,0,3:0:0:0:
409,238,40037,1,0,3:0:0:0:
409,238,40112,1,0,3:0:0:0:
352,145,40262,1,0,3:2:0:0:
483,197,40412,6,0,B|505:231|505:231|477:322,1,112.5,0|0,1:0|3:2,0:0:0:0:
344,138,40712,1,0,3:0:0:0:
489,207,40862,6,0,B|511:241|511:241|483:332,1,112.5,0|8,0:2|0:0,0:0:0:0:
334,130,41162,1,0,1:0:0:0:
329,333,41312,6,0,B|265:356|265:356|176:292,1,168.75,0|0,1:1|0:1,0:0:0:0:
121,244,41612,6,0,P|33:214|29:305,1,202.500007724762,0|0,1:1|0:1,0:0:0:0:
114,319,42212,5,8,0:0:0:0:
263,202,42362,1,0,3:3:0:0:
258,231,42437,1,0,3:2:0:0:
253,260,42512,1,0,3:0:0:0:
275,124,42662,1,0,3:2:0:0:
237,336,42812,5,0,1:0:0:0:
345,225,42962,1,0,3:2:0:0:
345,225,43037,1,0,3:2:0:0:
345,225,43112,1,0,3:0:0:0:
503,360,43262,1,0,1:2:0:0:
484,242,43412,6,0,L|393:264,1,56.25,8|0,0:0|0:0,0:0:0:0:
323,315,43562,2,0,L|414:337,1,56.25,0|0,1:0|0:0,0:0:0:0:
503,360,43712,5,0,1:1:0:0:
175,184,44012,5,0,1:1:0:0:
509,58,44312,5,0,1:1:0:0:
151,355,44612,5,8,0:0:0:0:
90,273,44762,1,0,3:2:0:0:
127,259,44837,1,0,3:2:0:0:
166,256,44912,1,0,3:0:0:0:
33,340,45062,1,0,3:2:0:0:
254,180,45212,5,0,1:0:0:0:
315,262,45362,1,0,3:2:0:0:
278,276,45437,1,0,3:2:0:0:
239,279,45512,1,0,3:0:0:0:
372,195,45662,1,0,1:2:0:0:
292,352,45812,1,8,0:0:0:0:
168,148,45962,1,0,1:2:0:0:
363,43,46112,6,0,L|370:140,1,56.25,8|0,1:0|0:0,0:0:0:0:
249,123,46262,2,0,L|254:180,1,56.25,8|0,1:0|0:0,0:0:0:0:
139,5,46412,5,0,1:0:0:0:
104,82,46562,1,2,0:2:0:0:
188,68,46712,1,10,0:2:0:0:
139,5,46862,5,0,1:0:0:0:
271,54,47012,1,2,0:2:0:0:
153,147,47162,1,10,0:2:0:0:
188,68,47312,5,0,1:0:0:0:
240,228,47462,1,2,0:2:0:0:
188,68,47612,1,10,0:2:0:0:
101,307,47762,5,0,1:0:0:0:
153,147,47912,1,2,0:2:0:0:
101,307,48062,1,10,0:2:0:0:
240,228,48212,1,0,1:0:0:0:
153,147,48362,6,0,B|135:173|135:173|145:228,1,56.25,10|0,0:1|0:0,0:0:0:0:
253,177,48512,2,0,B|235:203|235:203|245:258,1,56.25,2|0,1:1|0:0,0:0:0:0:
352,209,48662,2,0,B|334:235|334:235|344:290,1,56.25,2|0,1:1|0:0,0:0:0:0:
408,128,48812,6,0,B|424:168|476:160|488:96|456:36|396:84|364:136|328:128|256:84,1,270.000010299683,2|8,1:1|0:1,0:0:0:0:
48,48,49262,6,0,L|56:112,1,56.25,2|0,0:3|0:0,0:0:0:0:
72,256,49412,1,0,0:0:0:0:
136,60,49562,6,0,L|144:124,1,56.25,2|0,1:2|0:0,0:0:0:0:
160,268,49712,1,8,0:0:0:0:
224,72,49862,6,0,L|232:136,1,56.25,2|0,0:3|0:0,0:0:0:0:
248,280,50012,1,0,1:0:0:0:
312,84,50162,6,0,L|320:148,1,56.25,2|0,0:2|0:0,0:0:0:0:
336,292,50312,1,8,0:0:0:0:
400,96,50462,6,0,L|408:160,1,56.25,2|0,0:3|0:0,0:0:0:0:
424,304,50612,1,0,0:0:0:0:
488,108,50762,6,0,L|496:172,1,56.25,2|0,1:1|0:0,0:0:0:0:
312,84,50912,2,0,P|339:29|389:5,1,112.5,8|2,0:1|1:1,0:0:0:0:
440,224,51212,5,2,1:1:0:0:
276,160,51362,1,2,0:2:0:0:
352,316,51512,1,10,0:2:0:0:
372,144,51662,1,2,0:3:0:0:
216,220,51812,2,0,P|255:258|262:312,1,112.5,0|2,0:0|1:2,0:0:0:0:
262,312,52037,1,0,0:0:0:0:
262,312,52112,1,8,0:0:0:0:
356,224,52262,1,2,0:3:0:0:
276,96,52412,6,0,L|152:112,1,112.5,0|2,1:0|0:2,0:0:0:0:
164,110,52637,1,0,0:0:0:0:
164,110,52712,1,8,0:0:0:0:
16,256,52862,2,0,L|140:272,1,112.5,2|8,1:3|0:0,0:0:0:0:
127,270,53087,1,0,0:0:0:0:
127,270,53162,1,2,1:1:0:0:
344,292,53312,1,8,0:1:0:0:
44,20,53612,5,8,0:0:0:0:
32,164,53762,1,2,1:1:0:0:
156,48,53912,5,8,0:0:0:0:
159,192,54062,1,2,1:1:0:0:
270,63,54212,5,8,0:0:0:0:
288,206,54362,1,2,1:1:0:0:
385,65,54512,6,0,P|384:88|388:112,1,45,4|0,0:3|1:0,0:0:0:0:
460,172,54737,1,0,1:0:0:0:
468,176,54812,5,8,0:0:0:0:
272,164,54962,1,2,1:1:0:0:
416,272,55112,5,8,0:0:0:0:
220,260,55262,1,2,1:1:0:0:
364,368,55412,5,8,0:0:0:0:
168,356,55562,1,2,1:1:0:0:
272,200,55712,6,0,P|291:191|308:205,1,45,2|0,3:1|0:0,0:0:0:0:
68,304,56012,6,0,L|56:248,3,56.25,2|0|2|0,1:2|1:0|1:2|1:0,0:0:0:0:
8,176,56312,2,0,L|19:120,3,56.25,2|0|2|0,1:2|1:0|1:2|1:0,0:0:0:0:
48,37,56612,5,2,3:2:0:0:
48,37,56687,1,0,3:0:0:0:
48,37,56762,1,2,3:2:0:0:
48,37,56837,1,0,3:0:0:0:
48,37,56912,1,2,3:2:0:0:
80,63,56987,1,0,3:0:0:0:
120,76,57062,1,2,3:2:0:0:
162,74,57137,1,0,3:0:0:0:
200,57,57212,5,0,0:0:0:0:
132,240,57362,1,0,0:0:0:0:
220,224,57662,1,0,0:0:0:0:
308,208,57962,1,0,0:0:0:0:
396,192,58262,1,0,0:0:0:0:
251,140,58412,5,4,0:3:0:0:
256,192,63212,12,4,66812,0:3:0:0:
397,15,67712,5,8,1:0:0:0:
348,176,67862,1,8,1:0:0:0:
248,104,68012,6,0,L|325:93,1,56.25,0|0,1:0|0:0,0:0:0:0:
193,204,68162,2,0,L|248:196,1,56.25,2|0,0:2|0:0,0:0:0:0:
114,143,68312,2,0,P|105:182|114:219,1,56.25,8|0,0:0|0:0,0:0:0:0:
201,342,68462,2,0,P|210:303|201:266,1,56.25,0|2,0:0|0:2,0:0:0:0:
71,278,68612,6,0,L|-6:267,1,56.25,0|0,0:0|0:0,0:0:0:0:
126,378,68762,2,0,L|70:370,1,56.25,2|0,1:2|0:0,0:0:0:0:
208,287,68912,1,8,0:0:0:0:
208,287,69062,5,2,0:2:0:0:
257,278,69137,1,0,0:0:0:0:
306,269,69212,6,0,L|317:345,1,45,0|0,1:0|0:0,0:0:0:0:
389,199,69362,2,0,L|400:275,1,45,2|0,0:2|0:0,0:0:0:0:
323,286,69512,6,0,L|334:362,1,45,8|0,0:0|0:0,0:0:0:0:
406,216,69662,2,0,L|417:292,1,45,0|10,0:0|0:2,0:0:0:0:
488,354,69812,5,0,0:0:0:0:
488,354,69887,1,0,0:0:0:0:
301,188,70037,1,0,0:0:0:0:
301,188,70112,2,0,L|299:149,6,28.125,8|0|0|0|2|0|0,0:0|0:0|0:0|0:0|0:2|0:0|0:0,0:0:0:0:
266,270,70412,5,0,1:0:0:0:
425,220,70562,1,2,0:2:0:0:
206,108,70712,6,0,B|167:96|167:96|185:245,1,135.000005149842,8|0,0:0|0:0,0:0:0:0:
99,60,71012,6,0,P|94:101|101:127,1,45,0|0,0:0|0:0,0:0:0:0:
206,108,71162,2,0,P|211:67|204:41,1,45,2|0,1:2|0:0,0:0:0:0:
13,179,71312,6,0,L|118:188,1,90,10|2,0:1|0:2,0:0:0:0:
37,346,71612,5,0,1:0:0:0:
26,266,71762,1,2,0:2:0:0:
178,189,71912,5,8,0:0:0:0:
189,269,72062,1,2,1:2:0:0:
322,360,72212,5,8,0:0:0:0:
402,229,72362,1,2,1:2:0:0:
504,319,72512,2,0,P|458:330|400:299,1,101.250003862381,8|0,0:0|0:0,0:0:0:0:
402,229,72812,5,0,1:0:0:0:
454,167,73112,1,0,1:0:0:0:
407,100,73412,1,0,1:0:0:0:
462,40,73712,1,0,1:0:0:0:
402,229,73862,5,2,0:1:0:0:
402,229,73937,1,0,0:0:0:0:
402,229,74012,1,0,1:0:0:0:
454,167,74312,1,0,1:0:0:0:
407,100,74612,1,0,1:0:0:0:
402,229,74762,5,2,1:1:0:0:
402,229,74837,1,0,1:0:0:0:
402,229,74912,1,0,1:0:0:0:
462,40,75062,1,2,1:1:0:0:
462,40,75137,1,0,1:0:0:0:
462,40,75212,6,0,L|472:99,1,33.7500012874604,0|0,1:0|0:0,0:0:0:0:
385,86,75362,2,0,L|374:150,1,45,2|0,1:2|0:0,0:0:0:0:
298,99,75512,2,0,L|265:159,1,56.25,0|0,1:0|0:0,0:0:0:0:
212,74,75662,2,0,L|153:126,1,67.5000025749208,2|0,1:2|0:1,0:0:0:0:
140,27,75812,5,0,1:0:0:0:
92,24,75887,1,0,1:0:0:0:
53,51,75962,1,2,1:2:0:0:
34,94,76037,1,0,1:0:0:0:
42,140,76112,1,0,1:0:0:0:
73,174,76187,1,0,1:0:0:0:
94,216,76262,1,2,1:2:0:0:
96,263,76337,1,0,1:0:0:0:
73,304,76412,5,8,1:0:0:0:
73,304,76712,1,8,1:0:0:0:
416,301,76937,6,0,L|427:180,4,67.5000025749208,0|0|0|0|0,3:0|3:0|3:0|3:0|3:0,0:0:0:0:
492,313,77312,6,0,B|432:355|432:355|358:236,1,202.500007724762,8|0,1:0|0:0,0:0:0:0:
303,96,77612,6,0,P|328:108|355:105,1,56.25,4|0,1:0|0:0,0:0:0:0:
479,75,77763,2,0,P|455:63|427:65,1,56.25,2|0,1:2|0:0,0:0:0:0:
276,120,77912,1,4,1:0:0:0:
279,157,77987,1,0,1:0:0:0:
283,194,78062,1,2,1:2:0:0:
287,231,78137,1,2,1:2:0:0:
291,268,78212,2,0,P|296:292|288:336,2,56.25,0|0|2,0:0|1:0|1:0,0:0:0:0:
80,212,78512,2,0,L|92:100,1,112.5,12|2,1:0|1:0,0:0:0:0:
0,248,78812,6,0,P|40:296|104:296,1,112.5,4|2,1:0|1:2,0:0:0:0:
248,215,79112,1,4,1:0:0:0:
274,183,79187,1,0,1:0:0:0:
312,165,79262,1,2,1:2:0:0:
354,163,79337,1,2,1:2:0:0:
393,179,79412,2,0,P|424:188|464:184,2,56.25,4|0|2,0:1|1:0|1:0,0:0:0:0:
223,39,79712,2,0,P|167:29|115:46,1,112.5,12|2,1:0|1:0,0:0:0:0:
36,176,80012,6,0,L|26:120,1,56.25,4|0,1:0|0:0,0:0:0:0:
176,136,80162,2,0,L|185:191,1,56.25,2|0,1:2|0:0,0:0:0:0:
120,319,80312,1,4,1:0:0:0:
157,301,80387,1,0,1:0:0:0:
199,296,80462,1,2,1:2:0:0:
240,303,80537,1,2,1:2:0:0:
277,323,80612,2,0,L|272:384,2,56.25,0|0|2,0:0|1:0|1:1,0:0:0:0:
424,232,80912,2,0,L|412:96,1,112.5,12|2,1:0|1:1,0:0:0:0:
208,32,81212,6,0,P|196:96|224:172,1,112.5,4|2,1:0|1:2,0:0:0:0:
80,352,81512,1,4,1:0:0:0:
90,311,81587,1,0,1:0:0:0:
91,269,81662,1,2,1:2:0:0:
82,227,81737,1,2,1:2:0:0:
65,189,81812,1,4,0:1:0:0:
208,32,81962,6,0,L|136:40,1,56.25,0|0,1:0|1:0,0:0:0:0:
212,108,82112,6,0,L|312:117,1,101.250003862381,12|0,1:0|0:0,0:0:0:0:
420,88,82412,6,0,P|424:115|421:143,1,56.25,4|0,1:0|0:0,0:0:0:0:
368,280,82562,2,0,P|363:252|366:224,1,56.25,2|0,1:2|0:0,0:0:0:0:
451,320,82712,1,4,1:0:0:0:
426,352,82787,1,0,1:0:0:0:
388,371,82862,1,2,1:2:0:0:
346,371,82937,1,2,1:2:0:0:
309,352,83012,2,0,P|281:346|254:350,2,56.25,0|0|2,0:0|1:0|1:1,0:0:0:0:
468,200,83312,2,0,L|449:67,1,112.5,12|2,1:0|1:1,0:0:0:0:
244,36,83612,6,0,L|228:147,1,112.5,4|2,1:0|1:2,0:0:0:0:
96,340,83912,1,4,1:0:0:0:
90,298,83987,1,0,1:0:0:0:
84,256,84062,1,2,1:2:0:0:
78,214,84137,1,2,1:2:0:0:
72,172,84212,2,0,P|72:144|63:118,2,56.25,4|0|2,0:1|1:0|1:1,0:0:0:0:
204,296,84512,2,0,P|251:325|306:325,1,112.5,12|2,1:0|1:1,0:0:0:0:
400,232,84812,6,0,L|413:286,1,56.25,4|0,1:0|0:0,0:0:0:0:
276,236,84962,2,0,L|289:181,1,56.25,2|0,1:2|0:0,0:0:0:0:
364,64,85112,1,4,1:0:0:0:
326,83,85187,1,0,1:0:0:0:
285,89,85262,1,2,1:2:0:0:
244,80,85337,1,2,1:2:0:0:
208,59,85412,2,0,L|215:3,2,56.25,0|0|2,0:0|1:0|1:1,0:0:0:0:
104,176,85712,2,0,L|119:287,1,112.5,12|2,1:0|1:1,0:0:0:0:
208,204,86012,5,8,1:0:0:0:
218,332,86162,1,0,0:0:0:0:
6,156,86312,1,8,1:0:0:0:
16,284,86462,1,0,0:0:0:0:
256,131,86612,6,0,P|207:117|155:135,1,101.250003862381,8|0,1:0|0:0,0:0:0:0:
208,204,86912,5,8,1:0:0:0:
392,168,87062,1,0,0:0:0:0:
262,75,87212,6,0,L|251:165,1,56.25,4|0,1:0|0:0,0:0:0:0:
323,275,87362,2,0,L|334:185,1,56.25,2|0,1:2|0:0,0:0:0:0:
459,111,87512,1,12,1:0:0:0:
465,138,87587,1,0,1:0:0:0:
471,165,87662,1,2,1:2:0:0:
478,192,87737,1,2,1:2:0:0:
484,219,87812,2,0,L|473:309,2,56.25,0|0|2,0:0|1:0|1:1,0:0:0:0:
366,347,88112,2,0,P|304:356|239:298,1,112.5,12|2,1:0|1:1,0:0:0:0:
63,147,88412,6,0,B|97:114|97:114|185:138,1,112.5,4|2,1:0|1:2,0:0:0:0:
81,310,88712,1,12,1:0:0:0:
75,283,88787,1,0,1:0:0:0:
69,256,88862,1,2,1:2:0:0:
62,229,88937,1,2,1:2:0:0:
56,202,89012,2,0,L|67:112,2,56.25,4|0|2,0:1|1:0|1:1,0:0:0:0:
261,333,89312,2,0,L|278:199,1,112.5,12|2,1:0|1:1,0:0:0:0:
457,81,89612,6,0,P|420:70|382:78,1,56.25,4|0,1:0|0:0,0:0:0:0:
294,141,89762,2,0,P|266:140|239:131,1,56.25,2|0,1:2|0:0,0:0:0:0:
123,40,89912,1,12,1:0:0:0:
164,23,89987,1,0,1:0:0:0:
208,21,90062,1,2,1:2:0:0:
250,34,90137,1,2,1:2:0:0:
282,65,90212,2,0,L|306:5,2,56.25,0|0|2,0:0|1:0|1:1,0:0:0:0:
461,209,90512,2,0,P|409:221|336:176,1,112.5,12|2,1:0|1:1,0:0:0:0:
155,323,90812,6,0,P|207:311|280:356,1,112.5,4|2,1:0|1:2,0:0:0:0:
70,355,91112,1,12,1:0:0:0:
76,310,91187,1,0,1:0:0:0:
83,265,91262,1,2,1:2:0:0:
91,220,91337,1,2,1:2:0:0:
97,175,91412,2,0,P|70:167|41:176,2,56.25,4|0|0,0:1|1:0|1:0,0:0:0:0:
282,65,91712,2,0,L|264:184,1,112.5,0|0,1:0|1:0,0:0:0:0:
353,10,92012,5,4,1:0:0:0:
282,65,92312,1,12,1:0:0:0:
365,99,92612,1,4,1:1:0:0:
436,154,92912,5,12,1:0:0:0:
353,10,93062,1,2,1:1:0:0:
231,241,93212,6,0,L|212:128,1,90,4|0,1:0|0:0,0:0:0:0:
436,154,93512,2,0,L|455:267,1,90,12|0,1:0|0:0,0:0:0:0:
308,145,93812,2,0,L|289:32,1,90,4|0,1:1|0:0,0:0:0:0:
465,326,94112,1,12,1:0:0:0:
465,326,94262,1,2,1:1:0:0:
341,245,94412,5,4,1:0:0:0:
436,154,94562,1,2,1:2:0:0:
216,152,94712,6,0,L|206:93,3,45,12|0|2|0,1:0|0:0|1:2|0:0,0:0:0:0:
183,242,95012,5,4,1:0:0:0:
166,248,95087,1,0,1:0:0:0:
148,252,95162,1,2,1:1:0:0:
130,253,95237,1,0,1:0:0:0:
112,247,95312,5,12,1:0:0:0:
75,229,95387,1,0,1:0:0:0:
39,248,95462,1,2,1:1:0:0:
32,288,95537,1,0,1:0:0:0:
53,322,95612,5,8,1:0:0:0:
183,242,95762,1,0,1:0:0:0:
11,163,95912,6,0,B|58:137|58:137|149:176,1,135,8|0,1:0|1:0,0:0:0:0:
219,161,96212,5,0,3:0:0:0:
216,143,96287,1,0,3:0:0:0:
213,125,96362,1,0,3:0:0:0:
210,107,96437,1,0,3:0:0:0:
207,89,96512,1,8,1:0:0:0:
368,232,96812,6,0,B|396:276|396:276|346:276,1,101.250003862381,0|0,1:0|0:0,0:0:0:0:
473,241,97112,6,0,P|479:306|436:356,1,135,8|0,0:0|0:0,0:0:0:0:
260,316,97412,6,0,P|253:294|252:272,1,45,0|0,1:0|0:0,0:0:0:0:
276,148,97562,2,0,P|282:169|283:191,1,45,2|0,0:2|0:0,0:0:0:0:
212,99,97712,2,0,P|247:73|291:68,1,90,8|2,0:0|0:2,0:0:0:0:
136,176,98012,6,0,P|92:182|50:166,1,90,0|0,1:0|0:0,0:0:0:0:
148,320,98312,2,0,P|191:313|233:329,1,90,8|0,0:0|0:0,0:0:0:0:
412,208,98612,6,0,L|424:288,2,60,0|2|2,1:0|0:2|0:2,0:0:0:0:
392,112,98912,1,8,0:0:0:0:
240,204,99062,1,2,1:2:0:0:
468,344,99212,6,0,P|419:355|371:341,1,101.250003862381,0|0,1:0|0:0,0:0:0:0:
452,248,99512,6,0,P|407:277|414:224,1,135,8|0,0:0|0:0,0:0:0:0:
500,176,99812,6,0,L|492:131,1,45,0|0,1:0|0:0,0:0:0:0:
368,84,99962,2,0,L|360:128,1,45,2|0,0:2|0:0,0:0:0:0:
429,28,100112,2,0,P|390:7|346:6,1,90,8|2,0:0|0:2,0:0:0:0:
120,72,100412,6,0,L|236:92,1,90,0|0,1:0|0:0,0:0:0:0:
208,87,100637,1,0,0:0:0:0:
208,87,100712,1,8,0:0:0:0:
44,176,100862,1,0,1:0:0:0:
192,336,101012,6,0,P|180:288|192:236,1,90,0|2,1:0|1:2,0:0:0:0:
186,248,101237,1,0,1:0:0:0:
186,248,101312,1,8,0:0:0:0:
336,352,101462,1,2,1:2:0:0:
432,216,101612,6,0,B|408:208|396:184|396:184|372:200|347:197,1,101.250003862381,0|0,1:0|0:0,0:0:0:0:
467,143,101912,6,0,P|414:105|350:118,1,135,8|0,0:0|0:0,0:0:0:0:
256,88,102212,6,0,P|252:65|251:43,1,45,0|0,1:0|0:0,0:0:0:0:
196,164,102362,2,0,P|199:186|200:208,1,45,2|0,0:2|0:0,0:0:0:0:
168,316,102512,2,0,P|209:300|252:309,1,90,8|2,0:0|0:2,0:0:0:0:
460,352,102812,6,0,L|446:262,1,90,0|0,1:0|0:0,0:0:0:0:
272,112,103112,2,0,L|285:201,1,90,8|0,0:0|0:0,0:0:0:0:
84,144,103412,6,0,B|108:120|108:120|140:132,2,60,0|2|2,1:0|0:2|0:2,0:0:0:0:
36,236,103712,1,8,0:0:0:0:
8,36,103862,1,2,1:2:0:0:
228,64,104012,6,0,P|242:102|202:91,1,101.250003862381,0|0,1:0|0:0,0:0:0:0:
164,16,104312,5,8,0:0:0:0:
348,96,104462,1,0,1:0:0:0:
160,204,104612,2,0,P|203:192|246:203,1,90,0|2,1:0|0:2,0:0:0:0:
246,203,104837,1,0,1:0:0:0:
246,203,104912,1,8,0:0:0:0:
88,324,105062,1,2,1:2:0:0:
88,324,105362,5,0,3:0:0:0:
128,305,105437,1,0,0:0:0:0:
173,304,105512,1,0,3:0:0:0:
214,321,105587,1,0,3:0:0:0:
254,341,105662,1,0,3:0:0:0:
298,342,105737,1,0,3:0:0:0:
339,323,105812,2,0,P|340:301|338:279,1,45,0|0,3:0|3:0,0:0:0:0:
264,136,105962,2,0,P|262:158|264:180,1,45,0|0,3:0|3:0,0:0:0:0:
432,232,106112,1,8,1:0:0:0:
432,232,106412,6,0,B|454:185|454:185|422:139,1,101.250003862381,0|2,1:0|0:2,0:0:0:0:
362,86,106712,6,0,P|414:57|500:103,1,135,8|2,0:0|0:2,0:0:0:0:
317,13,107012,6,0,L|238:31,1,45,0|0,1:0|0:0,0:0:0:0:
190,44,107162,2,0,L|111:62,1,45,2|0,0:1|0:0,0:0:0:0:
40,149,107312,2,0,P|85:162|131:138,1,90,8|2,0:0|0:1,0:0:0:0:
273,22,107612,6,0,L|263:142,1,90,0|0,1:0|0:0,0:0:0:0:
115,235,107912,2,0,L|125:115,1,90,8|0,0:0|0:0,0:0:0:0:
319,222,108212,6,0,L|384:231,2,60,0|2|2,1:0|0:2|0:2,0:0:0:0:
228,209,108512,1,8,0:0:0:0:
370,107,108662,1,2,1:1:0:0:
467,245,108812,6,0,P|483:304|458:353,1,101.250003862381,0|2,1:0|0:2,0:0:0:0:
394,359,109112,6,0,L|228:336,1,135,8|2,0:0|0:2,0:0:0:0:
178,362,109412,6,0,P|176:333|187:296,1,45,0|0,1:0|0:0,0:0:0:0:
319,222,109562,2,0,P|321:251|310:288,1,45,2|0,0:1|0:0,0:0:0:0:
168,159,109712,2,0,L|44:141,1,90,8|2,0:0|0:1,0:0:0:0:
301,44,110012,6,0,P|341:32|411:60,1,90,0|2,1:0|0:2,0:0:0:0:
388,43,110237,1,2,0:2:0:0:
388,43,110312,1,8,0:0:0:0:
238,103,110462,1,2,1:2:0:0:
433,123,110612,6,0,P|393:135|323:107,1,90,0|2,1:0|1:2,0:0:0:0:
346,124,110837,1,2,1:2:0:0:
346,124,110912,1,8,0:0:0:0:
496,64,111062,1,2,1:2:0:0:
512,277,111212,6,0,P|472:297|459:254,1,101.250003862381,0|0,1:0|0:0,0:0:0:0:
512,197,111512,5,8,0:0:0:0:
459,254,111812,1,0,1:0:0:0:
438,180,112112,1,8,0:0:0:0:
280,339,112412,6,0,P|319:359|332:316,1,101.250003862381,0|0,1:0|0:0,0:0:0:0:
280,259,112712,5,8,0:0:0:0:
333,316,113012,1,0,1:0:0:0:
354,242,113312,5,8,0:0:0:0:
213,304,113462,1,2,1:1:0:0:
75,192,113612,6,0,P|88:149|127:170,1,101.250003862381,0|0,1:0|0:0,0:0:0:0:
194,229,113912,6,0,P|244:257|248:191,1,135,8|0,0:0|0:0,0:0:0:0:
300,110,114212,6,0,P|314:49|387:97,1,168.75,0|0,1:0|1:1,0:0:0:0:
512,212,114512,6,0,P|498:273|417:204,1,202.500007724762,8|0,0:0|0:0,0:0:0:0:
471,132,114812,6,0,L|480:67,2,45.0000017166138,4|2|2,0:3|0:3|0:3,0:0:0:0:
371,209,115112,2,0,L|380:144,2,45.0000017166138,4|2|2,0:3|0:3|0:3,0:0:0:0:
273,283,115412,2,0,L|282:218,2,45.0000017166138,4|2|2,0:3|0:3|0:3,0:0:0:0:
262,364,115712,5,8,1:0:0:0:
289,159,115862,1,8,1:0:0:0:
