osu file format v14

[General]
AudioFilename: audio.mp3
AudioLeadIn: 0
PreviewTime: 18962
Countdown: 0
SampleSet: Soft
StackLeniency: 0.3
Mode: 0
LetterboxInBreaks: 0
WidescreenStoryboard: 0

[Editor]
Bookmarks: 77612,96812,106412
DistanceSpacing: 0.5
BeatDivisor: 4
GridSize: 4
TimelineZoom: 2.5

[Metadata]
Title:Fox4-Raize-
TitleUnicode:Fox4-Raize-
Artist:Getty vs. DJ DiA
ArtistUnicode:Getty vs. DJ DiA
Creator:Kaifin
Version:Bonzi's Extra
Source:SOUND VOLTEX III GRAVITY WARS
Tags:sdvx xilver bonzi VINXIS Doormat The 4th KAC Original Song Contest オリジナル楽曲コンテスト PSYCHO†HOLIC Pumpcore
BeatmapID:1077604
BeatmapSetID:482552

[Difficulty]
HPDrainRate:6
CircleSize:4
OverallDifficulty:9
ApproachRate:9.6
SliderMultiplier:1.76
SliderTickRate:1

[Events]
//Background and Video events
0,0,"foxraizebghighrez.jpg",0,0
//Break Periods
//Storyboard Layer 0 (Background)
//Storyboard Layer 1 (Fail)
//Storyboard Layer 2 (Pass)
//Storyboard Layer 3 (Foreground)
//Storyboard Sound Samples

[TimingPoints]
812,300,4,2,2,70,1,0
5012,-588.235294117647,4,2,2,70,0,0
5612,-100,4,2,2,70,0,0
9812,-588.235294117647,4,2,2,70,0,0
10412,-71.4285714285714,4,2,2,70,0,0
10712,-133.333333333333,4,2,2,70,0,0
11012,-57.1428571428571,4,2,2,70,0,0
11162,-80,4,2,2,70,0,0
11312,-133.333333333333,4,2,2,70,0,0
11612,-66.6666666666667,4,2,2,70,0,0
11912,-57.1428571428571,4,2,2,70,0,0
13412,-133.333333333333,4,2,2,70,0,0
14312,-66.6666666666667,4,2,2,70,0,0
14912,-50,4,2,2,70,0,0
15212,-133.333333333333,4,2,2,70,0,0
15662,-117.647058823529,4,2,2,70,0,0
15962,-105.263157894737,4,2,2,70,0,0
16262,-95.2380952380951,4,2,2,70,0,0
16412,-86.9565217391304,4,2,2,70,0,0
16712,-80,4,2,2,70,0,0
17012,-74.0740740740741,4,2,2,70,0,0
17312,-68.9655172413793,4,2,2,70,0,0
17612,-64.5161290322581,4,2,2,70,0,0
18812,-1000,4,2,2,70,0,0
19562,-1000,4,2,2,70,0,0
19712,-100,4,2,2,70,0,0
19862,-66.6666666666667,4,2,2,70,0,0
20012,-57.1428571428571,4,2,2,70,0,0
20312,-133.333333333333,4,2,2,70,0,0
20462,-57.1428571428571,4,2,2,70,0,0
20762,-133.333333333333,4,2,2,70,0,0
21062,-57.1428571428571,4,2,2,70,0,0
21362,-133.333333333333,4,2,2,70,0,0
21662,-57.1428571428571,4,2,2,70,0,0
21812,-133.333333333333,4,2,2,70,0,0
22037,-133.333333333333,4,2,2,70,0,0
22412,-57.1428571428571,4,2,2,70,0,0
22712,-133.333333333333,4,2,2,70,0,0
22862,-57.1428571428571,4,2,2,70,0,0
23162,-133.333333333333,4,2,2,70,0,0
24662,-79.9999999999999,4,2,2,70,0,0
24812,-57.1428571428571,4,2,2,70,0,0
25112,-133.333333333333,4,2,2,70,0,0
25262,-57.1428571428571,4,2,2,70,0,0
25562,-133.333333333333,4,2,2,70,0,0
25862,-57.1428571428571,4,2,2,70,0,0
26162,-133.333333333333,4,2,2,70,0,0
26462,-57.1428571428571,4,2,2,70,0,0
26612,-133.333333333333,4,2,2,70,0,0
27212,-57.1428571428571,4,2,2,70,0,0
27512,-133.333333333333,4,2,2,70,0,0
27812,-57.1428571428571,4,2,2,70,0,0
28412,-1000,4,2,2,70,0,0
29612,-71.4285714285714,4,2,2,70,0,0
29912,-100,4,2,2,70,0,0
30212,-66.6666666666667,4,2,2,70,0,0
30512,-100,4,2,2,70,0,0
31112,-66.6666666666667,4,2,2,70,0,0
31712,-50,4,2,2,70,0,0
32012,-100,4,2,2,70,0,0
32312,-66.6666666666667,4,2,2,70,0,0
32612,-100,4,2,2,70,0,0
32912,-133.333333333333,4,2,2,70,0,0
33212,-66.6666666666667,4,2,2,70,0,0
34412,-57.1428571428571,4,2,2,70,0,0
34862,-80,4,2,2,70,0,0
35612,-57.1428571428571,4,2,2,70,0,0
35912,-66.6666666666667,4,2,2,70,0,0
36812,-100,4,2,2,70,0,0
37262,-66.6666666666667,4,2,2,70,0,0
37712,-133.333333333333,4,2,2,70,0,0
38312,-66.6666666666667,4,2,2,70,0,0
38537,-50,4,2,3,70,0,0
38912,-200,4,2,2,70,0,0
39212,-200,4,2,3,70,0,0
39812,-57.1428571428571,4,2,3,70,0,0
41312,-200,4,2,3,70,0,0
42212,-57.1428571428571,4,2,3,70,0,0
43562,-133.333333333333,4,2,3,70,0,0
44012,-57.1428571428571,4,2,3,70,0,0
46112,-57.1428571428571,4,2,2,70,0,0
48362,-100,4,2,2,70,0,0
48812,-57.1428571428571,4,2,3,70,0,0
49262,-66.6666666666667,4,2,3,70,0,0
50762,-100,4,2,3,70,0,0
51662,-66.6666666666667,4,2,3,70,0,0
53312,-142.857142857143,4,2,3,70,0,0
54512,-200,4,2,3,70,0,0
54812,-142.857142857143,4,2,3,70,0,0
55412,-66.6666666666667,4,2,3,70,0,0
55712,-200,4,2,3,70,0,0
56012,-66.6666666666667,4,2,3,70,0,0
57212,-66.6666666666667,4,2,4,70,0,0
58412,-500,4,2,2,70,0,0
67712,-100,4,2,2,70,0,0
67862,-66.6666666666667,4,2,2,70,0,0
68312,-100,4,2,2,70,0,0
68612,-66.6666666666667,4,2,2,70,0,0
68912,-100,4,2,2,70,0,0
69512,-57.1428571428571,4,2,2,70,0,0
70412,-100,4,2,2,70,0,0
70712,-66.6666666666667,4,2,2,70,0,0
71012,-100,4,2,2,70,0,0
71912,-66.6666666666667,4,2,2,70,0,0
72512,-50,4,2,2,70,0,0
72812,-133.333333333333,4,2,2,70,0,0
73112,-117.647058823529,4,2,2,70,0,0
73412,-105.263157894737,4,2,2,70,0,0
73712,-95.2380952380951,4,2,2,70,0,0
74012,-86.9565217391304,4,2,2,70,0,0
74312,-80,4,2,2,70,0,0
74612,-74.0740740740741,4,2,2,70,0,0
74912,-68.9655172413793,4,2,2,70,0,0
75212,-64.5161290322581,4,2,2,70,0,0
76937,-64.5161290322581,4,2,3,70,0,0
77312,-50,4,2,2,70,0,0
77612,-66.6666666666667,4,2,2,70,0,1
77912,-57.1428571428571,4,2,2,70,0,1
78812,-66.6666666666667,4,2,2,70,0,1
79112,-57.1428571428571,4,2,2,70,0,1
79337,-50,4,2,2,70,0,1
79712,-57.1428571428571,4,2,2,70,0,1
80012,-66.6666666666667,4,2,2,70,0,1
80312,-57.1428571428571,4,2,2,70,0,1
81212,-66.6666666666667,4,2,2,70,0,1
81512,-57.1428571428571,4,2,2,70,0,1
81962,-66.6666666666667,4,2,2,70,0,1
82712,-57.1428571428571,4,2,2,70,0,1
83162,-66.6666666666667,4,2,2,70,0,1
83612,-66.6666666666667,4,2,2,70,0,1
83912,-57.1428571428571,4,2,2,70,0,1
84137,-50,4,2,2,70,0,1
84512,-57.1428571428571,4,2,2,70,0,1
84812,-66.6666666666667,4,2,2,70,0,1
86012,-66.6666666666667,4,2,2,70,0,0
87212,-66.6666666666667,4,2,2,70,0,1
87737,-57.1428571428571,4,2,2,70,0,1
88412,-66.6666666666667,4,2,2,70,0,1
88712,-57.1428571428571,4,2,2,70,0,1
88862,-50,4,2,2,70,0,1
89312,-57.1428571428571,4,2,2,70,0,1
89612,-66.6666666666667,4,2,2,70,0,1
90137,-57.1428571428571,4,2,2,70,0,1
90362,-66.6666666666667,4,2,2,70,0,1
91112,-57.1428571428571,4,2,2,70,0,1
91337,-50,4,2,2,70,0,1
92012,-200,4,2,2,70,0,1
92312,-57.1428571428571,4,2,2,70,0,1
93212,-66.6666666666667,4,2,2,70,0,1
93512,-57.1428571428571,4,2,2,70,0,1
93737,-50,4,2,2,70,0,1
94112,-57.1428571428571,4,2,2,70,0,1
95612,-100,4,2,2,70,0,0
96212,-100,4,2,3,70,0,0
96512,-100,4,2,2,70,0,0
96812,-80,4,2,2,70,0,0
105362,-80,4,2,3,70,0,0
106112,-200,4,2,2,70,0,0
106412,-80,4,2,2,70,0,0
114812,-133.333333333333,4,2,2,70,0,0

[Colours]
Combo1 : 175,116,175
Combo2 : 38,147,143
Combo3 : 30,185,26
Combo4 : 255,26,31

[HitObjects]
151,302,812,6,0,L|157:346,1,44,0|0,1:0|0:0,0:0:0:0:
163,172,1037,2,0,L|169:216,1,44,0|0,1:0|0:0,0:0:0:0:
108,103,1262,1,0,1:0:0:0:
360,302,3212,6,0,L|355:346,1,44,0|0,1:0|0:0,0:0:0:0:
348,172,3437,2,0,L|343:216,1,44,0|0,1:0|0:0,0:0:0:0:
404,103,3662,1,0,1:0:0:0:
355,346,5012,6,0,L|361:297,1,44.8800002739258,0|0,1:0|0:0,0:0:0:0:
360,301,5612,6,0,L|306:304,1,44,0|0,1:0|0:0,0:0:0:0:
482,243,5837,2,0,L|427:245,1,44,0|0,1:0|0:0,0:0:0:0:
377,182,6062,1,0,1:0:0:0:
151,301,8012,6,0,L|206:304,1,44,0|0,1:0|0:0,0:0:0:0:
30,243,8237,2,0,L|84:245,1,44,0|0,1:0|0:0,0:0:0:0:
135,182,8462,1,0,1:0:0:0:
151,301,9812,6,0,L|195:302,1,44.8800002739258,0|0,1:0|0:0,0:0:0:0:
196,303,10412,6,0,P|204:327|198:374,1,61.5999981201172,0|0,1:0|0:0,0:0:0:0:
73,244,10562,2,0,L|80:172,1,61.5999981201172,0|0,0:0|0:0,0:0:0:0:
228,80,10712,6,0,L|232:36,1,33.0000012588501,8|0,0:0|0:0,0:0:0:0:
239,73,10862,2,0,L|241:41,1,33.0000012588501,0|0,0:0|0:0,0:0:0:0:
456,232,11012,6,0,L|344:224,1,77.0000007343292,0|0,0:0|0:0,0:0:0:0:
304,144,11162,6,0,L|248:148,1,55,0|0,1:0|0:0,0:0:0:0:
168,220,11312,5,8,0:0:0:0:
168,220,11387,1,0,0:0:0:0:
168,220,11462,2,0,L|132:217,1,33.0000012588501,0|0,0:0|0:0,0:0:0:0:
56,112,11612,6,0,B|48:80|48:80|56:44,1,66.0000025177003,0|0,1:0|0:0,0:0:0:0:
247,265,11762,2,0,B|255:297|255:297|247:329,1,66.0000025177003,0|0,0:0|0:0,0:0:0:0:
15,235,11912,6,0,L|168:220,1,154.000001468658,8|0,0:0|0:0,0:0:0:0:
401,344,12137,2,0,L|247:329,1,154.000001468658,8|0,0:0|0:0,0:0:0:0:
236,168,12362,1,0,1:0:0:0:
236,168,12437,1,0,0:0:0:0:
236,168,12512,2,0,L|240:124,2,38.5000003671646,8|0|0,0:0|0:0|0:0,0:0:0:0:
55,47,12662,2,0,P|91:30|135:35,1,77.0000007343292,0|0,0:0|0:0,0:0:0:0:
175,294,12812,6,0,B|161:256|161:256|167:220,1,77.0000007343292,0|0,1:0|0:0,0:0:0:0:
340,108,12962,2,0,B|353:145|353:145|344:188,1,77.0000007343292,0|0,0:0|0:0,0:0:0:0:
252,236,13112,2,0,B|266:157|266:157|247:84|247:84|265:-17,1,231.000002202988,8|0,0:0|0:0,0:0:0:0:
336,24,13412,6,0,L|368:21,1,33.0000012588501,0|0,0:0|0:0,0:0:0:0:
176,64,13562,2,0,L|143:66,1,33.0000012588501,0|0,1:0|0:0,0:0:0:0:
407,160,13712,5,10,0:1:0:0:
166,276,13862,1,0,0:0:0:0:
416,166,14012,6,0,L|454:168,1,33.0000012588501,0|0,1:0|0:0,0:0:0:0:
176,284,14162,2,0,L|143:281,1,33.0000012588501,0|0,0:0|0:0,0:0:0:0:
358,107,14312,5,8,0:0:0:0:
221,338,14462,1,0,1:0:0:0:
172,160,14612,5,8,0:0:0:0:
403,294,14762,2,0,L|404:359,1,66.0000025177003,0|0,1:0|0:0,0:0:0:0:
309,241,14912,6,0,P|425:245|404:360,1,264,8|0,0:0|0:0,0:0:0:0:
264,348,15212,5,0,1:0:0:0:
412,240,15362,2,0,P|432:240|468:256,1,33.0000012588501,0|0,0:0|0:0,0:0:0:0:
248,276,15512,5,0,1:0:0:0:
100,168,15662,2,0,P|80:168|44:184,1,37.4000007133484,2|0,0:2|0:0,0:0:0:0:
264,204,15812,5,0,1:0:0:0:
412,96,15962,2,0,P|432:96|468:112,1,41.7999988838196,2|0,0:2|0:0,0:0:0:0:
248,132,16112,5,2,1:2:0:0:
100,24,16262,2,0,P|80:24|44:40,1,46.1999985900879,2|0,1:2|1:0,0:0:0:0:
264,60,16412,6,0,B|308:32|308:32|384:48,1,101.200001930237,0|0,1:0|0:0,0:0:0:0:
412,96,16637,1,0,0:0:0:0:
380,168,16712,2,0,B|360:212|360:212|383:269,1,110,0|0,1:0|0:0,0:0:0:0:
428,332,16937,1,0,0:0:0:0:
364,376,17012,2,0,L|216:368,1,118.800000453186,2|0,1:1|1:0,0:0:0:0:
200,308,17237,1,0,1:0:0:0:
124,316,17312,2,0,P|96:356|164:372,1,127.600003894043,2|0,1:1|1:0,0:0:0:0:
200,300,17537,1,0,1:0:0:0:
148,240,17612,6,0,P|114:236|82:247,1,68.2000005203247,0|0,1:0|0:0,0:0:0:0:
382,268,17762,2,0,P|416:272|448:261,1,68.2000005203247,0|0,1:0|0:0,0:0:0:0:
148,174,17912,6,0,B|140:210|140:210|148:240,1,68.2000005203247,0|0,1:0|0:0,0:0:0:0:
360,148,18062,2,0,B|368:112|368:112|356:68,1,68.2000005203247,0|0,1:0|0:0,0:0:0:0:
239,291,18212,5,0,1:0:0:0:
240,300,18287,1,0,1:0:0:0:
241,309,18362,1,0,1:0:0:0:
242,318,18437,1,0,1:0:0:0:
243,327,18512,5,0,1:0:0:0:
250,259,18587,1,0,1:0:0:0:
257,191,18662,1,0,1:0:0:0:
264,123,18737,1,0,1:0:0:0:
210,55,18812,6,0,L|166:56,1,44,2|4,1:0|0:3,0:0:0:0:
166,57,19712,6,0,L|170:100,1,44,0|0,1:0|0:0,0:0:0:0:
238,172,19862,2,0,L|231:237,1,66.0000025177003,0|0,1:0|0:0,0:0:0:0:
154,308,20012,6,0,B|199:282|199:282|258:379|258:379|163:369,1,231.000002202988,0|0,1:0|0:0,0:0:0:0:
180,380,20312,6,0,L|122:383,1,33.0000012588501,8|0,0:0|0:0,0:0:0:0:
10,181,20462,6,0,B|93:186|93:186|155:167|155:167|237:172,1,231.000002202988,2|0,0:2|0:0,0:0:0:0:
252,160,20762,6,0,L|250:220,1,33.0000012588501,2|0,0:2|0:0,0:0:0:0:
72,76,20912,2,0,L|73:43,1,33.0000012588501,8|0,0:0|0:0,0:0:0:0:
204,260,21062,6,0,P|148:324|128:204,1,231.000002202988,2|0,0:2|0:0,0:0:0:0:
88,220,21362,6,0,L|120:217,1,33.0000012588501,0|0,0:0|0:0,0:0:0:0:
288,356,21512,2,0,L|228:351,1,33.0000012588501,8|0,0:0|0:0,0:0:0:0:
242,87,21662,6,0,P|257:120|237:180,1,77.0000007343292,2|0,0:2|0:0,0:0:0:0:
121,217,21812,6,0,L|57:213,2,44.0000016784669,0|2|2,1:0|0:2|0:2,0:0:0:0:
184,272,22112,6,0,L|179:325,1,33.0000012588501,8|0,0:0|0:0,0:0:0:0:
60,140,22262,2,0,L|63:107,1,33.0000012588501,2|0,1:2|0:0,0:0:0:0:
296,65,22412,6,0,P|353:124|249:156,1,231.000002202988,0|0,1:0|0:0,0:0:0:0:
236,164,22712,6,0,L|240:112,1,33.0000012588501,8|0,0:0|0:0,0:0:0:0:
484,244,22862,6,0,B|420:320|420:320|272:284,1,231.000002202988,2|0,0:2|0:0,0:0:0:0:
280,300,23162,6,0,L|276:248,1,33.0000012588501,2|0,0:2|0:0,0:0:0:0:
432,144,23312,2,0,L|434:176,1,33.0000012588501,8|0,0:0|0:0,0:0:0:0:
296,65,23462,6,0,L|348:61,1,33.0000012588501,2|0,0:2|0:0,0:0:0:0:
165,175,23612,5,2,1:2:0:0:
156,174,23687,1,2,0:2:0:0:
148,173,23762,1,2,0:2:0:0:
140,173,23837,1,2,0:2:0:0:
131,172,23912,5,10,0:2:0:0:
123,171,23987,1,2,0:2:0:0:
115,171,24062,1,2,1:2:0:0:
107,171,24137,1,2,0:2:0:0:
56,112,24212,6,0,L|52:56,1,33.0000012588501,0|0,1:0|0:0,0:0:0:0:
48,232,24362,1,2,1:1:0:0:
48,232,24437,1,0,1:0:0:0:
48,232,24512,2,0,L|50:264,1,33.0000012588501,8|0,0:0|0:0,0:0:0:0:
68,96,24662,6,0,L|72:37,1,55,2|0,1:1|0:0,0:0:0:0:
32,280,24812,6,0,B|168:316|112:232|268:272,1,231.000002202988,0|0,1:0|0:0,0:0:0:0:
264,284,25112,6,0,L|260:332,1,33.0000012588501,8|0,0:0|0:0,0:0:0:0:
152,68,25262,6,0,B|184:12|184:12|196:208,1,231.000002202988,2|0,0:2|0:0,0:0:0:0:
204,188,25562,6,0,L|140:184,1,33.0000012588501,2|0,0:2|0:0,0:0:0:0:
312,32,25712,2,0,L|344:34,1,33.0000012588501,8|0,0:0|0:0,0:0:0:0:
456,240,25862,6,0,P|420:272|340:148,1,231.000002202988,2|0,0:2|0:0,0:0:0:0:
320,156,26162,6,0,L|368:152,1,33.0000012588501,0|0,0:0|0:0,0:0:0:0:
276,328,26312,2,0,L|243:330,1,33.0000012588501,8|0,0:0|0:0,0:0:0:0:
168,212,26462,6,0,B|180:248|180:248|168:285,1,77.0000007343292,2|0,0:2|0:0,0:0:0:0:
104,344,26612,6,0,L|28:352,2,44.0000016784669,0|2|2,1:0|0:2|0:2,0:0:0:0:
169,285,26912,6,0,L|185:241,1,33.0000012588501,8|0,0:0|0:0,0:0:0:0:
40,164,27062,2,0,L|56:208,1,33.0000012588501,2|0,1:2|0:0,0:0:0:0:
244,196,27212,6,0,B|335:191|335:191|372:209|372:209|484:203,1,231.000002202988,0|0,1:0|0:0,0:0:0:0:
484,216,27512,6,0,L|488:160,1,33.0000012588501,8|0,0:0|0:0,0:0:0:0:
316,288,27662,2,0,L|318:320,1,33.0000012588501,2|0,1:2|0:0,0:0:0:0:
396,104,27812,6,0,B|336:64|336:64|212:100,1,154.000001468658,0|2,1:0|1:2,0:0:0:0:
196,132,28037,1,0,1:0:0:0:
136,88,28112,2,0,L|132:8,1,77.0000007343292,8|0,0:0|0:0,0:0:0:0:
318,214,28262,2,0,B|327:251|327:251|315:288,1,77.0000007343292,2|0,1:2|0:0,0:0:0:0:
244,328,28412,6,0,L|226:328,3,17.6,8|4|4|8,0:3|0:3|0:3|0:0,0:0:0:0:
226,328,29612,6,0,L|220:244,1,61.5999981201172,0|0,1:0|0:0,0:0:0:0:
212,120,29762,2,0,L|216:181,1,61.5999981201172,0|0,0:0|0:0,0:0:0:0:
292,216,29912,6,0,B|338:179,1,44,8|0,0:0|0:0,0:0:0:0:
144,220,30062,2,0,B|109:192,1,44,2|0,0:2|0:0,0:0:0:0:
207,57,30212,6,0,B|219:89|219:89|211:119,1,66.0000025177003,0|0,1:0|0:0,0:0:0:0:
32,136,30362,2,0,B|20:104|20:104|34:44,1,66.0000025177003,2|0,0:2|0:0,0:0:0:0:
144,220,30512,5,8,0:0:0:0:
144,220,30587,1,0,0:0:0:0:
144,220,30662,2,0,L|140:276,1,44,2|0,0:2|0:0,0:0:0:0:
216,48,30812,6,0,L|284:44,1,44,0|0,1:0|0:0,0:0:0:0:
264,124,30962,2,0,L|220:126,1,44,2|0,0:2|0:0,0:0:0:0:
332,76,31112,6,0,B|476:68|476:68|416:112,1,198.000007553101,8|0,0:0|0:0,0:0:0:0:
377,152,31412,2,0,B|365:184|365:184|372:214,1,66.0000025177003,0|2,1:0|0:2,0:0:0:0:
424,276,31562,2,0,L|416:364,1,66.0000025177003,0|2,0:0|0:2,0:0:0:0:
174,232,31712,6,0,L|110:236,2,44,8|0|0,0:0|0:0|0:0,0:0:0:0:
328,217,31862,2,0,L|371:214,2,44,0|0|0,1:2|0:0|0:0,0:0:0:0:
248,172,32012,6,0,L|252:128,1,44,0|0,1:0|0:0,0:0:0:0:
232,300,32162,2,0,L|227:343,1,44,0|0,0:0|0:0,0:0:0:0:
174,232,32312,2,0,B|18:208|18:208|43:238,1,198.000007553101,8|0,0:0|0:0,0:0:0:0:
227,343,32612,6,0,L|232:300,1,44,0|0,1:0|0:0,0:0:0:0:
248,172,32762,2,0,L|253:128,1,44,2|0,0:2|0:0,0:0:0:0:
196,64,32912,6,0,L|156:68,1,33.0000012588501,10|0,0:1|0:0,0:0:0:0:
300,240,33062,2,0,L|332:236,1,33.0000012588501,2|0,0:2|0:0,0:0:0:0:
96,292,33212,6,0,B|88:324|88:324|96:360,1,66.0000025177003,0|0,1:0|0:0,0:0:0:0:
248,172,33362,1,2,0:2:0:0:
248,172,33437,1,0,0:0:0:0:
248,172,33512,2,0,L|242:106,1,66.0000025177003,8|0,0:0|0:0,0:0:0:0:
116,212,33662,6,0,P|140:224|192:216,1,66.0000025177003,2|0,0:2|0:0,0:0:0:0:
388,144,33812,2,0,P|366:168|336:180,1,66.0000025177003,0|0,1:0|0:0,0:0:0:0:
236,44,33962,1,2,1:2:0:0:
236,44,34037,1,0,1:0:0:0:
235,43,34112,2,0,P|247:73|242:105,1,66.0000025177003,8|0,0:0|0:0,0:0:0:0:
178,222,34262,2,0,L|181:288,1,66.0000025177003,0|0,1:0|0:0,0:0:0:0:
292,368,34412,6,0,B|468:352|468:352|404:296,1,231.000002202988,0|0,1:0|0:0,0:0:0:0:
364,268,34712,2,0,B|352:232|352:232|372:180,1,77.0000007343292,8|0,0:0|0:0,0:0:0:0:
368,112,34862,6,0,L|452:108,1,55,2|0,0:1|0:0,0:0:0:0:
292,68,35012,2,0,L|296:-8,1,55,0|0,1:0|0:0,0:0:0:0:
168,132,35162,6,0,L|252:128,1,55,2|0,0:1|0:0,0:0:0:0:
92,88,35312,2,0,L|96:12,1,55,8|0,0:0|0:0,0:0:0:0:
104,192,35462,2,0,L|101:246,1,55,0|0,0:0|0:0,0:0:0:0:
76,352,35612,6,0,B|40:336|40:336|256:316,1,231.000002202988,0|0,1:0|0:0,0:0:0:0:
312,312,35912,2,0,B|336:336|336:336|276:356,1,66.0000025177003,8|0,0:2|0:0,0:0:0:0:
101,246,36062,2,0,B|70:235|70:235|94:211,1,66.0000025177003,2|0,0:1|0:0,0:0:0:0:
236,152,36212,5,2,1:2:0:0:
236,142,36287,1,2,0:2:0:0:
236,133,36362,1,2,0:1:0:0:
237,123,36437,1,2,0:2:0:0:
237,114,36512,5,10,0:2:0:0:
238,104,36587,1,2,0:2:0:0:
238,95,36662,1,2,1:2:0:0:
239,86,36737,1,2,0:2:0:0:
296,32,36812,6,0,L|356:28,1,44,0|0,1:0|0:0,0:0:0:0:
168,48,36962,1,0,0:0:0:0:
168,48,37037,1,0,0:0:0:0:
168,48,37112,2,0,L|124:50,1,44,8|0,0:0|0:0,0:0:0:0:
324,60,37262,6,0,L|420:64,1,66.0000025177003,2|0,1:1|0:0,0:0:0:0:
152,44,37412,2,0,L|86:41,1,66.0000025177003,0|0,1:0|0:0,0:0:0:0:
237,123,37562,2,0,L|239:188,1,66.0000025177003,2|0,0:1|1:0,0:0:0:0:
158,261,37712,6,0,L|99:257,1,33.0000012588501,8|0,0:0|0:0,0:0:0:0:
312,268,37862,2,0,L|351:270,1,33.0000012588501,0|0,1:0|0:0,0:0:0:0:
239,188,38012,6,0,L|240:155,1,33.0000012588501,8|0,1:0|0:0,0:0:0:0:
232,342,38162,2,0,L|229:381,1,33.0000012588501,0|0,0:0|0:0,0:0:0:0:
240,155,38312,6,0,B|197:116|197:116|227:277,1,198.000007553101,8|0,1:0|3:0,0:0:0:0:
236,266,38612,5,0,3:0:0:0:
306,259,38687,1,0,3:0:0:0:
376,252,38762,1,0,3:0:0:0:
446,245,38837,1,0,3:0:0:0:
512,294,38912,6,0,B|508:320|508:320|512:332|512:332|504:364,1,66,8|0,1:0|0:0,0:0:0:0:
348,72,39212,6,0,B|368:40|368:40|384:164,1,154,2|0,1:1|0:0,0:0:0:0:
340,216,39812,6,0,B|304:232|304:232|248:216,1,77.0000007343292,8|0,0:2|0:0,0:0:0:0:
348,72,39962,1,0,3:0:0:0:
348,72,40037,1,0,3:0:0:0:
348,72,40112,2,0,L|428:64,1,77.0000007343292,0|0,3:0|0:0,0:0:0:0:
208,148,40262,2,0,L|80:160,1,77.0000007343292,0|0,3:2|0:0,0:0:0:0:
270,295,40412,6,0,P|259:260|278:207,1,77.0000007343292,0|0,1:0|0:0,0:0:0:0:
460,192,40562,2,0,P|471:227|452:280,1,77.0000007343292,0|0,3:2|0:2,0:0:0:0:
341,148,40712,2,0,L|349:56,1,77.0000007343292,0|0,3:0|0:0,0:0:0:0:
388,316,40862,6,0,B|336:356|336:356|156:320,1,231.000002202988,0|0,0:2|0:0,0:0:0:0:
136,252,41162,6,0,B|152:216|152:216|188:256,1,77.0000007343292,0|0,1:0|0:0,0:0:0:0:
92,360,41312,6,0,L|8:364,1,66,0|0,1:1|0:1,0:0:0:0:
265,318,41612,6,0,B|288:347|288:347|166:322,1,154,0|0,1:1|0:0,0:0:0:0:
136,252,42212,6,0,L|128:148,1,77.0000007343292,8|0,0:0|0:0,0:0:0:0:
240,36,42362,1,0,3:3:0:0:
240,36,42437,1,0,3:2:0:0:
240,36,42512,2,0,B|256:72|256:72|236:124,1,77.0000007343292,0|0,3:0|0:0,0:0:0:0:
130,175,42662,2,0,L|50:171,1,77.0000007343292,0|0,3:2|0:0,0:0:0:0:
265,318,42812,6,0,L|345:314,1,77.0000007343292,0|0,1:0|0:0,0:0:0:0:
492,188,42962,1,0,3:2:0:0:
492,188,43037,1,0,3:2:0:0:
492,188,43112,2,0,B|456:176|456:176|400:200,1,77.0000007343292,0|0,3:0|0:0,0:0:0:0:
440,356,43262,2,0,L|448:252,1,77.0000007343292,0|0,1:2|0:0,0:0:0:0:
304,152,43412,5,8,0:0:0:0:
312,188,43487,1,0,0:0:0:0:
320,224,43562,2,0,L|372:228,1,33.0000012588501,0|0,1:0|0:0,0:0:0:0:
464,81,43712,6,0,B|459:32|459:32|420:62,1,99.0000037765504,0|0,1:1|0:0,0:0:0:0:
416,136,44012,6,0,P|501:108|420:62,1,231.000002202988,0|0,1:1|0:1,0:0:0:0:
268,72,44312,2,0,P|186:112|271:144,1,231.000002202988,0|0,1:1|0:1,0:0:0:0:
344,99,44612,6,0,L|352:0,1,77.0000007343292,8|0,0:0|0:0,0:0:0:0:
202,193,44762,1,0,3:2:0:0:
202,193,44837,1,0,3:2:0:0:
202,193,44912,2,0,L|210:292,1,77.0000007343292,0|0,3:0|0:0,0:0:0:0:
439,231,45062,2,0,B|403:212|403:212|348:223,1,77.0000007343292,0|0,3:2|0:0,0:0:0:0:
264,339,45212,6,0,L|353:346,1,77.0000007343292,0|0,1:0|0:0,0:0:0:0:
202,193,45362,1,0,3:2:0:0:
202,193,45437,1,0,3:2:0:0:
202,193,45512,2,0,L|113:186,1,77.0000007343292,0|0,3:0|0:0,0:0:0:0:
312,40,45662,2,0,B|328:72|328:72|316:120,1,77.0000007343292,0|0,1:2|0:0,0:0:0:0:
202,193,45812,2,0,L|210:292,1,77.0000007343292,8|0,0:0|0:0,0:0:0:0:
264,339,45962,1,0,1:2:0:0:
125,186,46112,5,8,1:0:0:0:
276,328,46262,1,8,1:0:0:0:
112,192,46412,5,0,1:0:0:0:
201,175,46562,1,2,0:2:0:0:
170,262,46712,1,10,0:2:0:0:
144,112,46862,5,0,1:0:0:0:
288,164,47012,1,2,0:2:0:0:
170,262,47162,1,10,0:2:0:0:
244,59,47312,5,0,1:0:0:0:
382,224,47462,1,2,0:2:0:0:
170,262,47612,1,10,0:2:0:0:
350,50,47762,5,0,1:0:0:0:
444,311,47912,1,2,0:2:0:0:
170,262,48062,1,10,0:2:0:0:
321,207,48212,5,0,1:0:0:0:
321,207,48362,6,0,L|328:280,1,44,10|0,0:1|0:0,0:0:0:0:
172,76,48512,2,0,L|211:94,1,44,2|0,1:1|0:0,0:0:0:0:
424,44,48662,2,0,L|388:69,1,44,2|0,1:1|0:0,0:0:0:0:
308,124,48812,6,0,B|256:152|192:124|192:124|128:92|68:124,1,231.000002202988,2|0,1:1|0:0,0:0:0:0:
72,136,49112,1,8,0:1:0:0:
196,292,49262,6,0,B|188:376,1,66.0000025177003,2|0,0:3|0:0,0:0:0:0:
136,192,49412,1,0,0:0:0:0:
272,268,49562,6,0,B|264:352,1,66.0000025177003,2|0,1:2|0:0,0:0:0:0:
196,148,49712,1,8,0:0:0:0:
348,244,49862,6,0,B|340:328,1,66.0000025177003,2|0,0:3|0:0,0:0:0:0:
256,104,50012,1,0,1:0:0:0:
424,220,50162,6,0,B|416:304,1,66.0000025177003,2|0,0:2|0:0,0:0:0:0:
316,60,50312,1,8,0:0:0:0:
500,196,50462,6,0,B|492:280,1,66.0000025177003,2|0,0:3|0:0,0:0:0:0:
376,16,50612,1,0,0:0:0:0:
508,208,50762,5,2,1:1:0:0:
256,104,50912,1,8,0:1:0:0:
376,16,51062,2,0,L|379:59,1,44,2|0,1:1|0:0,0:0:0:0:
340,132,51212,5,2,1:1:0:0:
496,12,51362,1,2,0:2:0:0:
432,252,51512,1,10,0:2:0:0:
379,60,51662,6,0,B|424:57|424:57|452:73,1,66.0000025177003,2|0,0:3|0:0,0:0:0:0:
503,117,51812,1,0,0:0:0:0:
216,190,51962,6,0,B|261:193|261:193|289:177,1,66.0000025177003,2|0,1:2|0:0,0:0:0:0:
340,132,52112,1,8,0:0:0:0:
53,59,52262,6,0,B|98:56|98:56|126:72,1,66.0000025177003,2|0,0:3|0:0,0:0:0:0:
177,117,52412,1,0,1:0:0:0:
117,324,52562,6,0,B|112:253,1,66.0000025177003,2|0,0:2|0:0,0:0:0:0:
134,186,52712,1,8,0:0:0:0:
405,125,52862,6,0,L|279:138,1,66.0000025177003,2|0,1:3|0:0,0:0:0:0:
257,144,53012,1,8,0:0:0:0:
345,28,53162,1,2,1:1:0:0:
451,270,53312,6,0,B|441:295|441:295|448:318|448:318|437:374,1,92.3999971801759,8|2,0:1|0:1,0:0:0:0:
428,366,53612,5,8,0:0:0:0:
257,144,53762,1,2,1:1:0:0:
502,29,53912,1,8,0:0:0:0:
395,288,54062,1,2,1:1:0:0:
258,53,54212,1,8,0:0:0:0:
464,228,54362,1,2,1:1:0:0:
206,312,54512,6,0,L|144:308,1,44,4|0,0:3|1:0,0:0:0:0:
108,254,54737,1,0,1:0:0:0:
108,254,54812,5,8,0:0:0:0:
362,363,54962,1,2,1:1:0:0:
86,328,55112,1,8,0:0:0:0:
340,219,55262,1,2,1:1:0:0:
206,377,55412,6,0,B|204:349|204:349|207:336|207:336|205:296,1,66.0000025177003,8|0,0:0|0:0,0:0:0:0:
251,221,55562,2,0,B|252:193|252:193|249:180|249:180|251:140,1,66.0000025177003,2|0,1:1|0:0,0:0:0:0:
160,84,55712,6,0,B|136:82|136:82|147:95|147:95|179:97,1,66,2|0,3:1|0:1,0:0:0:0:
250,155,56012,5,2,1:2:0:0:
278,170,56087,1,0,1:0:0:0:
311,172,56162,1,2,1:2:0:0:
341,160,56237,1,0,1:0:0:0:
389,96,56312,5,2,1:2:0:0:
363,81,56387,1,0,1:0:0:0:
333,79,56462,1,2,1:2:0:0:
306,90,56537,1,0,1:0:0:0:
341,160,56612,5,2,3:2:0:0:
342,182,56687,1,0,3:0:0:0:
344,204,56762,1,2,3:2:0:0:
345,226,56837,1,0,3:0:0:0:
382,297,56912,5,2,3:2:0:0:
381,307,56987,1,0,3:0:0:0:
380,318,57062,1,2,3:2:0:0:
379,329,57137,1,0,3:0:0:0:
378,340,57212,5,0,0:0:0:0:
378,340,58412,6,0,L|388:232,1,105.6,4|0,0:3|0:0,0:0:0:0:
312,52,59612,6,0,B|296:104|296:104|320:152,1,105.6,0|0,0:0|0:0,0:0:0:0:
134,340,60812,6,0,L|124:232,1,105.6,0|0,0:0|0:0,0:0:0:0:
200,52,62012,6,0,B|216:104|216:104|192:152,1,105.6,0|0,0:0|0:0,0:0:0:0:
124,236,63212,6,0,L|12:232,1,105.6,2|0,0:0|0:0,0:0:0:0:
388,236,64412,6,0,L|500:232,1,105.6,2|0,0:0|0:0,0:0:0:0:
193,149,65612,6,0,B|177:96|177:96|201:48,1,105.6,2|0,0:0|0:0,0:0:0:0:
322,343,66812,6,0,L|245:350,1,70.4,4|0,0:3|0:0,0:0:0:0:
166,328,67712,6,0,L|174:247,1,44,8|0,1:0|0:0,0:0:0:0:
238,212,67862,2,0,L|230:131,1,66.0000025177003,8|0,1:0|0:0,0:0:0:0:
154,76,68012,6,0,B|124:77|124:77|115:73|115:73|59:76,1,66.0000025177003,0|0,1:0|0:0,0:0:0:0:
231,146,68162,2,0,B|261:147|261:147|270:143|270:143|326:146,1,66.0000025177003,2|0,0:2|0:0,0:0:0:0:
340,76,68312,6,0,L|332:20,1,44,8|0,0:0|0:0,0:0:0:0:
288,224,68462,2,0,L|296:280,1,44,0|2,0:0|0:2,0:0:0:0:
440,172,68612,6,0,P|456:140|444:88,1,66.0000025177003,0|0,0:0|0:0,0:0:0:0:
284,276,68762,2,0,P|283:308|298:337,1,66.0000025177003,2|0,1:2|0:0,0:0:0:0:
231,146,68912,5,8,0:0:0:0:
231,146,68987,1,0,0:0:0:0:
231,146,69062,2,0,L|151:142,1,44,2|0,0:2|0:0,0:0:0:0:
128,212,69212,6,0,L|130:255,1,44,0|0,1:0|0:0,0:0:0:0:
120,84,69362,2,0,L|117:40,1,44,2|0,0:2|0:0,0:0:0:0:
250,286,69512,6,0,B|214:238|214:238|231:144,1,154.000001468658,8|0,0:0|0:0,0:0:0:0:
312,64,69737,1,10,0:2:0:0:
324,72,69812,2,0,L|432:68,1,77.0000007343292,0|0,0:0|0:0,0:0:0:0:
248,160,69962,2,0,L|140:156,1,77.0000007343292,2|0,1:2|0:0,0:0:0:0:
408,200,70112,6,0,L|412:240,2,38.5000003671646,8|0|0,0:0|0:0|0:0,0:0:0:0:
464,304,70262,2,0,L|460:344,2,38.5000003671646,2|0|0,0:2|0:0|0:0,0:0:0:0:
456,132,70412,6,0,L|516:128,1,44,0|0,1:0|0:0,0:0:0:0:
332,232,70562,2,0,L|272:236,1,44,2|0,0:2|0:0,0:0:0:0:
152,80,70712,2,0,B|210:35|210:35|324:96,1,198.000007553101,8|2,0:0|0:2,0:0:0:0:
334,188,71012,6,0,L|329:262,1,44,0|0,0:0|0:0,0:0:0:0:
264,352,71162,2,0,L|266:308,1,44,2|0,1:2|0:0,0:0:0:0:
164,224,71312,5,10,0:1:0:0:
408,324,71462,1,2,0:2:0:0:
172,212,71612,6,0,L|168:152,1,44,0|0,1:0|0:0,0:0:0:0:
400,312,71762,2,0,L|396:372,1,44,2|0,0:2|0:0,0:0:0:0:
400,160,71912,5,8,0:0:0:0:
192,332,72062,1,2,1:2:0:0:
192,140,72212,5,8,0:0:0:0:
400,312,72362,2,0,B|396:340|396:340|400:348|400:348|396:384,1,66.0000025177003,2|0,1:2|0:1,0:0:0:0:
313,255,72512,6,0,P|325:219|387:316,1,264,8|0,0:0|0:0,0:0:0:0:
312,344,72812,5,0,1:0:0:0:
272,148,72962,2,0,L|316:152,1,33.0000012588501,0|2,0:0|0:2,0:0:0:0:
232,332,73112,5,0,1:0:0:0:
192,124,73262,2,0,L|236:128,1,37.4000007133484,0|2,0:0|0:1,0:0:0:0:
152,320,73412,5,0,1:0:0:0:
112,100,73562,2,0,L|156:104,1,41.7999988838196,2|0,0:1|0:0,0:0:0:0:
72,308,73712,5,0,1:0:0:0:
32,76,73862,2,0,L|82:80,1,46.1999985900879,2|0,0:1|0:0,0:0:0:0:
64,320,74012,6,0,B|40:272|40:272|56:224,1,101.200001930237,0|0,1:0|0:0,0:0:0:0:
112,176,74237,1,2,0:2:0:0:
180,212,74312,2,0,L|308:216,1,110,0|0,1:0|0:0,0:0:0:0:
360,184,74537,1,2,0:1:0:0:
416,248,74612,2,0,B|434:302|434:302|405:359,1,118.800000453186,0|2,1:0|1:1,0:0:0:0:
368,192,74837,1,0,1:0:0:0:
304,140,74912,2,0,L|312:-8,1,127.600003894043,0|2,1:0|1:1,0:0:0:0:
380,60,75137,1,0,1:0:0:0:
448,20,75212,6,0,P|460:48|448:100,1,68.2000005203247,0|0,1:0|0:0,0:0:0:0:
231,181,75362,2,0,P|219:153|231:101,1,68.2000005203247,2|0,1:2|0:0,0:0:0:0:
419,179,75512,6,0,L|414:288,1,68.2000005203247,0|0,1:0|0:0,0:0:0:0:
308,80,75662,2,0,L|311:11,1,68.2000005203247,2|0,1:2|0:1,0:0:0:0:
360,324,75812,6,0,B|328:340|328:340|284:332,1,68.2000005203247,0|0,1:0|1:0,0:0:0:0:
355,189,75962,2,0,B|387:173|387:173|431:181,1,68.2000005203247,2|0,1:2|1:0,0:0:0:0:
231,277,76112,6,0,L|227:177,1,68.2000005203247,0|0,1:0|1:0,0:0:0:0:
223,117,76262,2,0,L|219:17,1,68.2000005203247,2|0,1:2|1:0,0:0:0:0:
149,156,76412,6,0,L|49:160,1,68.2000005203247,8|0,1:0|0:0,0:0:0:0:
301,148,76562,2,0,L|369:145,1,68.2000005203247,0|0,0:0|0:0,0:0:0:0:
13,187,76712,6,0,B|-14:140|-14:140|149:161,1,204.600001560974,8|0,1:0|3:0,0:0:0:0:
149,156,77012,5,0,3:0:0:0:
144,230,77087,1,0,3:0:0:0:
141,305,77162,1,0,3:0:0:0:
138,380,77237,1,0,3:0:0:0:
75,340,77312,5,8,1:0:0:0:
149,156,77612,6,0,B|177:140|177:140|233:146,1,66.0000025177003,4|0,1:0|0:0,0:0:0:0:
270,304,77762,2,0,L|267:370,1,66.0000025177003,2|0,1:2|0:0,0:0:0:0:
288,192,77912,2,0,B|351:195|351:195|372:184|372:184|448:188,1,154.000001468658,4|2,1:0|1:2,0:0:0:0:
504,236,78137,2,0,P|508:280|428:248,1,154.000001468658,2|0,1:2|1:0,0:0:0:0:
388,104,78362,2,0,L|396:24,1,77.0000007343292,2|0,1:0|0:0,0:0:0:0:
348,276,78512,2,0,B|344:316|344:316|368:372,1,77.0000007343292,12|0,1:0|0:0,0:0:0:0:
212,108,78662,2,0,B|180:88|180:88|116:104,1,77.0000007343292,2|0,1:0|0:0,0:0:0:0:
282,281,78812,6,0,L|386:273,1,66.0000025177003,4|0,1:0|0:0,0:0:0:0:
100,172,78962,2,0,L|34:177,1,66.0000025177003,2|0,1:2|0:0,0:0:0:0:
276,159,79112,2,0,P|284:99|212:108,1,154.000001468658,4|2,1:0|1:2,0:0:0:0:
104,260,79337,2,0,P|182:278|180:197,1,176,2|0,1:2|1:0,0:0:0:0:
100,172,79562,2,0,L|-16:164,1,88,2|0,1:0|0:0,0:0:0:0:
260,352,79712,2,0,B|296:360|296:360|344:336,1,77.0000007343292,12|0,1:0|0:0,0:0:0:0:
212,108,79862,2,0,L|80:100,1,77.0000007343292,2|0,1:0|0:0,0:0:0:0:
379,267,80012,6,0,L|374:201,1,66.0000025177003,4|0,1:0|0:0,0:0:0:0:
324,48,80162,2,0,L|328:113,1,66.0000025177003,2|0,1:2|0:0,0:0:0:0:
512,219,80312,2,0,B|460:179|460:179|374:201,1,154.000001468658,4|2,1:0|1:2,0:0:0:0:
260,352,80537,2,0,B|288:380|288:380|308:232,1,154.000001468658,2|0,1:2|1:0,0:0:0:0:
211,107,80762,2,0,B|196:144|196:144|223:203,1,77.0000007343292,2|0,1:1|0:0,0:0:0:0:
408,92,80912,2,0,L|402:15,1,77.0000007343292,12|0,1:0|0:0,0:0:0:0:
303,266,81062,2,0,L|308:342,1,77.0000007343292,2|0,1:1|0:0,0:0:0:0:
273,113,81212,6,0,P|248:102|208:108,1,66.0000025177003,4|0,1:0|0:0,0:0:0:0:
72,204,81362,2,0,L|6:206,1,66.0000025177003,2|0,1:2|0:0,0:0:0:0:
231,338,81512,2,0,L|308:342,1,77.0000007343292,4|0,1:0|1:0,0:0:0:0:
125,149,81662,1,2,1:2:0:0:
142,139,81737,2,0,L|295:148,1,154.000001468658,2|0,1:2|1:0,0:0:0:0:
364,208,81962,2,0,B|376:236|376:236|363:269,1,66.0000025177003,0|0,1:0|1:0,0:0:0:0:
344,60,82112,5,12,1:0:0:0:
352,59,82187,1,0,0:0:0:0:
360,58,82262,1,0,0:0:0:0:
368,57,82337,1,0,0:0:0:0:
376,56,82412,6,0,L|372:136,1,66.0000025177003,4|0,1:0|0:0,0:0:0:0:
361,335,82562,2,0,L|364:269,1,66.0000025177003,2|0,1:2|0:0,0:0:0:0:
299,79,82712,2,0,B|229:107|229:107|295:148,1,154.000001468658,4|2,1:0|1:2,0:0:0:0:
442,160,82937,2,0,B|512:132|512:132|416:72,1,154.000001468658,2|0,1:2|1:0,0:0:0:0:
367,203,83162,2,0,L|364:269,1,66.0000025177003,2|0,1:1|0:0,0:0:0:0:
160,140,83312,2,0,B|152:108|152:108|161:76,1,66.0000025177003,12|0,1:0|0:0,0:0:0:0:
200,336,83462,2,0,L|134:333,1,66.0000025177003,2|0,1:1|0:0,0:0:0:0:
97,146,83612,6,0,B|129:134|129:134|160:140,1,66.0000025177003,4|0,1:0|0:0,0:0:0:0:
272,300,83762,2,0,B|284:332|284:332|277:363,1,66.0000025177003,2|0,1:2|0:0,0:0:0:0:
432,176,83912,2,0,B|392:200|392:200|256:184,1,154.000001468658,4|2,1:0|1:2,0:0:0:0:
216,232,84137,2,0,B|120:200|136:268|40:232,1,176,2|0,1:2|1:0,0:0:0:0:
4,168,84362,2,0,B|-8:132|-8:132|4:76,1,88,2|0,1:1|0:0,0:0:0:0:
172,304,84512,2,0,L|164:400,1,77.0000007343292,12|0,1:0|0:0,0:0:0:0:
88,120,84662,2,0,L|184:112,1,77.0000007343292,2|0,1:1|0:0,0:0:0:0:
338,305,84812,6,0,L|272:299,1,66.0000025177003,4|0,1:0|0:0,0:0:0:0:
432,176,84962,2,0,L|497:181,1,66.0000025177003,2|0,1:2|0:0,0:0:0:0:
285,187,85112,2,0,B|264:140|264:140|284:44,1,132.000005035401,4|2,1:0|1:2,0:0:0:0:
356,20,85337,2,0,B|416:48|416:48|336:112,1,132.000005035401,2|0,1:2|1:0,0:0:0:0:
184,88,85562,2,0,L|208:-8,1,66.0000025177003,2|0,1:1|0:0,0:0:0:0:
355,241,85712,2,0,L|338:305,1,66.0000025177003,12|0,1:0|0:0,0:0:0:0:
364,89,85862,2,0,L|456:81,1,66.0000025177003,2|0,1:1|0:0,0:0:0:0:
488,140,86012,5,8,1:0:0:0:
492,140,86162,1,0,0:0:0:0:
492,144,86312,1,8,1:0:0:0:
488,144,86462,1,0,0:0:0:0:
488,140,86612,1,8,1:0:0:0:
488,140,86912,5,8,1:0:0:0:
468,272,87062,1,0,0:0:0:0:
364,89,87212,6,0,L|372:17,1,66.0000025177003,4|0,1:0|0:0,0:0:0:0:
480,264,87362,2,0,B|488:296|488:296|476:336,1,66.0000025177003,2|0,1:2|0:0,0:0:0:0:
240,188,87512,2,0,B|304:160|304:160|384:184,1,132.000005035401,12|2,1:0|1:2,0:0:0:0:
344,332,87737,2,0,B|276:364|276:364|200:336,1,154.000001468658,2|0,1:2|1:0,0:0:0:0:
403,266,87962,2,0,L|511:262,1,77.0000007343292,2|0,1:1|0:0,0:0:0:0:
124,356,88112,2,0,P|112:320|124:276,1,77.0000007343292,12|0,1:0|0:0,0:0:0:0:
236,114,88262,2,0,P|248:150|235:194,1,77.0000007343292,2|0,1:1|0:0,0:0:0:0:
72,220,88412,6,0,L|0:216,1,66.0000025177003,4|0,1:0|0:0,0:0:0:0:
108,52,88562,2,0,L|173:55,1,66.0000025177003,2|0,1:2|0:0,0:0:0:0:
384,168,88712,2,0,B|333:199|333:199|173:178,1,154.000001468658,12|2,1:0|1:2,0:0:0:0:
108,52,88937,2,0,B|139:5|139:5|157:123,1,176,2|0,1:2|1:0,0:0:0:0:
88,260,89162,2,0,B|72:220|72:220|88:172,1,88,2|0,1:1|0:0,0:0:0:0:
292,284,89312,2,0,L|284:364,1,77.0000007343292,12|0,1:0|0:0,0:0:0:0:
158,123,89462,2,0,L|234:114,1,77.0000007343292,2|0,1:1|0:0,0:0:0:0:
368,248,89612,6,0,B|380:280|380:280|368:328,1,66.0000025177003,4|0,1:0|0:0,0:0:0:0:
320,104,89762,2,0,B|308:72|308:72|320:24,1,66.0000025177003,2|0,1:2|0:0,0:0:0:0:
472,136,89912,2,0,B|484:168|484:168|356:156,1,132.000005035401,12|2,1:0|1:2,0:0:0:0:
308,192,90137,2,0,B|244:196|244:196|224:208|224:208|136:212,1,154.000001468658,2|0,1:2|1:0,0:0:0:0:
100,156,90362,2,0,B|88:128|88:128|104:88,1,66.0000025177003,2|0,1:1|0:0,0:0:0:0:
204,292,90512,2,0,L|88:300,1,66.0000025177003,12|0,1:0|0:0,0:0:0:0:
253,107,90662,2,0,L|318:102,1,66.0000025177003,2|0,1:1|0:0,0:0:0:0:
372,310,90812,6,0,L|364:390,1,66.0000025177003,4|0,1:0|0:0,0:0:0:0:
312,168,90962,2,0,L|318:102,1,66.0000025177003,2|0,1:2|0:0,0:0:0:0:
496,284,91112,2,0,B|456:336|456:336|340:300,1,154.000001468658,12|2,1:0|1:2,0:0:0:0:
138,166,91337,2,0,B|209:162|209:162|242:172|242:172|312:168,1,176,2|0,1:2|1:0,0:0:0:0:
382,222,91562,2,0,L|370:322,1,88,0|0,1:0|0:0,0:0:0:0:
160,88,91712,2,0,B|144:48|144:48|160:0,1,88,0|0,1:0|0:0,0:0:0:0:
288,344,91862,2,0,L|168:352,1,88,0|0,1:0|0:0,0:0:0:0:
312,168,92012,6,0,L|320:108,1,44,4|0,1:0|0:0,0:0:0:0:
264,60,92237,1,0,0:0:0:0:
276,52,92312,6,0,B|332:52|332:52|364:40|364:40|444:40,1,154.000001468658,12|0,1:0|0:0,0:0:0:0:
452,192,92537,2,0,B|416:224|416:224|397:119,1,154.000001468658,0|0,0:0|0:0,0:0:0:0:
508,20,92762,2,0,L|496:124,1,77.0000007343292,0|0,0:0|0:1,0:0:0:0:
241,179,92912,2,0,B|273:159|273:159|341:175,1,77.0000007343292,12|0,1:0|0:0,0:0:0:0:
436,328,93062,2,0,L|336:332,1,77.0000007343292,2|0,1:1|0:0,0:0:0:0:
397,120,93212,6,0,L|392:193,1,66.0000025177003,4|0,1:0|0:0,0:0:0:0:
188,92,93362,2,0,L|192:26,1,66.0000025177003,0|0,0:0|0:0,0:0:0:0:
292,280,93512,2,0,B|252:320|252:320|128:300,1,154.000001468658,12|0,1:0|0:0,0:0:0:0:
80,336,93737,2,0,L|72:132,1,176,2|0,0:1|0:0,0:0:0:0:
100,85,93962,2,0,L|204:93,1,88,0|0,0:0|0:1,0:0:0:0:
303,352,94112,2,0,P|287:312|303:260,1,77.0000007343292,12|0,1:0|0:0,0:0:0:0:
385,46,94262,2,0,P|401:86|385:138,1,77.0000007343292,2|0,1:1|0:0,0:0:0:0:
328,188,94412,6,0,L|229:181,1,77.0000007343292,4|0,1:0|0:0,0:0:0:0:
436,292,94562,2,0,L|512:297,1,77.0000007343292,2|0,1:2|0:0,0:0:0:0:
332,292,94712,6,0,L|325:391,1,77.0000007343292,12|0,1:0|0:0,0:0:0:0:
436,184,94862,2,0,L|441:107,1,77.0000007343292,2|0,1:2|0:0,0:0:0:0:
304,40,95012,5,4,1:0:0:0:
284,41,95087,1,0,1:0:0:0:
265,42,95162,1,2,1:1:0:0:
246,44,95237,1,0,1:0:0:0:
227,45,95312,1,12,1:0:0:0:
207,46,95387,1,0,1:0:0:0:
188,47,95462,1,2,1:1:0:0:
169,49,95537,1,0,1:0:0:0:
150,50,95612,5,8,1:0:0:0:
184,132,95762,1,0,1:0:0:0:
28,200,95912,5,8,1:0:0:0:
62,118,96062,2,0,L|116:116,1,44,0|0,1:0|1:0,0:0:0:0:
188,272,96212,5,0,3:0:0:0:
177,271,96287,1,0,3:0:0:0:
166,270,96362,1,0,3:0:0:0:
155,269,96437,1,0,3:0:0:0:
144,269,96512,1,8,1:0:0:0:
144,269,96812,6,0,B|180:248|224:269|224:269|268:292|312:269,1,165,0|0,1:0|0:0,0:0:0:0:
412,228,97112,2,0,B|320:176|320:176|265:200,1,165,8|0,0:0|0:0,0:0:0:0:
372,356,97412,2,0,L|384:264,1,55,0|0,1:0|0:0,0:0:0:0:
258,146,97562,2,0,L|266:201,1,55,2|0,0:2|0:0,0:0:0:0:
302,273,97712,1,8,0:0:0:0:
392,72,97862,1,2,0:2:0:0:
184,132,98012,6,0,B|240:164|240:164|340:154,1,165,0|0,1:0|0:0,0:0:0:0:
392,73,98312,2,0,B|359:39|359:39|339:155,1,165,8|0,0:0|0:0,0:0:0:0:
404,212,98612,2,0,L|500:220,1,55,0|0,1:0|0:0,0:0:0:0:
288,356,98762,2,0,L|384:364,1,55,0|0,0:0|0:0,0:0:0:0:
416,324,98912,1,8,0:0:0:0:
184,132,99062,1,2,1:2:0:0:
288,356,99212,6,0,B|284:288|284:288|295:263|295:263|290:183,1,165,0|0,1:0|0:0,0:0:0:0:
336,128,99512,2,0,B|428:152|428:152|364:200,1,165,8|0,0:0|0:0,0:0:0:0:
232,144,99812,2,0,L|240:64,1,55,0|0,1:0|0:0,0:0:0:0:
416,324,99962,2,0,L|340:320,1,55,2|0,0:2|0:0,0:0:0:0:
288,356,100112,1,8,0:0:0:0:
496,176,100262,1,2,0:2:0:0:
329,54,100412,6,0,L|337:150,2,73.3333333333333,0|0|0,1:0|0:0|0:0,0:0:0:0:
400,16,100712,6,0,L|464:20,1,55,8|0,0:0|0:0,0:0:0:0:
268,176,100862,2,0,L|213:172,1,55,0|0,1:0|0:0,0:0:0:0:
176,104,101012,5,0,1:0:0:0:
464,268,101162,1,2,1:2:0:0:
464,268,101237,1,0,1:0:0:0:
464,268,101312,2,0,L|456:348,1,55,8|0,0:0|0:0,0:0:0:0:
335,127,101462,2,0,L|340:72,1,55,2|0,1:2|0:0,0:0:0:0:
312,276,101612,6,0,B|276:296|228:276|228:276|184:256|152:272,1,165,0|0,1:0|0:0,0:0:0:0:
88,329,101912,2,0,P|159:342|151:272,1,165,8|0,0:0|0:0,0:0:0:0:
72,248,102212,2,0,L|12:252,1,55,0|0,1:0|0:0,0:0:0:0:
276,204,102362,2,0,B|284:176|284:176|276:136,1,55,2|0,0:2|0:0,0:0:0:0:
216,96,102512,1,8,0:0:0:0:
324,288,102662,1,2,0:2:0:0:
89,330,102812,6,0,B|84:256|84:256|95:235|95:235|90:168,1,165,0|0,1:0|0:0,0:0:0:0:
136,96,103112,2,0,B|164:136|164:136|172:264,1,165,8|0,0:0|0:0,0:0:0:0:
48,104,103412,2,0,L|44:24,2,73.3333333333333,0|2|2,1:0|0:2|0:2,0:0:0:0:
91,168,103712,6,0,P|65:179|38:181,1,55,8|0,0:0|0:0,0:0:0:0:
224,77,103862,2,0,P|231:51|228:23,1,55,2|0,1:2|0:0,0:0:0:0:
244,228,104012,6,0,B|276:256|276:256|398:245,1,165,0|0,1:0|0:0,0:0:0:0:
437,163,104312,2,0,B|409:127|409:127|398:245,1,165,8|0,0:0|0:0,0:0:0:0:
440,308,104612,2,0,L|512:312,1,55,0|0,1:0|0:0,0:0:0:0:
248,174,104762,1,2,0:2:0:0:
248,174,104837,1,0,1:0:0:0:
248,174,104912,2,0,L|244:228,1,55,8|0,0:0|0:0,0:0:0:0:
272,304,105062,1,2,1:2:0:0:
272,304,105362,5,0,3:0:0:0:
261,305,105437,1,0,0:0:0:0:
250,306,105512,1,0,3:0:0:0:
239,308,105587,1,0,3:0:0:0:
228,309,105662,1,0,3:0:0:0:
217,311,105737,1,0,3:0:0:0:
206,312,105812,1,0,3:0:0:0:
195,313,105887,1,0,3:0:0:0:
184,315,105962,1,0,3:0:0:0:
173,316,106037,1,0,3:0:0:0:
162,318,106112,6,0,B|168:348|168:348|164:356|164:356|168:388,1,66,8|0,1:0|0:0,0:0:0:0:
96,260,106412,6,0,B|80:220|80:220|99:91,1,165,0|2,1:0|0:2,0:0:0:0:
112,80,106712,1,8,0:0:0:0:
332,76,106862,6,0,B|416:68,1,55,0|2,0:0|0:2,0:0:0:0:
232,16,107012,1,0,1:0:0:0:
308,152,107162,6,0,B|392:144,1,55,2|0,0:1|0:0,0:0:0:0:
188,76,107312,1,8,0:0:0:0:
284,228,107462,6,0,B|368:220,1,55,2|0,0:1|0:0,0:0:0:0:
144,136,107612,1,0,1:0:0:0:
260,304,107762,6,0,B|344:296,1,55,0|2,0:0|0:2,0:0:0:0:
100,196,107912,1,8,0:0:0:0:
236,380,108062,6,0,B|320:372,1,55,0|2,0:0|0:2,0:0:0:0:
144,264,108212,6,0,P|116:276|71:270,2,73.3333333333333,0|2|2,1:0|0:2|0:2,0:0:0:0:
188,204,108512,6,0,P|212:192|248:196,1,55,8|0,0:0|0:0,0:0:0:0:
403,283,108662,2,0,P|423:303|430:329,1,55,2|0,1:1|0:0,0:0:0:0:
328,180,108812,6,0,B|308:64|308:64|332:16,1,165,0|2,1:0|0:2,0:0:0:0:
352,12,109112,1,8,0:0:0:0:
176,80,109262,6,0,B|92:72,1,55,0|2,0:0|0:2,0:0:0:0:
276,20,109412,1,0,1:0:0:0:
200,156,109562,6,0,B|116:148,1,55,2|0,0:1|0:0,0:0:0:0:
320,80,109712,1,8,0:0:0:0:
224,232,109862,6,0,B|140:224,1,55,2|0,0:1|0:0,0:0:0:0:
364,140,110012,1,0,1:0:0:0:
248,308,110162,6,0,B|164:300,1,55,2|2,0:2|0:2,0:0:0:0:
408,200,110312,1,8,0:0:0:0:
272,384,110462,6,0,B|188:376,1,55,2|0,1:2|0:0,0:0:0:0:
452,260,110612,1,0,1:0:0:0:
292,152,110762,5,2,1:2:0:0:
292,152,110837,1,2,1:2:0:0:
292,152,110912,2,0,L|288:228,1,55,8|0,0:0|0:0,0:0:0:0:
440,132,111062,2,0,L|442:77,1,55,2|0,1:2|0:0,0:0:0:0:
300,284,111212,6,0,B|348:320|348:320|452:276,1,165,0|0,1:0|0:0,0:0:0:0:
452,260,111512,1,8,0:0:0:0:
360,96,111662,6,0,B|368:12,1,55,2|0,0:1|0:0,0:0:0:0:
452,260,111812,1,0,1:0:0:0:
284,120,111962,6,0,B|292:36,1,55,2|0,0:1|0:0,0:0:0:0:
392,304,112112,1,8,0:0:0:0:
208,144,112262,6,0,B|216:60,1,55,2|0,0:1|0:0,0:0:0:0:
332,348,112412,6,0,B|256:344|256:344|232:332|232:332|132:324,1,165,0|0,1:0|0:0,0:0:0:0:
148,332,112712,1,8,0:0:0:0:
208,144,112862,6,0,B|216:60,1,55,2|0,0:1|0:0,0:0:0:0:
268,244,113012,1,0,1:0:0:0:
132,168,113162,6,0,B|140:84,1,55,2|0,0:1|0:0,0:0:0:0:
208,288,113312,1,8,0:0:0:0:
56,192,113462,6,0,B|64:108,1,55,2|0,1:1|0:0,0:0:0:0:
148,332,113612,6,0,B|209:336|209:336|233:348|233:348|309:352,1,165,0|0,1:0|0:0,0:0:0:0:
332,348,113912,2,0,B|312:332|312:332|252:328,1,55,8|0,0:0|0:0,0:0:0:0:
196,208,114062,2,0,B|225:206|225:206|245:190,1,55,2|0,1:1|0:0,0:0:0:0:
344,96,114212,2,0,L|340:20,1,55,0|2,1:0|0:2,0:0:0:0:
448,220,114362,1,0,0:0:0:0:
444,248,114437,1,0,1:1:0:0:
440,276,114512,2,0,L|368:280,1,55,8|0,0:0|0:0,0:0:0:0:
245,190,114662,2,0,L|173:186,1,55,2|0,1:1|0:0,0:0:0:0:
40,256,114812,6,0,L|8:312,2,44.0000016784669,4|2|2,0:3|0:3|0:3,0:0:0:0:
44,172,115112,2,0,L|11:116,2,44.0000016784669,4|2|2,0:3|0:3|0:3,0:0:0:0:
114,217,115412,2,0,L|178:216,2,44.0000016784669,4|2|2,0:3|0:3|0:3,0:0:0:0:
40,256,115712,5,8,1:0:0:0:
116,132,115862,1,8,1:0:0:0:
