osu file format v14

[General]
AudioFilename: audio.mp3
AudioLeadIn: 0
PreviewTime: 115727
Countdown: 0
SampleSet: Soft
StackLeniency: 0.7
Mode: 0
LetterboxInBreaks: 0
WidescreenStoryboard: 1

[Editor]
Bookmarks: 29927
DistanceSpacing: 1.1
BeatDivisor: 4
GridSize: 32
TimelineZoom: 1

[Metadata]
Title:DropZ -Line- (Extended Mix)
TitleUnicode:DropZ -Line- (Extended Mix)
Artist:Getty vs. DJ DiA
ArtistUnicode:Getty vs. DJ DiA
Creator:-Syncro
Version:NORMAL
Source:SOUND VOLTEX IV HEAVENLY HAVEN
Tags:beatmania IIDX 25 CANNON BALLERS SDVX SDVX4 pumpcore ANTiFRONT GEARS Zekk electronic instrumental MrSergio Seijiro _Zekken Flask Chizu The 6th KAC Original Song Contest オリジナル楽曲コンテスト
BeatmapID:3017238
BeatmapSetID:1453967

[Difficulty]
HPDrainRate:2
CircleSize:3
OverallDifficulty:4
ApproachRate:5
SliderMultiplier:0.999999999999999
SliderTickRate:1

[Events]
//Background and Video events
0,0,"Konachan.com - 322894 sample_waifu2x_art_noise1_scale_tta_1.jpg",0,0
//Break Periods
2,99186,107386
//Storyboard Layer 0 (Background)
//Storyboard Layer 1 (Fail)
//Storyboard Layer 2 (Pass)
//Storyboard Layer 3 (Foreground)
//Storyboard Layer 4 (Overlay)
//Storyboard Sound Samples

[TimingPoints]
2986,300,4,2,22,70,1,0
34427,-100,4,2,22,70,0,0
36286,-100,4,2,22,60,0,0
36586,-100,4,2,22,50,0,0
40186,-100,4,2,22,60,0,0
41386,-100,4,2,22,70,0,0
89386,-100,4,2,22,50,0,0
108586,-100,4,2,22,70,0,0
115786,-100,4,2,22,70,0,0
143927,-100,4,2,22,70,0,0
145786,-100,4,2,22,70,0,0
146686,-100,4,2,22,70,0,0

[Colours]
Combo1 : 210,62,66
Combo2 : 169,106,244
Combo3 : 219,132,36
Combo4 : 193,117,180

[HitObjects]
26,113,31786,6,0,P|69:84|177:42,1,150,4|0,3:2|3:2,0:0:0:0:
209,61,32386,1,2,0:2:0:0:
315,90,32686,1,2,3:2:0:0:
415,44,32986,6,0,P|429:88|384:194,1,150,4|0,3:2|3:2,0:0:0:0:
342,194,33586,2,0,P|318:249|361:309,1,99.9999999999999,2|4,0:2|3:2,0:0:0:0:
260,363,34186,6,0,P|220:341|108:326,1,150,4|0,3:2|3:2,0:0:0:0:
82,360,34786,1,2,0:2:0:0:
18,270,35086,1,14,0:2:0:0:
107,205,35386,6,0,P|117:153|113:30,1,150,4|0,3:2|3:2,0:0:0:0:
134,3,35986,2,0,P|180:16|199:49,2,50,8|0|8,0:2|3:2|0:2,0:0:0:0:
256,192,36586,12,2,39586,3:2:0:0:
316,47,40186,6,0,L|340:181,1,99.9999999999999,10|0,0:2|0:0,0:0:0:0:
419,196,40786,2,0,L|478:177,2,50,10|8|8,0:2|0:2|3:2,0:0:0:0:
367,281,41386,6,0,B|412:304|412:304|458:280,2,99.9999999999999,4|8|0,3:2|0:2|3:2,0:0:0:0:
273,315,42286,2,0,L|172:288,1,99.9999999999999,8|0,0:2|3:2,0:0:0:0:
80,318,42886,2,0,P|77:261|114:211,1,99.9999999999999,8|0,0:2|3:2,0:0:0:0:
138,196,43336,1,0,3:2:0:0:
138,196,43486,1,8,0:2:0:0:
237,188,43786,6,0,L|258:79,2,99.9999999999999,4|8|0,3:2|0:2|3:2,0:0:0:0:
321,241,44686,1,8,0:2:0:0:
403,297,44986,2,0,P|453:314|504:298,1,99.9999999999999,0|8,3:2|0:2,0:0:0:0:
495,202,45586,2,0,P|486:125|481:74,1,99.9999999999999,0|0,3:2|3:2,0:0:0:0:
412,32,46186,1,4,3:2:0:0:
328,87,46486,6,0,B|278:109|278:109|231:88,2,99.9999999999999,8|0|8,0:2|3:2|0:2,0:0:0:0:
406,149,47386,2,0,L|419:261,1,99.9999999999999,0|8,3:2|0:2,0:0:0:0:
317,243,47986,2,0,L|209:250,1,99.9999999999999,0|10,3:2|3:2,0:0:0:0:
167,248,48436,1,10,3:2:0:0:
167,248,48586,1,4,3:2:0:0:
78,293,48886,2,0,P|66:245|93:171,2,99.9999999999999,8|0|8,0:2|3:2|0:2,0:0:0:0:
158,353,49786,6,0,P|212:346|242:330,1,50,0|0,3:2|3:2,0:0:0:0:
255,335,50086,2,0,P|309:342|339:358,1,50,10|2,0:2|3:2,0:0:0:0:
356,348,50386,2,0,L|479:337,1,99.9999999999999,2|2,3:2|3:2,0:0:0:0:
446,239,50986,6,0,P|422:189|454:123,1,99.9999999999999,4|8,3:2|0:2,0:0:0:0:
459,51,51586,2,0,P|409:58|350:80,1,99.9999999999999,0|8,3:2|0:2,0:0:0:0:
336,116,52036,1,0,0:2:0:0:
319,164,52186,6,0,P|264:207|217:182,1,99.9999999999999,0|8,3:2|0:2,0:0:0:0:
149,157,52786,2,0,P|172:95|188:42,1,99.9999999999999,0|8,3:2|0:2,0:0:0:0:
141,33,53236,1,0,3:2:0:0:
84,39,53386,6,0,P|38:46|20:99,1,99.9999999999999,4|8,3:2|0:2,0:0:0:0:
14,191,53986,2,0,P|45:259|57:301,1,99.9999999999999,0|8,3:2|0:2,0:0:0:0:
100,297,54436,1,0,0:2:0:0:
140,330,54586,6,0,P|177:342|222:301,1,99.9999999999999,0|8,3:2|0:2,0:0:0:0:
297,242,55186,2,0,P|376:256|425:273,1,99.9999999999999,0|8,3:2|0:2,0:0:0:0:
451,344,55786,6,0,P|491:300|477:226,1,99.9999999999999,4|8,3:2|0:2,0:0:0:0:
437,179,56386,1,0,3:2:0:0:
482,90,56686,1,0,3:2:0:0:
434,74,56836,1,0,3:2:0:0:
382,85,56986,6,0,P|274:96|258:111,1,99.9999999999999,4|8,3:2|0:2,0:0:0:0:
228,170,57586,1,0,3:2:0:0:
128,182,57886,1,0,3:2:0:0:
84,206,58036,1,0,3:2:0:0:
28,192,58186,6,0,L|42:78,1,99.9999999999999,12|8,0:2|0:2,0:0:0:0:
109,20,58786,2,0,L|223:34,1,99.9999999999999,0|0,3:2|3:2,0:0:0:0:
288,91,59386,6,0,B|293:152|293:152|303:162|303:162|309:248,2,150,10|10|2,0:2|0:2|0:2,0:0:0:0:
367,30,60586,6,2,P|440:36|448:150,1,200,2|10,0:2|0:2,0:0:0:0:
455,244,61486,1,2,0:2:0:0:
365,288,61786,2,0,P|316:278|267:287,1,99.9999999999999,2|2,0:2|3:2,0:0:0:0:
196,356,62386,2,0,P|147:366|98:357,1,99.9999999999999,10|2,0:2|0:2,0:0:0:0:
53,335,62836,1,2,3:2:0:0:
15,301,62986,1,6,3:2:0:0:
34,202,63286,5,2,0:2:0:0:
133,190,63586,2,2,P|178:210|228:213,1,99.9999999999999,10|2,0:2|0:2,0:0:0:0:
307,151,64186,1,2,0:2:0:0:
385,212,64486,1,2,3:2:0:0:
457,142,64787,6,0,P|477:97|480:47,1,99.9999999999999,10|2,0:2|3:2,0:0:0:0:
388,7,65386,1,2,0:2:0:0:
299,53,65686,2,0,P|278:30|267:3,2,50,2|2|10,0:2|0:2|0:2,0:0:0:0:
368,124,66286,5,2,0:2:0:0:
291,188,66586,2,0,P|242:177|193:171,1,99.9999999999999,2|2,0:2|3:2,0:0:0:0:
133,90,67186,2,0,P|84:101|35:107,1,99.9999999999999,10|2,0:2|0:2,0:0:0:0:
256,192,67786,12,10,69586,0:2:0:0:
25,53,70186,6,0,L|48:186,1,99.9999999999999,4|8,3:2|0:2,0:0:0:0:
93,237,70786,2,2,B|139:258|139:258|205:216,1,99.9999999999999,2|10,3:2|0:2,0:0:0:0:
244,153,71386,1,2,3:2:0:0:
328,206,71686,1,10,0:2:0:0:
272,289,71986,2,0,L|259:340,1,50,2|2,3:2|0:2,0:0:0:0:
310,360,72286,1,2,3:2:0:0:
358,348,72436,1,0,3:2:0:0:
376,296,72586,6,0,P|425:297|471:278,1,99.9999999999999,4|10,3:2|0:2,0:0:0:0:
477,178,73186,2,2,L|459:66,1,99.9999999999999,2|10,3:2|0:2,0:0:0:0:
372,31,73786,1,2,3:2:0:0:
279,69,74086,1,10,0:2:0:0:
181,45,74386,2,2,L|121:28,2,50,2|2|2,3:2|0:2|0:2,0:0:0:0:
204,142,74986,6,0,B|231:192|231:192|205:264,1,99.9999999999999,0|0,3:2|3:2,0:0:0:0:
168,320,75586,2,2,B|115:331|115:331|63:305,1,99.9999999999999,2|2,0:2|3:2,0:0:0:0:
15,229,76186,6,0,L|-3:110,1,99.9999999999999,4|2,3:2|3:2,0:0:0:0:
54,46,76786,2,0,L|173:28,1,99.9999999999999,2|2,3:2|3:2,0:0:0:0:
202,39,77236,1,0,3:2:0:0:
202,39,77386,5,8,0:2:0:0:
301,32,77686,1,8,0:2:0:0:
400,23,77986,1,2,3:2:0:0:
499,11,78286,1,8,0:2:0:0:
250,195,79786,6,0,L|128:171,1,99.9999999999999,4|8,3:2|0:2,0:0:0:0:
102,167,80236,2,0,P|104:101|193:84,1,150,0|8,3:2|0:2,0:0:0:0:
206,36,80836,1,0,3:2:0:0:
247,6,80986,6,0,P|297:56|323:74,1,99.9999999999999,4|8,3:2|3:2,0:0:0:0:
332,121,81436,2,0,P|373:63|439:85,1,150,8|8,0:2|0:2,0:0:0:0:
416,182,82186,6,0,L|400:297,1,99.9999999999999,4|8,3:2|0:2,0:0:0:0:
408,330,82636,2,0,P|332:288|261:329,1,150,0|8,3:2|0:2,0:0:0:0:
238,340,83236,1,0,3:2:0:0:
186,349,83386,6,0,P|115:368|44:363,1,99.9999999999999,4|8,3:2|0:2,0:0:0:0:
39,362,83836,1,0,3:2:0:0:
0,309,83986,2,0,P|8:245|30:191,1,99.9999999999999,8|12,0:2|0:2,0:0:0:0:
127,183,84586,6,0,L|260:207,2,99.9999999999999,0|0|0,3:2|3:2|3:2,0:0:0:0:
50,119,85486,1,8,0:2:0:0:
147,95,85786,6,0,L|280:119,2,99.9999999999999,0|0|0,3:2|3:2|3:2,0:0:0:0:
78,22,86686,1,8,0:2:0:0:
176,5,86986,2,0,L|290:29,1,99.9999999999999,0|0,3:2|3:2,0:0:0:0:
380,20,87586,2,0,L|368:109,1,50,0|8,3:2|0:2,0:0:0:0:
350,113,87886,2,0,L|338:202,1,50,0|8,3:2|0:2,0:0:0:0:
303,192,88186,1,8,0:2:0:0:
512,281,89386,6,0,P|439:293|378:320,1,99.9999999999999,6|2,3:2|3:2,0:0:0:0:
321,277,89986,2,0,P|245:289|184:316,1,99.9999999999999,2|2,3:2|3:2,0:0:0:0:
132,338,90586,6,0,P|120:262|93:201,1,99.9999999999999,2|2,3:2|3:2,0:0:0:0:
98,141,91186,1,2,3:2:0:0:
119,43,91486,1,2,3:2:0:0:
165,25,91636,1,2,3:2:0:0:
217,27,91786,6,0,B|265:10|265:10|337:42,1,99.9999999999999,6|2,3:2|3:2,0:0:0:0:
383,110,92386,2,0,B|431:93|431:93|503:125,1,99.9999999999999,2|2,3:2|3:2,0:0:0:0:
470,213,92986,6,0,B|422:230|422:230|350:198,1,99.9999999999999,2|2,3:2|3:2,0:0:0:0:
309,284,93586,2,2,B|261:301|261:301|189:269,1,99.9999999999999,2|2,3:2|3:2,0:0:0:0:
183,243,94036,1,2,0:2:0:0:
135,221,94186,6,0,P|115:285|140:341,2,99.9999999999999,6|0|0,3:2|3:2|3:2,0:0:0:0:
199,144,95086,1,0,3:2:0:0:
291,107,95386,6,0,P|360:124|397:175,2,99.9999999999999,4|0|0,3:2|3:2|3:2,0:0:0:0:
222,33,96286,1,0,3:2:0:0:
132,77,96586,6,0,L|21:96,1,99.9999999999999,12|8,0:2|0:2,0:0:0:0:
23,193,97186,1,8,0:2:0:0:
46,290,97486,1,8,0:2:0:0:
256,192,97786,12,0,98986,0:2:0:0:
117,72,108586,6,0,P|152:145|172:192,1,99.9999999999999,0|0,3:2|3:2,0:0:0:0:
85,242,109186,2,0,P|132:247|164:261,1,50,0|0,3:2|3:2,0:0:0:0:
184,252,109486,2,0,P|208:251|233:246,1,50,0|0,3:2|3:2,0:0:0:0:
270,212,109786,2,0,P|342:178|392:199,1,99.9999999999999,0|0,3:2|3:2,0:0:0:0:
393,216,110236,1,0,3:2:0:0:
427,252,110386,2,0,P|457:201|446:149,1,99.9999999999999,4|4,3:2|3:2,0:0:0:0:
256,192,110986,12,4,112786,3:2:0:0:
256,192,113386,12,2,115786,0:2:0:0:
0,67,118186,6,0,B|46:42|46:42|114:71,1,99.9999999999999,4|8,3:2|0:2,0:0:0:0:
117,102,118636,1,0,0:0:0:0:
117,102,118786,2,0,B|109:144|109:144|114:156|114:156|103:221,1,99.9999999999999,0|8,3:2|0:2,0:0:0:0:
20,250,119386,6,0,P|75:297|130:298,1,99.9999999999999,0|8,3:2|0:2,0:0:0:0:
194,265,119986,2,0,L|261:281,1,50,0|0,3:2|3:2,0:0:0:0:
278,312,120286,2,0,L|345:296,1,50,8|0,0:2|3:2,0:0:0:0:
372,280,120586,6,0,B|371:229|371:229|375:216|375:216|372:174,1,99.9999999999999,4|8,3:2|0:2,0:0:0:0:
358,138,121036,1,0,0:0:0:0:
358,138,121186,2,0,B|307:151|307:151|224:130,1,99.9999999999999,0|8,3:2|0:2,0:0:0:0:
178,195,121786,6,0,P|161:136|181:75,1,99.9999999999999,0|8,3:2|0:2,0:0:0:0:
243,33,122386,2,0,P|286:22|340:25,1,50,0|0,3:2|3:2,0:0:0:0:
341,16,122686,2,0,P|365:19|389:27,1,50,12|0,0:2|0:0,0:0:0:0:
434,49,122986,6,0,B|454:94|454:94|442:161,1,99.9999999999999,4|8,3:2|0:2,0:0:0:0:
453,197,123436,1,0,0:0:0:0:
453,197,123586,2,0,L|347:215,1,99.9999999999999,0|8,3:2|0:2,0:0:0:0:
280,280,124186,2,0,P|218:262|163:278,1,99.9999999999999,0|8,3:2|0:2,0:0:0:0:
101,328,124786,2,0,P|90:287|73:265,1,50,0|0,3:2|3:2,0:0:0:0:
72,248,125086,2,0,P|82:207|99:185,1,50,8|0,0:2|3:2,0:0:0:0:
129,174,125386,6,0,P|165:116|162:66,1,99.9999999999999,4|8,3:2|0:2,0:0:0:0:
140,50,125836,1,0,0:0:0:0:
140,50,125986,2,0,L|254:60,1,99.9999999999999,0|8,3:2|0:2,0:0:0:0:
339,55,126586,2,0,L|327:6,2,50,8|0|8,0:2|3:2|0:2,0:0:0:0:
298,148,127186,1,8,0:2:0:0:
242,230,127486,1,12,0:2:0:0:
178,306,127786,6,0,B|128:321|128:321|87:290,1,99.9999999999999,4|8,3:2|0:2,0:0:0:0:
49,261,128236,1,0,0:0:0:0:
49,261,128386,2,0,L|42:147,1,99.9999999999999,0|8,3:2|0:2,0:0:0:0:
58,62,128986,2,0,P|121:102|132:128,1,99.9999999999999,0|8,3:2|0:2,0:0:0:0:
171,214,129586,2,0,P|214:200|229:194,1,50,0|0,3:2|3:2,0:0:0:0:
267,191,129886,2,0,P|290:198|314:206,1,50,8|0,0:2|3:2,0:0:0:0:
341,250,130186,6,0,P|408:287|438:288,1,99.9999999999999,4|8,3:2|0:2,0:0:0:0:
469,257,130636,1,0,0:2:0:0:
469,257,130786,2,0,L|455:152,1,99.9999999999999,0|8,3:2|0:2,0:0:0:0:
472,59,131386,2,0,P|408:67|380:92,1,99.9999999999999,0|8,3:2|0:2,0:0:0:0:
296,141,131986,2,0,P|245:130|229:125,1,50,0|0,3:2|3:2,0:0:0:0:
197,132,132286,2,0,P|146:143|130:148,1,50,12|0,0:2|0:0,0:0:0:0:
134,188,132586,6,0,B|114:240|114:240|146:301,1,99.9999999999999,4|8,3:2|0:2,0:0:0:0:
161,319,133036,1,0,0:0:0:0:
161,319,133186,2,0,L|274:297,1,99.9999999999999,0|8,3:2|0:2,0:0:0:0:
319,379,133786,2,0,P|356:317|350:270,1,99.9999999999999,0|8,3:2|0:2,0:0:0:0:
299,208,134386,1,0,3:2:0:0:
253,119,134686,1,8,0:2:0:0:
323,47,134986,6,0,B|372:42|372:42|390:46|390:46|449:38,1,99.9999999999999,4|8,3:2|0:2,0:0:0:0:
466,63,135436,1,0,0:0:0:0:
466,63,135586,2,0,L|454:172,1,99.9999999999999,0|8,3:2|0:2,0:0:0:0:
417,254,136186,2,0,L|430:310,2,50,8|0|8,0:2|3:2|0:2,0:0:0:0:
317,242,136786,2,0,L|330:298,2,50,8|8|12,0:2|0:2|0:2,0:0:0:0:
262,158,137386,6,0,L|391:137,2,99.9999999999999,12|8|8,3:2|3:2|3:2,0:0:0:0:
197,234,138286,1,8,3:2:0:0:
125,304,138586,2,0,L|9:328,2,99.9999999999999,8|8|8,3:2|3:2|3:2,0:0:0:0:
224,307,139486,1,0,3:2:0:0:
313,352,139786,6,0,P|317:282|295:233,1,99.9999999999999,12|8,3:2|3:2,0:0:0:0:
261,165,140386,2,0,P|191:161|142:183,1,99.9999999999999,8|8,3:2|3:2,0:0:0:0:
67,199,140986,2,0,P|42:155|52:73,1,99.9999999999999,8|0,3:2|3:2,0:0:0:0:
102,28,141586,2,0,P|146:3|228:13,1,99.9999999999999,0|8,3:2|0:2,0:0:0:0:
229,36,142036,1,8,0:2:0:0:
278,55,142186,6,0,L|405:73,2,99.9999999999999,12|8|8,3:2|0:2|0:2,0:0:0:0:
203,121,143086,1,0,3:2:0:0:
279,185,143386,2,0,L|406:203,2,99.9999999999999,12|8|8,0:2|0:2|0:2,0:0:0:0:
199,245,144286,1,0,3:2:0:0:
265,319,144586,6,8,L|336:331,2,50,8|8|8,0:2|0:2|0:2,0:0:0:0:
175,363,145186,2,8,L|104:351,2,50,8|8|8,0:2|0:2|0:2,0:0:0:0:
177,262,145786,6,0,B|171:215|171:215|165:207|165:207|159:143,1,99.9999999999999,12|0,0:2|0:0,0:0:0:0:
128,81,146386,1,8,0:2:0:0:
128,81,146536,1,8,0:2:0:0:
128,81,146686,1,8,0:2:0:0:
223,51,146986,6,0,B|268:28|268:28|314:52,2,99.9999999999999,4|8|0,3:2|0:2|3:2,0:0:0:0:
262,141,147886,2,0,L|289:242,1,99.9999999999999,8|0,0:2|3:2,0:0:0:0:
262,334,148486,2,0,P|319:337|369:300,1,99.9999999999999,8|0,0:2|3:2,0:0:0:0:
382,276,148936,1,0,3:2:0:0:
382,276,149086,1,8,0:2:0:0:
434,191,149386,6,0,L|413:82,2,99.9999999999999,4|8|0,3:2|0:2|3:2,0:0:0:0:
483,281,150286,1,8,0:2:0:0:
424,362,150586,2,0,P|374:379|323:363,1,99.9999999999999,0|8,3:2|0:2,0:0:0:0:
233,338,151186,2,0,P|156:347|105:352,1,99.9999999999999,0|8,3:2|0:2,0:0:0:0:
92,358,151636,1,2,0:2:0:0:
40,360,151786,1,4,3:2:0:0:
84,270,152086,6,0,B|106:220|106:220|85:173,2,99.9999999999999,8|0|8,0:2|3:2|0:2,0:0:0:0:
5,208,152986,2,0,L|18:96,1,99.9999999999999,0|8,3:2|0:2,0:0:0:0:
90,49,153586,2,0,L|198:42,1,99.9999999999999,0|8,3:2|0:2,0:0:0:0:
242,56,154036,1,0,0:2:0:0:
242,56,154186,1,4,3:2:0:0:
326,109,154486,2,0,P|338:61|311:-13,2,99.9999999999999,8|0|8,0:2|3:2|0:2,0:0:0:0:
252,176,155386,6,0,L|197:167,2,50,0|0|0,3:2|3:2|3:2,0:0:0:0:
316,252,155986,1,0,3:2:0:0:
413,231,156286,1,0,3:2:0:0:
491,293,156586,6,0,P|442:328|362:320,1,99.9999999999999,4|0,3:2|3:2,0:0:0:0:
306,358,157186,2,0,P|241:338|180:328,1,99.9999999999999,0|0,3:2|3:2,0:0:0:0:
122,282,157786,2,0,P|57:302|-4:312,1,99.9999999999999,0|0,3:2|3:2,0:0:0:0:
13,208,158386,2,0,P|-6:157|1:132,1,50,0|0,3:2|3:2,0:0:0:0:
11,115,158686,1,0,3:2:0:0:
98,60,158986,6,0,P|159:40|210:76,1,99.9999999999999,4|0,3:2|3:2,0:0:0:0:
202,152,159586,2,0,P|255:166|330:168,1,99.9999999999999,0|0,3:2|3:2,0:0:0:0:
306,68,160186,2,0,P|359:54|434:52,1,99.9999999999999,0|0,3:2|3:2,0:0:0:0:
485,108,160786,2,0,P|500:140|501:181,1,50,0|0,3:2|3:2,0:0:0:0:
478,198,161086,1,0,3:2:0:0:
474,247,161236,1,0,3:2:0:0:
447,289,161386,6,0,P|404:314|331:296,1,99.9999999999999,4|0,3:2|3:2,0:0:0:0:
291,231,161986,2,0,P|218:239|172:252,1,99.9999999999999,0|0,3:2|3:2,0:0:0:0:
154,338,162586,2,0,P|81:329|35:316,1,99.9999999999999,0|0,3:2|3:2,0:0:0:0:
24,227,163186,2,0,P|15:191|28:163,1,50,0|0,3:2|3:2,0:0:0:0:
54,145,163486,1,0,3:2:0:0:
121,71,163786,6,0,P|175:108|231:99,1,99.9999999999999,4|0,3:2|3:2,0:0:0:0:
293,56,164386,2,0,P|305:110|295:171,1,99.9999999999999,0|0,3:2|3:2,0:0:0:0:
221,215,164986,2,0,P|168:236|154:241,2,50,0|0|0,3:2|3:2|3:2,0:0:0:0:
318,238,165586,1,0,3:2:0:0:
410,276,165886,1,2,0:2:0:0:
339,346,166186,6,0,P|278:339|170:320,1,150,4|0,3:2|3:2,0:0:0:0:
142,311,166786,1,2,0:2:0:0:
56,242,167086,1,2,3:2:0:0:
80,134,167386,6,0,P|124:120|230:165,1,150,4|0,3:2|3:2,0:0:0:0:
246,194,167986,2,0,P|301:218|361:174,1,99.9999999999999,2|4,0:2|3:2,0:0:0:0:
432,177,168586,6,0,P|446:133|442:20,1,150,4|0,3:2|3:2,0:0:0:0:
394,33,169186,1,2,0:2:0:0:
284,36,169486,1,12,0:2:0:0:
221,126,169786,6,0,P|169:116|46:120,1,150,4|0,3:2|3:2,0:0:0:0:
28,140,170386,2,0,P|24:90|36:49,2,50,0|0|10,0:2|3:2|0:2,0:0:0:0:
84,223,170986,6,0,P|119:228|197:252,1,99.9999999999999,4|8,3:2|0:2,0:0:0:0:
205,290,171436,2,0,P|247:310|303:280,1,99.9999999999999,0|0,3:2|3:2,0:0:0:0:
319,248,171886,1,8,0:2:0:0:
417,297,172186,6,0,P|426:236|380:155,1,150,4|0,3:2|3:2,0:0:0:0:
433,60,172936,1,0,3:2:0:0:
427,5,173086,1,8,0:2:0:0:
321,35,173386,6,0,P|232:69|193:72,1,99.9999999999999,4|8,3:2|0:2,0:0:0:0:
173,77,173836,2,0,P|209:126|201:199,1,99.9999999999999,0|0,3:2|3:2,0:0:0:0:
165,193,174286,1,12,0:2:0:0:
139,300,174586,1,0,3:2:0:0:
173,342,174736,2,0,P|242:351|285:305,1,99.9999999999999,12|0,0:2|3:2,0:0:0:0:
282,283,175186,2,0,P|332:269|347:288,1,50,4|0,3:2|3:2,0:0:0:0:
376,283,175486,1,0,3:2:0:0:
375,337,175636,1,0,3:2:0:0:
