osu file format v14

[General]
AudioFilename: audio.mp3
AudioLeadIn: 0
PreviewTime: 94725
Countdown: 0
SampleSet: Soft
StackLeniency: 0.7
Mode: 2
LetterboxInBreaks: 0
WidescreenStoryboard: 1

[Editor]
Bookmarks: 29100,48000,66000,81600,96000,115200,134400
DistanceSpacing: 1.4
BeatDivisor: 4
GridSize: 32
TimelineZoom: 2.599999

[Metadata]
Title:Antifront Gears
TitleUnicode:Antifront Gears
Artist:Getty vs. DJ DiA
ArtistUnicode:Getty vs. DJ DiA
Creator:Jemzuu
Version:Rain
Source:
Tags:featured artist fa mappers guild ajamez jbhyperion razor sharp daletto otosaka-yu suzuki_1112 1112deng instrumental electronic pumptek hardcore pumpcore kirara records KRCD-015 c96 comiket 96
BeatmapID:2740637
BeatmapSetID:1321736

[Difficulty]
HPDrainRate:5.5
CircleSize:3.8
OverallDifficulty:9.1
ApproachRate:9.1
SliderMultiplier:1.82
SliderTickRate:2

[Events]
//Background and Video events
0,0,"antifront.jpg",0,0
//Break Periods
2,67415,75031
//Storyboard Layer 0 (Background)
//Storyboard Layer 1 (Fail)
//Storyboard Layer 2 (Pass)
//Storyboard Layer 3 (Foreground)
//Storyboard Layer 4 (Overlay)
//Storyboard Sound Samples

[TimingPoints]
15,300,4,2,1,40,1,0
9615,-100,4,2,1,50,0,0
10440,-100,4,2,0,70,0,0
10515,-100,4,2,1,50,0,0
11490,-100,4,2,0,70,0,0
11565,-100,4,2,1,50,0,0
12840,-100,4,2,0,70,0,0
12915,-100,4,2,1,50,0,0
19215,-100,4,2,1,60,0,0
28815,-100,4,2,2,70,0,0
29115,-100,4,2,2,70,0,0
29283,-100,4,2,2,70,0,0
30015,-100,4,2,2,70,0,0
30465,-100,4,2,2,70,0,0
31515,-100,4,2,2,70,0,0
33015,-100,4,2,1,70,0,0
33315,-100,4,2,1,70,0,0
33465,-100,4,2,2,70,0,0
33615,-100,4,2,2,70,0,0
34815,-100,4,2,2,70,0,0
34965,-100,4,2,2,70,0,0
38415,-100,4,2,2,70,0,0
38715,-100,4,2,2,70,0,0
42915,-100,4,2,1,70,0,0
43215,-100,4,2,2,70,0,0
44790,-100,4,2,0,70,0,0
44865,-100,4,2,2,70,0,0
58702,-100,4,2,0,70,0,0
58815,-100,4,2,2,70,0,0
61102,-100,4,2,0,70,0,0
61215,-100,4,2,2,70,0,0
62415,-100,4,2,1,70,0,0
65452,-100,4,2,0,70,0,0
65490,-100,4,2,1,70,0,0
65527,-100,4,2,0,70,0,0
65565,-100,4,2,1,70,0,0
65602,-100,4,2,0,70,0,0
65640,-100,4,2,1,70,0,0
65677,-100,4,2,0,70,0,0
65715,-100,4,2,1,70,0,0
65752,-100,4,2,0,70,0,0
65790,-100,4,2,1,70,0,0
65827,-100,4,2,0,70,0,0
65865,-100,4,2,1,70,0,0
65902,-100,4,2,0,70,0,0
65940,-100,4,2,1,70,0,0
65977,-100,4,2,0,70,0,0
66015,-100,4,2,1,70,0,0
67290,-100,4,2,1,5,0,0
75615,-100,4,2,1,50,0,0
76815,-100,4,2,2,60,0,0
77715,-100,4,2,3,60,0,0
78015,-100,4,2,3,60,0,0
78615,-100,4,2,3,60,0,0
79215,-100,4,2,2,60,0,0
80115,-100,4,2,3,60,0,0
81615,-100,4,2,2,60,0,0
82515,-100,4,2,3,60,0,0
84015,-100,4,2,2,60,0,0
84915,-100,4,2,3,60,0,0
85215,-100,4,2,1,60,0,0
86940,-100,4,2,0,70,0,0
87015,-100,4,2,1,60,0,0
94890,-100,4,2,0,70,0,0
94965,-100,4,2,1,60,0,0
95040,-100,4,2,0,70,0,0
95115,-100,4,2,1,60,0,0
95190,-100,4,2,0,70,0,0
95265,-100,4,2,1,60,0,0
95340,-100,4,2,0,70,0,0
95415,-100,4,2,1,60,0,0
96015,-100,4,2,1,70,0,1
96840,-100,4,2,0,70,0,1
96915,-100,4,2,1,70,0,1
96990,-100,4,2,0,70,0,1
97065,-100,4,2,1,70,0,1
97140,-100,4,2,0,70,0,1
97215,-100,4,2,1,70,0,1
97290,-100,4,2,0,70,0,1
97365,-100,4,2,1,70,0,1
97440,-100,4,2,0,70,0,1
97515,-100,4,2,1,70,0,1
97590,-100,4,2,0,70,0,1
97665,-100,4,2,1,70,0,1
97740,-100,4,2,0,70,0,1
97815,-100,4,2,1,70,0,1
97890,-100,4,2,0,70,0,1
97965,-100,4,2,1,70,0,1
98040,-100,4,2,0,70,0,1
98115,-100,4,2,1,70,0,1
98190,-100,4,2,0,70,0,1
98265,-100,4,2,1,70,0,1
98340,-100,4,2,0,70,0,1
98415,-100,4,2,1,70,0,1
98490,-100,4,2,0,70,0,1
98565,-100,4,2,1,70,0,1
98640,-100,4,2,0,70,0,1
98715,-100,4,2,1,70,0,1
98790,-100,4,2,0,70,0,1
98865,-100,4,2,1,70,0,1
98940,-100,4,2,0,70,0,1
99015,-100,4,2,1,70,0,1
99240,-100,4,2,0,70,0,1
99315,-100,4,2,1,70,0,1
99390,-100,4,2,0,70,0,1
99465,-100,4,2,1,70,0,1
99540,-100,4,2,0,70,0,1
99615,-100,4,2,1,70,0,1
99690,-100,4,2,0,70,0,1
99765,-100,4,2,1,70,0,1
99840,-100,4,2,0,70,0,1
99915,-100,4,2,1,70,0,1
99990,-100,4,2,0,70,0,1
100065,-100,4,2,1,70,0,1
100140,-100,4,2,0,70,0,1
100215,-100,4,2,1,70,0,1
100515,-100,4,2,1,70,0,1
100815,-100,4,2,1,70,0,1
101490,-100,4,2,0,70,0,1
101565,-100,4,2,1,70,0,1
101640,-100,4,2,0,70,0,1
101715,-100,4,2,1,70,0,1
101790,-100,4,2,0,70,0,1
101865,-100,4,2,1,70,0,1
101940,-100,4,2,0,70,0,1
102015,-100,4,2,1,70,0,1
102090,-100,4,2,0,70,0,1
102165,-100,4,2,1,70,0,1
102240,-100,4,2,0,70,0,1
102315,-100,4,2,1,70,0,1
102390,-100,4,2,0,70,0,1
102465,-100,4,2,1,70,0,1
102540,-100,4,2,0,70,0,1
102615,-100,4,2,1,70,0,1
102840,-100,4,2,0,70,0,1
102915,-100,4,2,1,70,0,1
102990,-100,4,2,0,70,0,1
103065,-100,4,2,1,70,0,1
103140,-100,4,2,0,70,0,1
103215,-100,4,2,1,70,0,1
103290,-100,4,2,0,70,0,1
103365,-100,4,2,1,70,0,1
103440,-100,4,2,0,70,0,1
103515,-100,4,2,1,70,0,1
103590,-100,4,2,0,70,0,1
103665,-100,4,2,1,70,0,1
103740,-100,4,2,0,70,0,1
103815,-100,4,2,1,70,0,1
103890,-100,4,2,0,70,0,1
103965,-100,4,2,1,70,0,1
104040,-100,4,2,0,70,0,1
104115,-100,4,2,1,70,0,1
104190,-100,4,2,0,70,0,1
104265,-100,4,2,1,70,0,1
104340,-100,4,2,0,70,0,1
104415,-100,4,2,1,70,0,1
106440,-100,4,2,0,70,0,1
106515,-100,4,2,1,70,0,1
106590,-100,4,2,0,70,0,1
106665,-100,4,2,1,70,0,1
106740,-100,4,2,0,70,0,1
106815,-100,4,2,1,70,0,1
107040,-100,4,2,0,70,0,1
107115,-100,4,2,1,70,0,1
107190,-100,4,2,0,70,0,1
107265,-100,4,2,1,70,0,1
107340,-100,4,2,0,70,0,1
107415,-100,4,2,1,70,0,1
107490,-100,4,2,0,70,0,1
107565,-100,4,2,1,70,0,1
107640,-100,4,2,0,70,0,1
107715,-100,4,2,1,70,0,1
107790,-100,4,2,0,70,0,1
107865,-100,4,2,1,70,0,1
107940,-100,4,2,0,70,0,1
108015,-100,4,2,1,70,0,1
108090,-100,4,2,0,70,0,1
108165,-100,4,2,1,70,0,1
108240,-100,4,2,0,70,0,1
108315,-100,4,2,1,70,0,1
108390,-100,4,2,0,70,0,1
108465,-100,4,2,1,70,0,1
108540,-100,4,2,0,70,0,1
108615,-100,4,2,1,70,0,1
108840,-100,4,2,0,70,0,1
108915,-100,4,2,1,70,0,1
108990,-100,4,2,0,70,0,1
109065,-100,4,2,1,70,0,1
109140,-100,4,2,0,70,0,1
109215,-100,4,2,1,70,0,1
109440,-100,4,2,0,70,0,1
109515,-100,4,2,1,70,0,1
109590,-100,4,2,0,70,0,1
109665,-100,4,2,1,70,0,1
109740,-100,4,2,0,70,0,1
109815,-100,4,2,1,70,0,1
110115,-100,4,2,1,70,0,1
110415,-100,4,2,1,70,0,1
110490,-100,4,2,0,70,0,1
110565,-100,4,2,1,70,0,1
110640,-100,4,2,0,70,0,1
110715,-100,4,2,1,70,0,1
110790,-100,4,2,0,70,0,1
110865,-100,4,2,1,70,0,1
110940,-100,4,2,0,70,0,1
111015,-100,4,2,1,70,0,1
111240,-100,4,2,0,70,0,1
111315,-100,4,2,1,70,0,1
111390,-100,4,2,0,70,0,1
111465,-100,4,2,1,70,0,1
111540,-100,4,2,0,70,0,1
111615,-100,4,2,1,70,0,1
111840,-100,4,2,0,70,0,1
111915,-100,4,2,1,70,0,1
111990,-100,4,2,0,70,0,1
112065,-100,4,2,1,70,0,1
112140,-100,4,2,0,70,0,1
112215,-100,4,2,1,70,0,1
112290,-100,4,2,0,70,0,1
112365,-100,4,2,1,70,0,1
112440,-100,4,2,0,70,0,1
112515,-100,4,2,1,70,0,1
112590,-100,4,2,0,70,0,1
112665,-100,4,2,1,70,0,1
112740,-100,4,2,0,70,0,1
112815,-100,4,2,1,70,0,1
112890,-100,4,2,0,70,0,1
112965,-100,4,2,1,70,0,1
113040,-100,4,2,0,70,0,1
113115,-100,4,2,1,70,0,1
113190,-100,4,2,0,70,0,1
113265,-100,4,2,1,70,0,1
113340,-100,4,2,0,70,0,1
113415,-100,4,2,1,70,0,1
113640,-100,4,2,0,70,0,1
113715,-100,4,2,1,70,0,1
113790,-100,4,2,0,70,0,1
113865,-100,4,2,1,70,0,1
113940,-100,4,2,0,70,0,1
114015,-100,4,2,1,70,0,1
115215,-100,4,2,1,70,0,0
117390,-100,4,2,0,70,0,0
117465,-100,4,2,1,70,0,0
117540,-100,4,2,0,70,0,0
117615,-100,4,2,1,70,0,0
119190,-100,4,2,0,70,0,0
119265,-100,4,2,1,70,0,0
119340,-100,4,2,0,70,0,0
119415,-100,4,2,1,70,0,0
119490,-100,4,2,0,70,0,0
119565,-100,4,2,1,70,0,0
119790,-100,4,2,0,70,0,0
119865,-100,4,2,1,70,0,0
119940,-100,4,2,1,70,0,0
122190,-100,4,2,0,70,0,0
122265,-100,4,2,1,70,0,0
122340,-100,4,2,0,70,0,0
122415,-100,4,2,1,70,0,0
124290,-100,4,2,0,70,0,0
124365,-100,4,2,1,70,0,0
124440,-100,4,2,0,70,0,0
124515,-100,4,2,1,70,0,0
124665,-100,4,2,0,70,0,0
124815,-100,4,2,1,70,0,0
126990,-100,4,2,0,70,0,0
127065,-100,4,2,1,70,0,0
127140,-100,4,2,0,70,0,0
127215,-100,4,2,1,70,0,0
127740,-100,4,2,0,70,0,0
127815,-100,4,2,1,70,0,0
128340,-100,4,2,0,70,0,0
128415,-100,4,2,1,70,0,0
128790,-100,4,2,0,70,0,0
128865,-100,4,2,1,70,0,0
128940,-100,4,2,0,70,0,0
129015,-100,4,2,1,70,0,0
129090,-100,4,2,0,70,0,0
129165,-100,4,2,1,70,0,0
129465,-100,4,2,0,70,0,0
129540,-100,4,2,1,70,0,0
131790,-100,4,2,0,70,0,0
131865,-100,4,2,1,70,0,0
131940,-100,4,2,0,70,0,0
132015,-100,4,2,1,70,0,0
132540,-100,4,2,0,70,0,0
132615,-100,4,2,1,70,0,0
133140,-100,4,2,0,70,0,0
133215,-100,4,2,1,70,0,0
133590,-100,4,2,0,70,0,0
133665,-100,4,2,1,70,0,0
134490,-100,4,2,1,20,0,0
136665,-100,4,2,1,5,0,0
136815,-100,4,2,3,70,0,0
136852,-100,4,2,3,5,0,0

[Colours]
Combo1 : 192,192,192
Combo2 : 255,81,81
Combo3 : 88,88,88

[HitObjects]
283,45,15,5,4,1:0:0:0:
370,64,165,1,0,0:0:0:0:
408,144,315,1,0,0:0:0:0:
368,223,465,1,0,0:0:0:0:
268,250,615,6,0,L|441:322,1,182,2|2,0:0|0:0,0:0:0:0:
320,336,1065,2,0,L|131:261,2,182,2|2|2,0:0|0:0|0:0,0:0:0:0:
92,349,1965,5,2,0:0:0:0:
52,270,2115,1,0,0:0:0:0:
90,190,2265,1,2,0:0:0:0:
177,171,2415,2,0,L|289:167,1,91,2|0,0:0|0:0,0:0:0:0:
161,84,2715,2,0,L|43:75,1,91,2|0,0:0|0:0,0:0:0:0:
174,131,3015,6,0,L|21:251,1,182,2|0,0:0|0:0,0:0:0:0:
150,280,3465,2,0,L|330:220,2,182,2|2|2,0:0|0:0|0:0,0:0:0:0:
398,342,4365,2,0,L|436:234,2,91,2|0|2,0:0|0:0|0:0,0:0:0:0:
150,348,4815,6,0,L|53:318,2,91,4|0|0,1:0|0:0|0:0,0:0:0:0:
250,344,5265,1,0,0:0:0:0:
366,255,5415,2,0,P|383:182|286:136,1,182,2|2,0:0|0:0,0:0:0:0:
179,92,5865,2,0,L|339:206,2,182,2|2|2,0:0|0:0|0:0,0:0:0:0:
430,350,6765,5,2,0:0:0:0:
470,271,6915,1,0,0:0:0:0:
432,191,7065,1,2,0:0:0:0:
345,172,7215,2,0,L|233:168,1,91,2|0,0:0|0:0,0:0:0:0:
361,85,7515,2,0,L|479:76,1,91,2|0,0:0|0:0,0:0:0:0:
324,44,7815,2,0,P|302:89|382:184,1,182,2|0,0:0|0:0,0:0:0:0:
494,197,8265,1,2,0:0:0:0:
236,285,8415,6,0,L|128:293,1,91,8|0,0:1|0:0,0:0:0:0:
406,88,8715,2,0,L|503:85,1,91,0|0,1:0|0:0,0:0:0:0:
258,188,9015,2,0,L|309:216,1,45.5,8|8,0:0|0:0,0:0:0:0:
353,217,9165,1,8,0:0:0:0:
115,293,9315,2,0,L|108:166,1,91,8|8,0:0|0:0,0:0:0:0:
338,50,9615,6,0,P|371:118|267:164,1,182,4|2,1:0|0:0,0:0:0:0:
179,172,10065,1,0,3:0:0:0:
128,93,10215,1,2,0:0:0:0:
179,172,10365,1,0,0:0:0:0:
306,233,10515,2,0,L|201:258,1,91,0|2,3:0|0:0,0:0:0:0:
344,322,10815,6,0,L|452:331,2,91,0|2|0,3:0|0:0|0:0,0:0:0:0:
214,344,11265,2,0,P|190:287|285:233,1,182,0|2,3:0|0:0,0:0:0:0:
163,182,11715,2,0,L|50:174,1,91,0|2,3:0|0:0,0:0:0:0:
325,62,12015,5,4,1:0:0:0:
365,141,12165,1,8,0:3:0:0:
327,221,12315,1,8,0:3:0:0:
236,242,12465,1,0,3:0:0:0:
345,282,12615,2,0,L|454:284,1,91,8|0,0:3|0:0,0:0:0:0:
311,344,12915,2,0,L|434:346,1,91,0|8,3:0|0:3,0:0:0:0:
160,349,13215,6,0,L|131:303,2,45.5,4|0|8,1:0|0:0|0:3,0:0:0:0:
273,357,13515,1,8,0:3:0:0:
148,371,13665,2,0,L|45:367,1,91,0|8,3:0|0:3,0:0:0:0:
299,236,13965,2,0,L|397:231,2,91,8|0|8,0:3|3:0|0:3,0:0:0:0:
39,241,14415,6,0,L|33:148,1,91,4|8,1:0|0:3,0:0:0:0:
158,140,14715,2,0,L|155:46,1,91,0|8,3:0|0:3,0:0:0:0:
284,25,15015,2,0,L|206:83,1,91,0|8,3:0|0:3,0:0:0:0:
96,84,15315,1,0,3:0:0:0:
319,158,15465,6,0,L|420:171,1,91,8|4,0:3|1:0,0:0:0:0:
282,229,15765,2,0,L|279:337,1,91,8|0,0:3|3:0,0:0:0:0:
144,341,16065,2,0,L|129:245,2,91,8|0|8,0:3|3:0|0:3,0:0:0:0:
281,152,16515,2,0,L|188:148,1,91,0|8,3:0|0:3,0:0:0:0:
439,36,16815,5,4,1:0:0:0:
481,48,16890,1,8,0:3:0:0:
499,88,16965,1,8,0:0:0:0:
481,128,17040,1,8,0:3:0:0:
438,141,17115,2,0,L|372:136,1,45.5,0|8,3:0|0:3,0:0:0:0:
446,167,17265,2,0,L|495:169,1,45.5,8|8,0:0|0:3,0:0:0:0:
305,140,17415,5,0,3:0:0:0:
262,152,17490,1,8,0:3:0:0:
244,192,17565,1,8,0:0:0:0:
265,231,17640,1,8,0:3:0:0:
311,242,17715,1,0,3:0:0:0:
358,253,17790,1,8,0:3:0:0:
380,293,17865,1,8,0:0:0:0:
360,334,17940,1,8,0:3:0:0:
313,347,18015,1,4,1:0:0:0:
28,151,18165,5,2,0:3:0:0:
28,151,18465,1,2,0:3:0:0:
28,151,18765,1,2,0:3:0:0:
28,151,19065,1,2,0:3:0:0:
291,46,19215,6,0,L|399:49,1,91,12|2,0:0|0:0,0:0:0:0:
251,119,19515,2,0,L|252:235,1,91,8|2,0:0|0:0,0:0:0:0:
301,228,19740,1,0,0:0:0:0:
464,162,19815,2,0,L|471:260,1,91,8|2,0:0|0:0,0:0:0:0:
420,272,20040,1,2,0:0:0:0:
362,279,20115,1,8,0:0:0:0:
487,343,20265,1,2,0:0:0:0:
249,352,20415,6,0,L|220:309,2,45.5,8|0|2,0:0|0:0|0:0,0:0:0:0:
370,174,20715,2,0,L|323:157,1,45.5,8|0,0:0|0:0,0:0:0:0:
275,149,20865,2,0,L|322:125,1,45.5,2|2,0:0|0:0,0:0:0:0:
367,120,21015,2,0,L|473:111,1,91,8|2,0:0|0:0,0:0:0:0:
212,33,21315,5,8,0:0:0:0:
189,37,21352,1,2,0:0:0:0:
173,52,21390,1,2,0:0:0:0:
167,74,21427,1,2,0:0:0:0:
173,95,21465,1,2,0:0:0:0:
189,111,21502,1,2,0:0:0:0:
211,115,21540,1,2,0:0:0:0:
388,225,21615,6,0,L|492:228,1,91,8|2,0:0|0:0,0:0:0:0:
358,249,21915,2,0,L|354:346,1,91,8|2,0:0|0:0,0:0:0:0:
117,197,22215,2,0,L|218:191,1,91,8|2,0:0|0:0,0:0:0:0:
235,158,22440,1,2,0:0:0:0:
207,191,22515,1,8,0:0:0:0:
71,249,22665,1,2,0:0:0:0:
311,37,22815,6,0,L|423:38,1,91,8|2,0:0|0:0,0:0:0:0:
272,116,23115,2,0,L|165:124,1,91,8|8,0:0|0:3,0:0:0:0:
311,167,23415,2,0,L|319:264,1,91,8|8,0:0|0:3,0:0:0:0:
91,284,23715,2,0,L|35:290,2,45.5,8|0|0,0:0|0:0|0:0,0:0:0:0:
336,238,24015,6,0,L|223:222,1,91,4|8,1:0|0:3,0:0:0:0:
374,162,24315,2,0,L|478:153,1,91,8|8,0:3|0:3,0:0:0:0:
414,126,24540,1,0,0:0:0:0:
234,129,24615,2,0,L|219:30,1,91,8|8,0:3|0:3,0:0:0:0:
268,23,24840,1,0,0:0:0:0:
328,26,24915,1,8,0:3:0:0:
199,125,25065,1,8,0:3:0:0:
433,250,25215,6,0,L|466:193,2,45.5,4|0|8,1:0|0:0|0:3,0:0:0:0:
309,180,25515,2,0,L|356:163,1,45.5,8|0,0:3|0:0,0:0:0:0:
404,155,25665,2,0,L|357:131,1,45.5,8|0,0:3|0:0,0:0:0:0:
312,126,25815,2,0,L|206:117,1,91,8|8,0:3|0:3,0:0:0:0:
455,15,26115,5,8,0:3:0:0:
478,19,26152,1,0,0:0:0:0:
494,34,26190,1,0,0:0:0:0:
500,56,26227,1,0,0:0:0:0:
494,77,26265,1,8,0:3:0:0:
478,93,26302,1,0,0:0:0:0:
456,97,26340,1,0,0:0:0:0:
264,131,26415,5,4,1:0:0:0:
220,139,26490,1,8,0:3:0:0:
199,178,26565,1,8,0:0:0:0:
216,219,26640,1,8,0:3:0:0:
300,222,26715,1,0,3:0:0:0:
316,181,26790,1,8,0:3:0:0:
295,142,26865,1,8,0:0:0:0:
252,133,26940,1,8,0:3:0:0:
76,171,27015,5,0,3:0:0:0:
56,132,27090,1,8,0:3:0:0:
74,92,27165,1,8,0:0:0:0:
117,81,27240,1,8,0:3:0:0:
264,49,27315,2,0,L|325:47,1,45.5,0|8,3:0|0:3,0:0:0:0:
157,35,27465,2,0,L|105:34,1,45.5,8|8,0:0|0:3,0:0:0:0:
299,177,27615,6,0,L|414:124,2,91,8|8|8,0:0|0:0|0:0,0:0:0:0:
169,166,28065,1,8,0:0:0:0:
416,308,28215,5,10,0:0:0:0:
432,266,28290,1,0,0:0:0:0:
419,224,28365,1,2,0:0:0:0:
381,200,28440,1,0,0:0:0:0:
222,225,28515,2,0,L|220:154,3,45.5,10|0|2|0,0:0|0:0|0:0|0:0,0:0:0:0:
49,189,28815,6,0,P|27:137|86:82,1,136.5,4|0,3:0|0:0,0:0:0:0:
267,46,29115,5,12,0:2:0:0:
385,155,29265,2,0,L|355:166,1,22.75,2|0,0:0|0:0,0:0:0:0:
274,178,29415,1,2,1:0:0:0:
383,265,29565,2,0,L|349:268,1,22.75,2|0,0:0|0:0,0:0:0:0:
265,293,29715,2,0,L|157:281,1,91,8|8,0:2|0:1,0:0:0:0:
405,354,30015,6,0,L|517:348,2,91,2|8|8,1:0|0:1|0:0,0:0:0:0:
281,242,30465,2,0,L|311:231,1,22.75,2|0,0:0|0:0,0:0:0:0:
388,212,30615,1,2,1:0:0:0:
267,132,30765,2,0,L|301:129,1,22.75,2|0,0:0|0:0,0:0:0:0:
382,93,30915,2,0,L|490:105,1,91,8|4,0:0|0:3,0:0:0:0:
234,44,31215,6,0,L|111:64,1,91,2|8,1:0|0:3,0:0:0:0:
278,111,31515,2,0,L|288:234,1,91,8|2,0:0|0:0,0:0:0:0:
236,219,31740,1,0,0:0:0:0:
179,238,31815,2,0,L|263:244,1,45.5,2|2,1:0|0:3,0:0:0:0:
280,256,31965,1,2,0:0:0:0:
146,333,32115,2,0,L|37:346,1,91,8|2,0:0|0:0,0:0:0:0:
106,318,32340,1,2,0:3:0:0:
275,144,32415,5,2,1:0:0:0:
389,130,32565,1,8,0:1:0:0:
166,67,32715,1,8,0:0:0:0:
52,55,32865,1,8,0:1:0:0:
178,26,33015,5,4,1:0:0:0:
220,39,33090,1,0,3:0:0:0:
237,79,33165,1,4,1:0:0:0:
219,119,33240,1,2,1:0:0:0:
176,130,33315,2,0,L|77:131,1,91,8|0,0:0|0:0,0:0:0:0:
335,118,33615,6,0,P|374:176|279:222,1,182,4|12,3:0|0:2,0:0:0:0:
185,286,34065,2,0,L|215:297,1,22.75,2|0,0:0|0:0,0:0:0:0:
295,319,34215,1,2,1:0:0:0:
409,236,34365,2,0,L|370:233,1,22.75,2|0,0:0|0:0,0:0:0:0:
290,135,34515,2,0,L|394:121,1,91,8|8,0:2|0:1,0:0:0:0:
150,68,34815,6,0,L|50:63,2,91,2|8|8,1:0|0:1|0:0,0:0:0:0:
265,192,35265,2,0,L|235:203,1,22.75,2|0,0:0|0:0,0:0:0:0:
148,222,35415,1,2,1:0:0:0:
35,143,35565,2,0,L|74:140,1,22.75,2|0,0:0|0:0,0:0:0:0:
155,24,35715,2,0,L|51:10,1,91,8|4,0:0|0:3,0:0:0:0:
303,112,36015,6,0,L|397:97,1,91,2|2,1:0|0:0,0:0:0:0:
158,96,36315,2,0,L|152:200,1,91,8|2,0:0|0:3,0:0:0:0:
281,239,36615,2,0,L|170:242,1,91,8|2,0:0|0:3,0:0:0:0:
414,215,36915,2,0,L|415:119,1,91,8|2,0:0|0:3,0:0:0:0:
182,139,37215,5,6,1:0:0:0:
138,131,37290,1,0,0:0:0:0:
119,91,37365,1,8,0:0:0:0:
139,52,37440,1,0,0:0:0:0:
182,45,37515,1,6,1:0:0:0:
306,53,37665,1,8,0:0:0:0:
57,235,37815,6,0,L|53:130,1,91,6|8,1:0|0:0,0:0:0:0:
104,127,38040,1,8,0:0:0:0:
261,133,38115,2,0,L|357:138,1,91,6|8,1:0|0:3,0:0:0:0:
113,333,38415,6,0,P|88:267|153:238,1,136.5,4|0,3:0|0:0,0:0:0:0:
321,244,38715,6,0,L|433:251,2,91,12|2|2,0:0|0:0|1:0,0:0:0:0:
191,133,39165,2,0,L|308:114,1,91,2|8,0:0|0:0,0:0:0:0:
234,97,39390,1,2,0:3:0:0:
178,96,39465,1,2,0:0:0:0:
410,37,39615,6,0,L|504:24,2,91,2|2|8,1:0|0:0|0:0,0:0:0:0:
279,68,40065,2,0,L|285:188,1,91,2|2,0:0|1:0,0:0:0:0:
332,187,40290,1,2,0:3:0:0:
387,193,40365,1,2,0:0:0:0:
265,252,40515,1,8,0:0:0:0:
387,193,40665,1,4,0:3:0:0:
139,350,40815,2,0,L|44:347,1,91,10|0,1:0|0:0,0:0:0:0:
37,337,41002,1,0,0:0:0:0:
48,347,41040,1,0,0:0:0:0:
228,163,41115,6,0,L|339:149,1,91,8|2,0:0|0:0,0:0:0:0:
276,125,41340,1,2,0:3:0:0:
215,108,41415,2,0,L|284:99,1,45.5,2|2,1:0|0:3,0:0:0:0:
320,83,41565,1,2,0:0:0:0:
188,49,41715,2,0,L|177:153,1,91,8|2,0:0|0:0,0:0:0:0:
231,159,41940,1,2,0:3:0:0:
408,240,42015,6,0,L|522:244,1,91,8|8,0:0|0:1,0:0:0:0:
257,331,42315,2,0,L|152:338,1,91,8|8,0:0|0:1,0:0:0:0:
409,371,42615,2,0,L|402:269,1,91,8|8,0:0|0:1,0:0:0:0:
351,274,42840,1,0,0:0:0:0:
194,213,42915,2,0,L|126:206,1,45.5,4|0,1:0|3:0,0:0:0:0:
306,143,43065,2,0,L|366:135,1,45.5,4|2,1:0|1:0,0:0:0:0:
157,230,43215,6,0,P|88:215|115:109,1,182,14|8,1:0|0:0,0:0:0:0:
214,62,43665,2,0,L|106:49,1,91,2|2,0:0|1:0,0:0:0:0:
170,30,43890,1,0,0:0:0:0:
226,28,43965,2,0,L|328:39,1,91,2|8,0:0|0:0,0:0:0:0:
268,71,44190,1,0,0:0:0:0:
214,78,44265,1,2,0:0:0:0:
443,155,44415,5,6,1:0:0:0:
325,167,44565,2,0,L|316:278,1,91,2|8,0:0|0:0,0:0:0:0:
191,347,44865,2,0,L|297:329,1,91,2|2,0:0|1:0,0:0:0:0:
234,306,45090,1,0,0:0:0:0:
175,296,45165,2,0,L|62:296,2,91,2|8|4,0:0|0:0|0:3,0:0:0:0:
417,100,45615,6,0,L|308:94,1,91,6|2,1:0|0:3,0:0:0:0:
197,164,45915,2,0,L|187:63,1,91,8|0,0:0|0:0,0:0:0:0:
409,118,46215,2,0,L|419:219,1,91,2|2,1:0|0:3,0:0:0:0:
370,229,46440,1,2,0:3:0:0:
313,240,46515,1,8,0:0:0:0:
435,296,46665,1,2,0:3:0:0:
194,346,46815,6,0,L|86:329,1,91,8|0,0:0|0:0,0:0:0:0:
154,302,47040,1,0,3:0:0:0:
323,299,47115,1,8,0:0:0:0:
338,257,47190,1,0,0:0:0:0:
316,219,47265,1,2,1:0:0:0:
272,211,47340,1,0,0:0:0:0:
106,189,47415,5,8,0:0:0:0:
90,147,47490,1,0,0:0:0:0:
112,109,47565,1,2,1:0:0:0:
156,101,47640,1,0,0:0:0:0:
298,38,47715,2,0,L|366:41,1,45.5,8|0,0:0|0:0,0:0:0:0:
171,18,47865,2,0,L|112:20,1,45.5,2|0,1:0|0:0,0:0:0:0:
319,129,48015,6,0,L|497:233,1,182,4|0,3:0|0:0,0:0:0:0:
476,220,48465,2,0,L|419:227,1,45.5,2|2,0:3|0:3,0:0:0:0:
234,350,48615,6,0,L|125:344,1,91,14|2,1:0|0:3,0:0:0:0:
143,344,48840,2,0,L|261:334,1,91,8|0,0:3|0:0,0:0:0:0:
281,325,49065,1,2,0:0:0:0:
59,283,49215,2,0,L|53:175,1,91,10|2,1:0|0:3,0:0:0:0:
103,158,49440,2,0,L|206:144,1,91,8|0,0:3|0:0,0:0:0:0:
243,133,49665,1,2,0:0:0:0:
475,56,49815,6,0,L|365:39,1,91,2|2,1:0|0:0,0:0:0:0:
274,42,50115,1,8,0:0:0:0:
387,41,50265,2,0,L|446:51,1,45.5,4|0,0:3|0:0,0:0:0:0:
248,145,50415,6,0,L|140:157,1,91,2|8,1:0|3:0,0:0:0:0:
205,180,50640,1,0,0:0:0:0:
257,200,50715,2,0,L|195:217,1,45.5,8|2,0:0|0:3,0:0:0:0:
157,229,50865,2,0,L|218:235,1,45.5,2|2,0:3|0:3,0:0:0:0:
386,287,51015,6,0,L|479:292,1,91,10|2,1:0|0:3,0:0:0:0:
476,291,51240,2,0,L|360:309,1,91,8|0,0:3|0:0,0:0:0:0:
336,313,51465,1,2,0:0:0:0:
102,174,51615,2,0,L|220:158,1,91,10|2,1:0|0:3,0:0:0:0:
238,110,51840,2,0,L|130:97,1,91,8|0,0:3|0:0,0:0:0:0:
99,90,52065,1,2,0:0:0:0:
332,26,52215,6,0,L|349:147,1,91,2|4,1:0|0:3,0:0:0:0:
110,189,52515,2,0,L|85:241,2,45.5,8|0|4,0:0|0:0|0:3,0:0:0:0:
361,201,52815,6,0,P|322:241|226:251,1,136.5,14|8,1:0|0:0,0:0:0:0:
198,256,53115,1,6,1:0:0:0:
321,308,53265,1,8,0:0:0:0:
70,347,53415,6,0,L|57:220,1,91,10|2,1:0|0:3,0:0:0:0:
107,229,53640,2,0,L|208:220,1,91,8|0,0:3|0:0,0:0:0:0:
247,212,53865,1,2,0:0:0:0:
26,74,54015,2,0,L|137:80,1,91,10|2,1:0|0:3,0:0:0:0:
116,78,54240,2,0,L|1:101,1,91,8|0,0:3|0:0,0:0:0:0:
73,116,54465,1,2,0:0:0:0:
307,41,54615,6,0,L|200:55,1,91,2|2,1:0|0:0,0:0:0:0:
337,128,54915,2,0,L|442:135,1,91,8|4,0:0|0:3,0:0:0:0:
380,164,55140,1,0,0:0:0:0:
217,224,55215,6,0,L|112:231,1,91,8|0,0:0|0:0,0:0:0:0:
359,290,55515,2,0,L|466:294,1,91,8|2,0:0|1:0,0:0:0:0:
340,343,55815,1,8,0:0:0:0:
221,260,55965,2,0,L|283:258,1,45.5,2|0,1:0|3:0,0:0:0:0:
422,182,56115,2,0,L|446:140,2,45.5,2|2|2,1:0|0:3|0:3,0:0:0:0:
179,166,56415,6,0,L|166:73,1,91,2|0,1:0|0:0,0:0:0:0:
217,55,56640,1,8,0:0:0:0:
392,199,56715,2,0,L|405:106,1,91,2|8,1:0|0:0,0:0:0:0:
181,98,57015,6,0,L|125:93,1,45.5,8|0,0:0|0:0,0:0:0:0:
185,70,57165,2,0,L|237:64,1,45.5,8|0,0:0|0:0,0:0:0:0:
87,191,57315,2,0,L|33:191,1,45.5,8|8,0:0|0:0,0:0:0:0:
192,298,57465,2,0,L|259:298,1,45.5,8|8,0:0|0:0,0:0:0:0:
62,365,57615,6,0,P|36:325|132:253,1,182,10|0,1:0|0:0,0:0:0:0:
219,177,58065,2,0,L|283:174,1,45.5,0|0,3:0|3:0,0:0:0:0:
446,207,58215,6,0,L|442:114,1,91,14|2,1:0|0:3,0:0:0:0:
396,98,58440,2,0,L|285:84,1,91,8|0,0:3|0:0,0:0:0:0:
259,76,58665,1,2,0:0:0:0:
479,21,58815,2,0,L|365:30,1,91,10|2,1:0|0:3,0:0:0:0:
388,28,59040,2,0,L|495:39,1,91,8|0,0:3|0:0,0:0:0:0:
430,67,59265,1,2,0:0:0:0:
194,172,59415,6,0,L|307:184,1,91,2|2,1:0|0:0,0:0:0:0:
170,254,59715,2,0,L|55:273,1,91,8|4,0:0|0:3,0:0:0:0:
129,292,59940,1,0,0:0:0:0:
292,331,60015,6,0,L|392:333,1,91,2|8,1:0|3:0,0:0:0:0:
266,243,60315,2,0,L|198:243,1,45.5,8|2,0:0|0:3,0:0:0:0:
272,220,60465,2,0,L|360:217,1,45.5,2|2,0:3|0:3,0:0:0:0:
150,171,60615,6,0,L|57:154,1,91,10|2,1:0|0:3,0:0:0:0:
60,154,60840,2,0,L|165:137,1,91,8|0,0:3|0:0,0:0:0:0:
149,139,61065,1,2,0:0:0:0:
28,17,61215,2,0,L|140:24,1,91,10|2,1:0|0:3,0:0:0:0:
118,22,61440,2,0,L|1:41,1,91,8|0,0:3|0:0,0:0:0:0:
78,62,61665,1,2,0:0:0:0:
313,126,61815,6,0,L|323:230,1,91,2|4,1:0|0:3,0:0:0:0:
86,304,62115,2,0,L|56:266,2,45.5,8|0|2,0:0|0:0|0:3,0:0:0:0:
341,258,62415,6,0,L|443:270,1,91,6|8,1:0|0:3,0:0:0:0:
301,342,62715,2,0,L|410:343,1,91,8|8,0:3|0:3,0:0:0:0:
164,360,63015,2,0,L|146:267,1,91,8|8,0:3|0:3,0:0:0:0:
281,258,63315,2,0,L|292:162,1,91,8|8,0:3|0:3,0:0:0:0:
58,99,63615,6,0,L|167:79,1,91,6|8,1:0|0:3,0:0:0:0:
279,22,63915,2,0,L|155:26,1,91,8|8,0:3|0:3,0:0:0:0:
426,115,64215,2,0,L|437:231,1,91,8|8,0:3|0:3,0:0:0:0:
302,248,64515,2,0,L|414:255,1,91,8|8,0:3|0:3,0:0:0:0:
138,336,64815,6,0,L|79:309,1,45.5,4|8,1:0|0:3,0:0:0:0:
150,288,64965,2,0,L|216:273,1,45.5,8|8,0:0|0:3,0:0:0:0:
134,252,65115,2,0,L|66:243,1,45.5,0|8,3:0|0:3,0:0:0:0:
243,190,65265,2,0,L|316:178,1,45.5,8|8,0:0|0:3,0:0:0:0:
117,168,65415,5,0,3:0:0:0:
73,161,65490,1,8,0:0:0:0:
54,122,65565,1,8,0:0:0:0:
75,84,65640,1,8,0:0:0:0:
237,55,65715,2,0,L|315:48,1,45.5,0|8,3:0|0:0,0:0:0:0:
105,35,65865,2,0,L|27:29,1,45.5,8|8,0:0|0:0,0:0:0:0:
255,51,66015,6,0,P|289:210|237:42,1,682.5,10|0,1:0|0:0,0:0:0:0:
478,72,67215,5,6,1:0:0:0:
294,66,75615,6,0,L|202:64,1,91,8|0,0:1|0:0,0:0:0:0:
75,150,75915,2,0,L|81:264,1,91,8|0,0:0|0:0,0:0:0:0:
129,259,76140,1,0,0:0:0:0:
300,311,76215,2,0,L|354:313,2,45.5,0|0|2,3:0|3:0|0:3,0:0:0:0:
173,329,76515,1,0,3:0:0:0:
300,311,76665,1,2,0:3:0:0:
32,284,76815,5,6,1:0:0:0:
379,82,77265,2,0,L|185:69,1,182,4|0,3:2|0:0,0:0:0:0:
75,190,77715,2,0,L|182:178,1,91,2|2,1:0|1:0,0:0:0:0:
403,71,78015,6,0,P|326:77|352:257,1,273,2|0,1:3|0:0,0:0:0:0:
444,296,78615,2,0,L|291:334,2,136.5,0|0|0,0:0|0:0|0:0,0:0:0:0:
162,332,79215,5,6,1:0:0:0:
474,353,79665,2,0,P|481:282|373:229,1,182,4|0,3:2|0:0,0:0:0:0:
276,205,80115,1,2,1:0:0:0:
398,226,80265,1,2,1:0:0:0:
165,113,80415,6,0,L|61:104,1,91,2|0,1:3|1:0,0:0:0:0:
201,37,80715,2,0,L|298:29,1,91,8|0,0:0|1:0,0:0:0:0:
163,53,81015,1,8,0:0:0:0:
121,67,81090,1,0,0:0:0:0:
104,107,81165,1,0,1:0:0:0:
123,147,81240,1,0,0:0:0:0:
166,158,81315,1,8,0:0:0:0:
293,175,81465,1,0,1:0:0:0:
47,272,81615,6,0,P|24:219|117:156,1,182,6|0,1:0|0:0,0:0:0:0:
344,38,82065,2,0,L|149:53,1,182,4|0,3:2|0:0,0:0:0:0:
261,115,82515,1,2,1:0:0:0:
385,127,82665,1,2,1:0:0:0:
129,152,82815,6,0,P|206:158|180:338,1,273,2|0,1:3|0:0,0:0:0:0:
85,359,83415,2,0,P|64:313|139:255,1,136.5,0|0,0:0|0:0,0:0:0:0:
168,242,83715,2,0,L|265:243,1,91,0|0,0:0|0:0,0:0:0:0:
495,239,84015,6,0,P|503:184|397:121,1,182,6|0,1:0|0:0,0:0:0:0:
182,63,84465,2,0,L|286:64,2,91,4|0|0,3:2|0:0|0:0,0:0:0:0:
57,164,84915,2,0,L|161:173,1,91,2|2,1:0|1:0,0:0:0:0:
388,92,85215,5,8,0:0:0:0:
294,116,85365,1,8,0:3:0:0:
256,197,85515,1,8,0:0:0:0:
302,275,85665,1,8,0:3:0:0:
397,292,85815,2,0,L|456:291,2,45.5,8|0|8,0:0|0:0|0:3,0:0:0:0:
157,355,86115,2,0,L|45:342,1,91,8|8,0:0|0:3,0:0:0:0:
320,130,86415,6,0,L|432:121,1,91,12|2,0:0|0:0,0:0:0:0:
297,226,86715,2,0,L|344:204,1,45.5,8|0,0:0|0:0,0:0:0:0:
394,205,86865,1,2,0:0:0:0:
177,103,87015,2,0,L|57:100,1,91,8|2,0:0|0:0,0:0:0:0:
135,71,87240,1,2,0:0:0:0:
192,63,87315,1,8,0:0:0:0:
74,34,87465,1,2,0:0:0:0:
310,175,87615,6,0,L|338:128,2,45.5,8|0|2,0:0|0:0|0:0,0:0:0:0:
183,298,87915,2,0,L|230:281,1,45.5,8|0,0:0|0:0,0:0:0:0:
278,273,88065,2,0,L|231:249,1,45.5,2|2,0:0|0:0,0:0:0:0:
186,244,88215,2,0,L|80:235,1,91,8|2,0:0|0:0,0:0:0:0:
319,89,88515,5,8,0:0:0:0:
345,86,88552,1,2,0:0:0:0:
369,94,88590,1,2,0:0:0:0:
388,110,88627,1,2,0:0:0:0:
396,131,88665,1,2,0:0:0:0:
393,154,88702,1,2,0:0:0:0:
379,173,88740,1,2,0:0:0:0:
205,172,88815,6,0,L|99:164,1,91,8|2,0:0|0:0,0:0:0:0:
248,94,89115,2,0,L|258:214,1,91,8|2,0:0|0:0,0:0:0:0:
20,37,89415,2,0,L|143:24,1,91,8|2,0:0|0:0,0:0:0:0:
158,33,89640,1,2,0:0:0:0:
110,27,89715,2,0,L|51:37,2,45.5,8|0|2,0:0|0:0|0:0,0:0:0:0:
348,126,90015,6,0,L|353:233,1,91,8|2,0:0|0:0,0:0:0:0:
219,175,90315,2,0,L|209:284,1,91,8|8,0:0|0:3,0:0:0:0:
338,336,90615,2,0,L|219:326,1,91,8|8,0:0|0:3,0:0:0:0:
472,291,90915,2,0,L|499:242,2,45.5,8|0|0,0:0|0:0|0:0,0:0:0:0:
236,154,91215,6,0,L|334:142,1,91,4|8,1:0|0:3,0:0:0:0:
202,238,91515,1,8,0:3:0:0:
158,226,91590,1,0,0:0:0:0:
141,187,91665,1,8,0:3:0:0:
161,149,91740,1,0,0:0:0:0:
204,141,91815,1,8,0:3:0:0:
327,127,91965,1,8,0:3:0:0:
101,40,92115,2,0,L|-7:40,1,91,8|8,0:3|0:3,0:0:0:0:
246,82,92415,6,0,L|356:90,1,91,4|8,1:0|0:3,0:0:0:0:
207,337,92715,2,0,L|160:320,1,45.5,8|0,0:3|0:0,0:0:0:0:
112,312,92865,2,0,L|159:288,1,45.5,8|0,0:3|0:0,0:0:0:0:
204,283,93015,2,0,L|310:274,1,91,8|8,0:3|0:3,0:0:0:0:
58,237,93315,5,8,0:3:0:0:
44,218,93353,1,0,0:0:0:0:
41,195,93390,1,0,0:0:0:0:
49,174,93428,1,0,0:0:0:0:
68,158,93465,1,8,0:3:0:0:
92,150,93503,1,0,0:0:0:0:
118,153,93540,1,0,0:0:0:0:
312,195,93615,5,4,1:0:0:0:
330,154,93690,1,8,0:3:0:0:
311,115,93765,1,8,0:0:0:0:
268,104,93840,1,8,0:3:0:0:
189,126,93915,5,0,3:0:0:0:
170,85,93990,1,8,0:3:0:0:
189,46,94065,1,8,0:0:0:0:
232,35,94140,1,8,0:3:0:0:
419,259,94215,5,0,3:0:0:0:
437,218,94290,1,8,0:3:0:0:
418,179,94365,1,8,0:0:0:0:
375,168,94440,1,8,0:3:0:0:
214,160,94515,2,0,L|154:158,1,45.5,0|8,3:0|0:3,0:0:0:0:
340,60,94665,2,0,L|410:57,1,45.5,8|8,0:0|0:3,0:0:0:0:
207,246,94815,6,0,L|117:257,2,91,8|8|8,0:0|0:0|0:0,0:0:0:0:
442,318,95265,1,8,0:0:0:0:
323,344,95415,2,0,L|313:244,1,91,8|8,0:3|0:3,0:0:0:0:
369,234,95640,1,8,0:3:0:0:
426,232,95715,2,0,L|441:182,3,45.5,8|8|8|8,0:3|0:3|0:3|0:3,0:0:0:0:
237,284,96015,6,0,P|216:229|290:191,1,136.5,6|0,1:0|0:0,0:0:0:0:
319,178,96315,2,0,L|383:170,2,45.5,2|0|2,1:0|0:0|0:0,0:0:0:0:
192,97,96615,2,0,L|292:78,1,91,2|2,1:0|0:0,0:0:0:0:
231,56,96840,1,0,0:0:0:0:
174,53,96915,2,0,L|63:51,1,91,2|2,1:0|0:0,0:0:0:0:
316,18,97215,6,0,P|343:75|263:117,1,136.5,2|0,1:0|0:0,0:0:0:0:
252,127,97515,1,2,1:0:0:0:
207,132,97590,1,0,0:0:0:0:
161,138,97665,1,2,0:0:0:0:
283,202,97815,2,0,L|387:206,1,91,2|2,1:0|0:0,0:0:0:0:
249,291,98115,1,2,1:0:0:0:
378,305,98265,1,2,1:0:0:0:
146,358,98415,6,0,L|-1:329,1,136.5,6|0,1:0|0:0,0:0:0:0:
56,321,98715,1,2,1:0:0:0:
100,310,98790,1,0,0:0:0:0:
144,300,98865,1,2,0:0:0:0:
274,164,99015,2,0,L|170:153,1,91,2|2,1:0|0:0,0:0:0:0:
232,122,99240,1,0,0:0:0:0:
288,114,99315,2,0,L|392:110,1,91,2|2,1:0|0:0,0:0:0:0:
140,246,99615,6,0,P|115:187|184:156,1,136.5,2|0,1:0|0:0,0:0:0:0:
212,145,99915,2,0,L|269:145,2,45.5,2|0|2,1:0|0:0|0:0,0:0:0:0:
77,190,100215,2,0,L|71:84,1,91,2|2,1:0|1:0,0:0:0:0:
120,79,100440,1,0,3:0:0:0:
180,69,100515,1,2,1:0:0:0:
58,28,100665,1,2,1:0:0:0:
305,28,100815,6,0,P|318:85|245:123,1,136.5,6|0,1:0|0:0,0:0:0:0:
212,129,101115,2,0,L|143:128,2,45.5,2|0|2,1:0|0:0|0:0,0:0:0:0:
351,146,101415,2,0,L|357:261,1,91,2|2,1:0|0:0,0:0:0:0:
306,258,101640,1,0,0:0:0:0:
252,269,101715,2,0,L|151:259,1,91,2|2,1:0|0:0,0:0:0:0:
400,111,102015,6,0,L|260:62,1,136.5,2|0,1:0|0:0,0:0:0:0:
228,73,102315,1,2,1:0:0:0:
209,113,102390,1,0,0:0:0:0:
230,151,102465,1,2,0:0:0:0:
362,175,102615,2,0,L|369:289,1,91,2|2,1:0|0:0,0:0:0:0:
316,284,102840,1,0,0:0:0:0:
259,293,102915,1,2,1:0:0:0:
388,351,103065,1,2,1:0:0:0:
144,371,103215,6,0,P|116:319|187:284,1,136.5,6|0,1:0|0:0,0:0:0:0:
220,268,103515,2,0,L|274:262,2,45.5,2|0|2,1:0|0:0|0:0,0:0:0:0:
92,198,103815,2,0,L|208:180,1,91,2|2,1:0|0:0,0:0:0:0:
132,158,104040,1,0,0:0:0:0:
70,156,104115,2,0,L|62:32,1,91,2|2,1:0|0:0,0:0:0:0:
300,31,104415,5,8,0:0:0:0:
342,43,104490,1,8,0:3:0:0:
359,84,104565,1,8,0:3:0:0:
340,123,104640,1,0,3:0:0:0:
297,134,104715,2,0,L|202:138,1,91,8|2,0:0|1:0,0:0:0:0:
348,198,105015,2,0,L|352:294,1,91,8|2,0:0|1:0,0:0:0:0:
303,297,105240,1,0,3:0:0:0:
138,316,105315,2,0,P|121:268|173:219,1,91,8|0,0:0|0:0,0:0:0:0:
394,308,105615,6,0,P|414:244|336:215,1,136.5,6|0,1:0|0:0,0:0:0:0:
317,194,105915,2,0,L|261:192,2,45.5,8|0|2,0:0|0:0|0:0,0:0:0:0:
448,111,106215,2,0,L|357:94,1,91,2|2,1:0|0:0,0:0:0:0:
306,81,106440,1,0,0:0:0:0:
251,64,106515,2,0,L|357:54,1,91,8|2,0:0|0:0,0:0:0:0:
105,42,106815,6,0,P|91:104|165:137,1,136.5,2|0,1:0|0:0,0:0:0:0:
189,146,107115,1,8,0:0:0:0:
234,153,107190,1,0,0:0:0:0:
279,159,107265,1,2,0:0:0:0:
155,218,107415,2,0,L|149:353,1,91,2|2,1:0|0:0,0:0:0:0:
201,326,107640,1,0,0:0:0:0:
254,331,107715,1,8,0:0:0:0:
128,362,107865,1,2,1:0:0:0:
359,363,108015,6,0,P|374:313|297:268,1,136.5,6|0,1:0|0:0,0:0:0:0:
271,259,108315,1,8,0:0:0:0:
248,221,108390,1,0,0:0:0:0:
262,180,108465,1,2,0:0:0:0:
394,156,108615,2,0,L|399:64,1,91,2|2,1:0|0:0,0:0:0:0:
346,46,108840,1,0,0:0:0:0:
290,62,108915,2,0,L|381:68,1,91,8|2,0:0|0:0,0:0:0:0:
146,203,109215,6,0,L|16:138,1,136.5,2|0,1:0|0:0,0:0:0:0:
15,98,109515,1,8,0:0:0:0:
38,60,109590,1,0,0:0:0:0:
81,46,109665,1,2,1:0:0:0:
208,64,109815,2,0,L|306:72,1,91,2|2,1:0|1:0,0:0:0:0:
251,104,110040,1,0,3:0:0:0:
74,153,110115,2,0,L|72:256,1,91,8|0,0:1|0:0,0:0:0:0:
319,154,110415,6,0,P|341:200|252:246,1,136.5,6|0,1:0|0:0,0:0:0:0:
237,260,110715,2,0,L|174:266,2,45.5,8|0|2,0:0|0:0|0:0,0:0:0:0:
366,344,111015,2,0,L|366:228,1,91,2|2,1:0|0:0,0:0:0:0:
314,240,111240,1,0,0:0:0:0:
259,222,111315,2,0,L|148:218,1,91,8|2,0:0|0:0,0:0:0:0:
405,55,111615,6,0,L|260:123,1,136.5,2|0,1:0|0:0,0:0:0:0:
325,122,111915,1,8,0:0:0:0:
370,131,111990,1,0,0:0:0:0:
415,141,112065,1,2,0:0:0:0:
286,197,112215,2,0,L|183:200,1,91,2|2,1:0|0:0,0:0:0:0:
421,189,112515,2,0,L|430:292,1,91,8|2,0:1|0:0,0:0:0:0:
190,335,112815,6,0,P|157:277|232:246,1,136.5,6|0,1:0|0:0,0:0:0:0:
254,231,113115,2,0,L|325:231,2,45.5,8|0|2,0:0|0:0|0:0,0:0:0:0:
121,149,113415,2,0,L|227:131,1,91,2|2,1:0|0:0,0:0:0:0:
161,110,113640,1,0,0:0:0:0:
105,108,113715,2,0,L|-6:125,1,91,8|2,0:0|1:0,0:0:0:0:
268,42,114015,6,0,L|369:48,1,91,8|2,0:0|1:0,0:0:0:0:
310,76,114240,1,0,3:0:0:0:
249,89,114315,1,8,0:0:0:0:
375,146,114465,1,8,0:0:0:0:
132,168,114615,2,0,L|131:272,1,91,8|2,0:0|1:0,0:0:0:0:
387,323,114915,2,0,L|488:329,1,91,8|8,0:3|0:3,0:0:0:0:
225,344,115215,6,0,L|120:325,1,91,6|2,1:0|0:0,0:0:0:0:
183,290,115440,2,0,L|277:278,1,91,2|0,0:0|0:0,0:0:0:0:
321,267,115665,1,2,0:0:0:0:
96,234,115815,2,0,L|88:113,1,91,2|2,1:0|0:0,0:0:0:0:
139,119,116040,2,0,L|28:95,1,91,2|0,0:0|0:0,0:0:0:0:
50,99,116265,1,2,0:0:0:0:
281,52,116415,6,0,L|395:73,1,91,2|2,1:0|0:0,0:0:0:0:
320,105,116640,2,0,L|205:113,1,91,2|0,0:0|0:0,0:0:0:0:
179,115,116865,1,2,0:0:0:0:
305,178,117015,2,0,L|308:293,1,91,2|2,1:0|0:0,0:0:0:0:
259,293,117240,2,0,L|363:311,1,91,2|0,0:0|0:0,0:0:0:0:
396,321,117465,1,2,1:0:0:0:
165,357,117615,6,0,L|153:239,1,91,6|2,1:0|0:0,0:0:0:0:
204,238,117840,2,0,L|304:221,1,91,2|0,0:0|0:0,0:0:0:0:
293,222,118065,1,2,0:0:0:0:
64,115,118215,2,0,L|162:95,1,91,2|2,1:0|0:0,0:0:0:0:
153,96,118440,2,0,L|37:82,1,91,2|0,0:0|0:0,0:0:0:0:
62,85,118665,1,2,0:0:0:0:
293,33,118815,6,0,L|299:130,1,91,2|2,1:0|0:0,0:0:0:0:
249,137,119040,1,2,0:0:0:0:
190,144,119115,2,0,L|187:246,1,91,2|2,1:0|1:0,0:0:0:0:
321,285,119415,2,0,L|213:268,1,91,8|2,0:0|1:0,0:0:0:0:
275,232,119640,1,0,3:0:0:0:
332,223,119715,1,8,0:0:0:0:
454,224,119865,1,2,1:0:0:0:
206,366,120015,6,0,L|194:261,1,91,6|2,1:0|0:0,0:0:0:0:
242,253,120240,2,0,L|346:242,1,91,2|0,0:0|0:0,0:0:0:0:
379,242,120465,1,2,0:0:0:0:
252,172,120615,2,0,L|147:149,1,91,2|2,1:0|0:0,0:0:0:0:
165,128,120840,2,0,L|267:113,1,91,2|0,0:0|0:0,0:0:0:0:
303,104,121065,1,2,0:0:0:0:
68,244,121215,6,0,L|62:132,1,91,2|2,1:0|0:0,0:0:0:0:
110,124,121440,2,0,L|9:113,1,91,2|0,0:0|0:0,0:0:0:0:
19,114,121665,1,2,0:0:0:0:
146,37,121815,2,0,L|256:48,1,91,2|2,1:0|0:0,0:0:0:0:
188,77,122040,2,0,L|89:89,1,91,2|0,0:0|0:0,0:0:0:0:
97,87,122265,1,2,0:0:0:0:
323,126,122415,6,0,L|331:238,1,91,2|2,1:0|0:0,0:0:0:0:
279,238,122640,2,0,L|180:257,1,91,2|0,0:0|0:0,0:0:0:0:
189,255,122865,1,2,0:0:0:0:
418,363,123015,2,0,L|422:266,1,91,2|2,1:0|0:0,0:0:0:0:
373,266,123240,2,0,L|482:246,1,91,2|0,0:0|0:0,0:0:0:0:
417,227,123465,1,2,0:0:0:0:
186,244,123615,5,8,0:0:0:0:
143,234,123690,1,8,0:0:0:0:
123,195,123765,1,2,1:0:0:0:
142,155,123840,1,2,1:0:0:0:
184,145,123915,1,8,0:0:0:0:
302,150,124065,1,2,1:0:0:0:
183,106,124215,2,0,L|70:95,1,91,8|2,0:0|1:0,0:0:0:0:
141,71,124440,1,0,0:0:0:0:
310,63,124515,6,0,L|314:159,1,91,8|0,0:0|0:0,0:0:0:0:
66,211,124815,6,0,L|166:235,1,91,6|2,1:0|0:0,0:0:0:0:
201,244,125040,2,0,L|99:269,1,91,2|0,0:0|0:0,0:0:0:0:
66,271,125265,1,2,0:0:0:0:
292,355,125415,2,0,L|290:244,1,91,2|2,1:0|0:0,0:0:0:0:
243,249,125640,2,0,L|119:224,1,91,2|0,0:0|0:0,0:0:0:0:
204,205,125865,1,2,0:0:0:0:
436,133,126015,6,0,L|333:103,1,91,2|2,1:0|0:0,0:0:0:0:
348,107,126240,2,0,L|451:88,1,91,2|0,0:0|0:0,0:0:0:0:
485,83,126465,1,2,0:0:0:0:
344,251,126615,2,0,L|333:148,1,91,2|2,1:0|0:0,0:0:0:0:
386,138,126840,2,0,L|479:123,1,91,2|0,0:0|0:0,0:0:0:0:
427,106,127065,1,2,1:0:0:0:
194,238,127215,6,0,L|305:218,1,91,6|2,1:0|0:0,0:0:0:0:
283,221,127440,2,0,L|175:203,1,91,2|0,0:0|0:0,0:0:0:0:
144,194,127665,1,2,0:0:0:0:
274,116,127815,2,0,L|283:231,1,91,2|2,1:0|0:0,0:0:0:0:
233,228,128040,2,0,L|133:243,1,91,2|0,0:0|0:0,0:0:0:0:
95,250,128265,1,2,0:0:0:0:
334,343,128415,6,0,L|336:234,1,91,2|2,1:0|0:0,0:0:0:0:
287,244,128640,2,0,L|394:224,1,91,2|0,0:0|0:0,0:0:0:0:
425,224,128865,1,2,1:0:0:0:
283,158,129015,2,0,L|173:153,1,91,8|2,0:0|1:0,0:0:0:0:
241,123,129240,1,0,3:0:0:0:
412,48,129315,6,0,L|418:155,1,91,8|0,0:1|0:0,0:0:0:0:
177,181,129615,6,0,L|64:193,1,91,6|2,1:0|0:0,0:0:0:0:
135,218,129840,2,0,L|239:228,1,91,2|0,0:0|0:0,0:0:0:0:
275,233,130065,1,2,0:0:0:0:
143,344,130215,2,0,L|143:240,1,91,2|2,1:0|0:0,0:0:0:0:
191,242,130440,2,0,L|306:230,1,91,2|0,0:0|0:0,0:0:0:0:
281,232,130665,1,2,0:0:0:0:
35,82,130815,6,0,L|138:86,1,91,6|2,1:0|0:0,0:0:0:0:
125,85,131040,2,0,L|-7:102,1,91,2|0,0:0|0:0,0:0:0:0:
35,96,131265,1,2,0:0:0:0:
265,149,131415,2,0,L|271:246,1,91,2|2,1:0|0:0,0:0:0:0:
223,255,131640,2,0,L|121:273,1,91,2|0,0:0|0:0,0:0:0:0:
183,296,131865,1,2,1:0:0:0:
423,338,132015,6,0,L|421:231,1,91,6|2,1:0|0:0,0:0:0:0:
368,232,132240,1,2,0:0:0:0:
309,211,132315,2,0,L|413:193,1,91,0|2,3:0|0:0,0:0:0:0:
272,122,132615,2,0,L|173:113,1,91,2|2,1:0|0:0,0:0:0:0:
230,80,132840,2,0,L|346:58,1,91,2|0,0:0|0:0,0:0:0:0:
369,62,133065,1,2,0:0:0:0:
125,43,133215,6,0,L|133:166,1,91,8|2,0:0|1:0,0:0:0:0:
183,157,133440,1,0,3:0:0:0:
244,167,133515,1,8,0:0:0:0:
115,234,133665,1,2,1:0:0:0:
340,296,133815,2,0,L|439:289,1,91,8|8,0:0|0:0,0:0:0:0:
205,209,134115,1,8,0:0:0:0:
325,195,134265,1,0,3:0:0:0:
76,134,134415,5,6,1:0:0:0:
256,192,134565,12,0,136665,0:0:0:0:
259,188,136815,5,4,3:2:0:0:
