osu file format v14

[General]
AudioFilename: audio.mp3
AudioLeadIn: 0
PreviewTime: -1
Countdown: 1
SampleSet: Normal
StackLeniency: 0.7
Mode: 3
LetterboxInBreaks: 0
SpecialStyle: 0
WidescreenStoryboard: 0

[Editor]
Bookmarks: 812,10412,14087,29312
DistanceSpacing: 2
BeatDivisor: 4
GridSize: 4
TimelineZoom: 2.1

[Metadata]
Title:- Fox4-Raize-
TitleUnicode:- Fox4-Raize-
Artist:Getty vs. DJ DiA
ArtistUnicode:Getty vs. DJ DiA
Creator:Fantasy
Version:sleepther
Source:
Tags:
BeatmapID:1145622
BeatmapSetID:540260

[Difficulty]
HPDrainRate:7
CircleSize:7
OverallDifficulty:8.3
ApproachRate:5
SliderMultiplier:1.4
SliderTickRate:1

[Events]
//Background and Video events
0,0,"393595.png",0,0
//Break Periods
//Storyboard Layer 0 (Background)
//Storyboard Layer 1 (Fail)
//Storyboard Layer 2 (Pass)
//Storyboard Layer 3 (Foreground)
//Storyboard Sound Samples

[TimingPoints]
812,300,4,1,0,100,1,0
18812,-133.333333333333,4,1,0,100,0,0
19862,-100,4,1,0,100,0,0
28412,-133.333333333333,4,1,0,100,0,0
29237,-66.6666666666667,4,1,0,100,0,0
29537,-133.333333333333,4,1,0,100,0,0
29612,-100,4,1,0,100,0,0

[HitObjects]
475,192,10412,5,0,0:0:0:0:
36,192,10412,1,0,0:0:0:0:
109,192,10412,1,0,0:0:0:0:
182,192,10412,1,0,0:0:0:0:
402,192,10487,1,0,0:0:0:0:
109,192,10562,128,0,10712:0:0:0:0:
256,192,10562,1,0,0:0:0:0:
475,192,10637,1,0,0:0:0:0:
329,192,10712,1,0,0:0:0:0:
36,192,10712,1,0,0:0:0:0:
402,192,10787,1,0,0:0:0:0:
182,192,10862,1,0,0:0:0:0:
256,192,10862,1,0,0:0:0:0:
475,192,10862,1,0,0:0:0:0:
36,192,10937,1,0,0:0:0:0:
329,192,10937,1,0,0:0:0:0:
109,192,11012,1,0,0:0:0:0:
402,192,11012,128,0,11162:0:0:0:0:
182,192,11087,1,0,0:0:0:0:
36,192,11162,128,0,11312:0:0:0:0:
256,192,11162,1,0,0:0:0:0:
475,192,11162,1,0,0:0:0:0:
109,192,11237,1,0,0:0:0:0:
182,192,11312,1,0,0:0:0:0:
256,192,11312,1,0,0:0:0:0:
329,192,11312,1,0,0:0:0:0:
475,192,11387,1,0,0:0:0:0:
402,192,11462,1,0,0:0:0:0:
109,192,11462,1,0,0:0:0:0:
182,192,11537,1,0,0:0:0:0:
36,192,11612,128,0,11912:0:0:0:0:
256,192,11612,1,0,0:0:0:0:
329,192,11612,1,0,0:0:0:0:
475,192,11687,1,0,0:0:0:0:
182,192,11762,1,0,0:0:0:0:
109,192,11762,1,0,0:0:0:0:
402,192,11837,1,0,0:0:0:0:
329,192,11912,1,0,0:0:0:0:
256,192,11912,1,0,0:0:0:0:
182,192,11987,1,0,0:0:0:0:
475,192,12062,128,0,12212:0:0:0:0:
109,192,12062,1,0,0:0:0:0:
402,192,12062,1,0,0:0:0:0:
329,192,12137,1,0,0:0:0:0:
109,192,12212,128,0,12362:0:0:0:0:
256,192,12212,1,0,0:0:0:0:
182,192,12212,1,0,0:0:0:0:
36,192,12287,1,0,0:0:0:0:
182,192,12362,128,0,12512:0:0:0:0:
329,192,12362,1,0,0:0:0:0:
475,192,12362,1,0,0:0:0:0:
402,192,12512,128,0,12812:0:0:0:0:
36,192,12512,1,0,0:0:0:0:
109,192,12512,1,0,0:0:0:0:
256,192,12512,1,0,0:0:0:0:
329,192,12587,1,0,0:0:0:0:
36,192,12662,1,0,0:0:0:0:
182,192,12662,1,0,0:0:0:0:
256,192,12737,1,0,0:0:0:0:
329,192,12812,1,0,0:0:0:0:
475,192,12812,1,0,0:0:0:0:
109,192,12812,1,0,0:0:0:0:
36,192,12887,1,0,0:0:0:0:
182,192,12962,1,0,0:0:0:0:
256,192,12962,1,0,0:0:0:0:
475,192,12962,1,0,0:0:0:0:
402,192,13037,1,0,0:0:0:0:
109,192,13112,128,0,13412:0:0:0:0:
329,192,13112,1,0,0:0:0:0:
36,192,13112,1,0,0:0:0:0:
256,192,13187,1,0,0:0:0:0:
182,192,13262,1,0,0:0:0:0:
402,192,13262,1,0,0:0:0:0:
475,192,13262,1,0,0:0:0:0:
256,192,13337,1,0,0:0:0:0:
329,192,13412,1,0,0:0:0:0:
36,192,13412,1,0,0:0:0:0:
182,192,13487,1,0,0:0:0:0:
256,192,13562,1,0,0:0:0:0:
402,192,13562,1,0,0:0:0:0:
475,192,13562,1,0,0:0:0:0:
182,192,13637,1,0,0:0:0:0:
475,192,13712,128,0,14012:0:0:0:0:
109,192,13712,1,0,0:0:0:0:
402,192,13787,128,0,14012:0:0:0:0:
36,192,13787,1,0,0:0:0:0:
329,192,13862,128,0,14012:0:0:0:0:
109,192,13862,1,0,0:0:0:0:
256,192,13937,128,0,14012:0:0:0:0:
36,192,14012,128,0,14312:0:0:0:0:
109,192,14087,128,0,14312:0:0:0:0:
182,192,14162,128,0,14312:0:0:0:0:
402,192,14162,1,0,0:0:0:0:
475,192,14162,1,0,0:0:0:0:
256,192,14237,128,0,14312:0:0:0:0:
475,192,14312,128,0,14612:0:0:0:0:
402,192,14387,128,0,14612:0:0:0:0:
329,192,14462,128,0,14612:0:0:0:0:
36,192,14462,1,0,0:0:0:0:
109,192,14462,1,0,0:0:0:0:
256,192,14537,128,0,14612:0:0:0:0:
36,192,14612,1,0,0:0:0:0:
109,192,14612,1,0,0:0:0:0:
182,192,14612,128,0,14912:0:0:0:0:
109,192,14762,1,0,0:0:0:0:
329,192,14762,1,0,0:0:0:0:
475,192,14762,1,0,0:0:0:0:
36,192,14837,1,0,0:0:0:0:
402,192,14837,1,0,0:0:0:0:
256,192,14912,128,0,15212:0:0:0:0:
109,192,14912,1,0,0:0:0:0:
329,192,14912,1,0,0:0:0:0:
475,192,14987,1,0,0:0:0:0:
402,192,15062,128,0,15212:0:0:0:0:
36,192,15062,1,0,0:0:0:0:
109,192,15062,1,0,0:0:0:0:
182,192,15137,1,0,0:0:0:0:
36,192,15212,128,0,15512:0:0:0:0:
329,192,15212,1,0,0:0:0:0:
475,192,15212,1,0,0:0:0:0:
109,192,15287,1,0,0:0:0:0:
182,192,15362,1,0,0:0:0:0:
329,192,15362,1,0,0:0:0:0:
402,192,15437,1,0,0:0:0:0:
182,192,15512,128,0,15812:0:0:0:0:
475,192,15512,1,0,0:0:0:0:
256,192,15512,1,0,0:0:0:0:
329,192,15587,1,0,0:0:0:0:
402,192,15662,1,0,0:0:0:0:
475,192,15662,1,0,0:0:0:0:
109,192,15662,1,0,0:0:0:0:
36,192,15737,1,0,0:0:0:0:
329,192,15812,128,0,16112:0:0:0:0:
256,192,15812,1,0,0:0:0:0:
402,192,15887,1,0,0:0:0:0:
475,192,15962,1,0,0:0:0:0:
109,192,15962,1,0,0:0:0:0:
36,192,15962,1,0,0:0:0:0:
182,192,15962,1,0,0:0:0:0:
256,192,16037,1,0,0:0:0:0:
475,192,16112,128,0,16412:0:0:0:0:
36,192,16112,128,0,16187:0:0:0:0:
182,192,16112,1,0,0:0:0:0:
109,192,16112,1,0,0:0:0:0:
109,192,16262,128,0,16337:0:0:0:0:
182,192,16262,1,0,0:0:0:0:
256,192,16262,1,0,0:0:0:0:
402,192,16337,1,0,0:0:0:0:
329,192,16412,128,0,16712:0:0:0:0:
36,192,16412,1,0,0:0:0:0:
256,192,16487,1,0,0:0:0:0:
109,192,16562,1,0,0:0:0:0:
36,192,16562,1,0,0:0:0:0:
402,192,16637,1,0,0:0:0:0:
182,192,16712,128,0,17012:0:0:0:0:
475,192,16712,1,0,0:0:0:0:
256,192,16712,1,0,0:0:0:0:
36,192,16787,1,0,0:0:0:0:
402,192,16862,1,0,0:0:0:0:
329,192,16937,1,0,0:0:0:0:
36,192,17012,128,0,17087:0:0:0:0:
475,192,17012,1,0,0:0:0:0:
109,192,17012,1,0,0:0:0:0:
256,192,17012,1,0,0:0:0:0:
329,192,17087,128,0,17162:0:0:0:0:
182,192,17162,128,0,17237:0:0:0:0:
402,192,17162,1,0,0:0:0:0:
109,192,17162,1,0,0:0:0:0:
475,192,17237,128,0,17312:0:0:0:0:
256,192,17237,1,0,0:0:0:0:
36,192,17312,128,0,17387:0:0:0:0:
109,192,17312,1,0,0:0:0:0:
402,192,17312,1,0,0:0:0:0:
256,192,17387,128,0,17462:0:0:0:0:
182,192,17387,1,0,0:0:0:0:
402,192,17462,128,0,17537:0:0:0:0:
329,192,17462,1,0,0:0:0:0:
109,192,17537,128,0,17612:0:0:0:0:
36,192,17537,1,0,0:0:0:0:
182,192,17612,1,0,0:0:0:0:
475,192,17612,1,0,0:0:0:0:
256,192,17612,1,0,0:0:0:0:
329,192,17687,1,0,0:0:0:0:
402,192,17762,1,0,0:0:0:0:
36,192,17762,1,0,0:0:0:0:
109,192,17762,1,0,0:0:0:0:
182,192,17762,1,0,0:0:0:0:
256,192,17837,1,0,0:0:0:0:
475,192,17912,1,0,0:0:0:0:
329,192,17912,1,0,0:0:0:0:
109,192,17912,1,0,0:0:0:0:
36,192,17987,1,0,0:0:0:0:
182,192,18062,1,0,0:0:0:0:
402,192,18062,1,0,0:0:0:0:
475,192,18062,1,0,0:0:0:0:
109,192,18137,1,0,0:0:0:0:
256,192,18212,1,0,0:0:0:0:
329,192,18212,1,0,0:0:0:0:
182,192,18287,1,0,0:0:0:0:
36,192,18287,1,0,0:0:0:0:
109,192,18362,1,0,0:0:0:0:
475,192,18362,1,0,0:0:0:0:
329,192,18362,1,0,0:0:0:0:
402,192,18437,1,0,0:0:0:0:
256,192,18512,1,0,0:0:0:0:
36,192,18512,1,0,0:0:0:0:
182,192,18587,1,0,0:0:0:0:
109,192,18662,1,0,0:0:0:0:
329,192,18662,1,0,0:0:0:0:
402,192,18737,1,0,0:0:0:0:
36,192,18737,1,0,0:0:0:0:
475,192,18812,1,0,0:0:0:0:
256,192,18812,1,0,0:0:0:0:
182,192,18812,1,0,0:0:0:0:
109,192,18812,1,0,0:0:0:0:
256,192,19112,1,0,0:0:0:0:
256,192,19412,1,0,0:0:0:0:
256,192,19712,1,0,0:0:0:0:
36,192,20012,128,0,20312:0:0:0:0:
475,192,20012,128,0,20312:0:0:0:0:
256,192,20012,128,0,20237:0:0:0:0:
182,192,20312,1,0,0:0:0:0:
109,192,20312,1,0,0:0:0:0:
329,192,20312,1,0,0:0:0:0:
402,192,20387,1,0,0:0:0:0:
256,192,20462,1,0,0:0:0:0:
36,192,20462,1,0,0:0:0:0:
109,192,20537,1,0,0:0:0:0:
182,192,20612,1,0,0:0:0:0:
329,192,20612,1,0,0:0:0:0:
402,192,20612,1,0,0:0:0:0:
475,192,20612,1,0,0:0:0:0:
36,192,20687,1,0,0:0:0:0:
109,192,20762,1,0,0:0:0:0:
256,192,20762,1,0,0:0:0:0:
329,192,20762,1,0,0:0:0:0:
402,192,20837,1,0,0:0:0:0:
182,192,20837,1,0,0:0:0:0:
475,192,20912,1,0,0:0:0:0:
36,192,20912,1,0,0:0:0:0:
109,192,20912,1,0,0:0:0:0:
256,192,20987,1,0,0:0:0:0:
329,192,20987,1,0,0:0:0:0:
402,192,21062,1,0,0:0:0:0:
475,192,21062,1,0,0:0:0:0:
182,192,21062,1,0,0:0:0:0:
109,192,21137,1,0,0:0:0:0:
36,192,21212,1,0,0:0:0:0:
256,192,21212,1,0,0:0:0:0:
329,192,21212,1,0,0:0:0:0:
402,192,21287,1,0,0:0:0:0:
475,192,21362,1,0,0:0:0:0:
182,192,21362,1,0,0:0:0:0:
109,192,21362,1,0,0:0:0:0:
36,192,21437,1,0,0:0:0:0:
256,192,21437,1,0,0:0:0:0:
329,192,21437,1,0,0:0:0:0:
402,192,21512,1,0,0:0:0:0:
475,192,21512,1,0,0:0:0:0:
182,192,21587,1,0,0:0:0:0:
329,192,21587,1,0,0:0:0:0:
109,192,21662,1,0,0:0:0:0:
256,192,21662,1,0,0:0:0:0:
36,192,21737,1,0,0:0:0:0:
402,192,21737,1,0,0:0:0:0:
475,192,21812,1,0,0:0:0:0:
329,192,21812,1,0,0:0:0:0:
256,192,21812,1,0,0:0:0:0:
182,192,21812,1,0,0:0:0:0:
109,192,21887,1,0,0:0:0:0:
36,192,21962,1,0,0:0:0:0:
256,192,21962,1,0,0:0:0:0:
475,192,21962,1,0,0:0:0:0:
402,192,22037,1,0,0:0:0:0:
329,192,22112,1,0,0:0:0:0:
182,192,22112,1,0,0:0:0:0:
109,192,22112,1,0,0:0:0:0:
36,192,22187,1,0,0:0:0:0:
402,192,22187,1,0,0:0:0:0:
475,192,22262,1,0,0:0:0:0:
256,192,22262,1,0,0:0:0:0:
182,192,22262,1,0,0:0:0:0:
109,192,22337,1,0,0:0:0:0:
329,192,22412,1,0,0:0:0:0:
402,192,22412,1,0,0:0:0:0:
475,192,22412,1,0,0:0:0:0:
36,192,22412,128,0,22712:0:0:0:0:
256,192,22487,1,0,0:0:0:0:
182,192,22562,1,0,0:0:0:0:
109,192,22562,1,0,0:0:0:0:
402,192,22562,1,0,0:0:0:0:
475,192,22562,1,0,0:0:0:0:
329,192,22637,1,0,0:0:0:0:
256,192,22712,1,0,0:0:0:0:
182,192,22712,1,0,0:0:0:0:
402,192,22787,1,0,0:0:0:0:
475,192,22862,1,0,0:0:0:0:
109,192,22862,1,0,0:0:0:0:
182,192,22862,1,0,0:0:0:0:
256,192,22937,1,0,0:0:0:0:
329,192,23012,1,0,0:0:0:0:
36,192,23012,1,0,0:0:0:0:
402,192,23012,1,0,0:0:0:0:
475,192,23087,1,0,0:0:0:0:
182,192,23087,1,0,0:0:0:0:
109,192,23162,1,0,0:0:0:0:
256,192,23162,1,0,0:0:0:0:
329,192,23237,1,0,0:0:0:0:
36,192,23237,1,0,0:0:0:0:
402,192,23312,1,0,0:0:0:0:
475,192,23312,1,0,0:0:0:0:
182,192,23312,1,0,0:0:0:0:
109,192,23387,1,0,0:0:0:0:
256,192,23387,1,0,0:0:0:0:
329,192,23462,1,0,0:0:0:0:
36,192,23462,1,0,0:0:0:0:
402,192,23537,1,0,0:0:0:0:
109,192,23537,1,0,0:0:0:0:
182,192,23612,128,0,24212:0:0:0:0:
329,192,23612,128,0,24212:0:0:0:0:
36,192,23612,1,0,0:0:0:0:
475,192,23612,1,0,0:0:0:0:
256,192,23687,1,0,0:0:0:0:
109,192,23762,1,0,0:0:0:0:
402,192,23762,1,0,0:0:0:0:
256,192,23837,1,0,0:0:0:0:
36,192,23912,1,0,0:0:0:0:
475,192,23912,1,0,0:0:0:0:
256,192,23987,1,0,0:0:0:0:
109,192,24062,1,0,0:0:0:0:
402,192,24062,1,0,0:0:0:0:
256,192,24212,128,0,24512:0:0:0:0:
36,192,24212,128,0,24512:0:0:0:0:
475,192,24212,128,0,24512:0:0:0:0:
109,192,24287,1,0,0:0:0:0:
402,192,24287,1,0,0:0:0:0:
182,192,24362,1,0,0:0:0:0:
329,192,24362,1,0,0:0:0:0:
109,192,24512,128,0,24662:0:0:0:0:
402,192,24512,128,0,24662:0:0:0:0:
182,192,24512,1,0,0:0:0:0:
329,192,24512,1,0,0:0:0:0:
256,192,24662,128,0,24812:0:0:0:0:
36,192,24662,1,0,0:0:0:0:
475,192,24662,1,0,0:0:0:0:
36,192,24812,1,0,0:0:0:0:
182,192,24812,1,0,0:0:0:0:
329,192,24812,1,0,0:0:0:0:
109,192,24812,128,0,25112:0:0:0:0:
402,192,24812,128,0,25112:0:0:0:0:
256,192,24962,1,0,0:0:0:0:
182,192,25037,1,0,0:0:0:0:
329,192,25037,1,0,0:0:0:0:
256,192,25112,1,0,0:0:0:0:
36,192,25187,1,0,0:0:0:0:
182,192,25262,1,0,0:0:0:0:
329,192,25262,1,0,0:0:0:0:
475,192,25262,1,0,0:0:0:0:
36,192,25337,1,0,0:0:0:0:
256,192,25412,1,0,0:0:0:0:
402,192,25412,1,0,0:0:0:0:
109,192,25412,1,0,0:0:0:0:
36,192,25487,1,0,0:0:0:0:
182,192,25562,1,0,0:0:0:0:
329,192,25562,1,0,0:0:0:0:
475,192,25562,1,0,0:0:0:0:
36,192,25637,1,0,0:0:0:0:
402,192,25712,1,0,0:0:0:0:
256,192,25712,1,0,0:0:0:0:
109,192,25712,1,0,0:0:0:0:
36,192,25787,1,0,0:0:0:0:
182,192,25862,1,0,0:0:0:0:
256,192,25862,1,0,0:0:0:0:
329,192,25862,1,0,0:0:0:0:
402,192,25937,1,0,0:0:0:0:
475,192,26012,1,0,0:0:0:0:
109,192,26012,1,0,0:0:0:0:
36,192,26012,1,0,0:0:0:0:
182,192,26012,1,0,0:0:0:0:
256,192,26087,1,0,0:0:0:0:
329,192,26162,1,0,0:0:0:0:
475,192,26162,1,0,0:0:0:0:
402,192,26237,1,0,0:0:0:0:
182,192,26237,1,0,0:0:0:0:
109,192,26312,1,0,0:0:0:0:
36,192,26312,1,0,0:0:0:0:
256,192,26312,1,0,0:0:0:0:
329,192,26387,1,0,0:0:0:0:
402,192,26462,1,0,0:0:0:0:
475,192,26462,1,0,0:0:0:0:
182,192,26462,1,0,0:0:0:0:
256,192,26537,1,0,0:0:0:0:
329,192,26612,1,0,0:0:0:0:
402,192,26612,1,0,0:0:0:0:
475,192,26612,1,0,0:0:0:0:
36,192,26612,1,0,0:0:0:0:
109,192,26687,1,0,0:0:0:0:
182,192,26762,1,0,0:0:0:0:
256,192,26837,1,0,0:0:0:0:
329,192,26912,1,0,0:0:0:0:
475,192,26912,1,0,0:0:0:0:
109,192,26912,1,0,0:0:0:0:
402,192,26987,1,0,0:0:0:0:
36,192,26987,1,0,0:0:0:0:
182,192,27062,128,0,27212:0:0:0:0:
256,192,27062,1,0,0:0:0:0:
329,192,27062,1,0,0:0:0:0:
402,192,27212,1,0,0:0:0:0:
109,192,27212,1,0,0:0:0:0:
36,192,27212,1,0,0:0:0:0:
475,192,27212,128,0,27512:0:0:0:0:
329,192,27287,1,0,0:0:0:0:
109,192,27362,1,0,0:0:0:0:
36,192,27437,1,0,0:0:0:0:
182,192,27512,1,0,0:0:0:0:
256,192,27512,1,0,0:0:0:0:
329,192,27512,1,0,0:0:0:0:
402,192,27512,1,0,0:0:0:0:
109,192,27587,1,0,0:0:0:0:
36,192,27662,1,0,0:0:0:0:
475,192,27662,1,0,0:0:0:0:
329,192,27662,1,0,0:0:0:0:
256,192,27737,1,0,0:0:0:0:
182,192,27812,1,0,0:0:0:0:
402,192,27812,1,0,0:0:0:0:
475,192,27812,1,0,0:0:0:0:
36,192,27887,1,0,0:0:0:0:
109,192,27962,1,0,0:0:0:0:
256,192,27962,1,0,0:0:0:0:
329,192,27962,1,0,0:0:0:0:
402,192,28037,1,0,0:0:0:0:
182,192,28037,1,0,0:0:0:0:
475,192,28112,1,0,0:0:0:0:
36,192,28112,1,0,0:0:0:0:
109,192,28187,1,0,0:0:0:0:
329,192,28187,1,0,0:0:0:0:
182,192,28262,1,0,0:0:0:0:
402,192,28262,1,0,0:0:0:0:
475,192,28337,1,0,0:0:0:0:
256,192,28337,1,0,0:0:0:0:
329,192,28412,1,0,0:0:0:0:
36,192,28412,128,0,28487:0:0:0:0:
109,192,28487,128,0,28562:0:0:0:0:
182,192,28562,128,0,28637:0:0:0:0:
256,192,28637,128,0,28712:0:0:0:0:
475,192,28712,128,0,28787:0:0:0:0:
402,192,28787,128,0,28862:0:0:0:0:
329,192,28862,128,0,28937:0:0:0:0:
256,192,28937,128,0,29012:0:0:0:0:
36,192,29012,128,0,29087:0:0:0:0:
109,192,29087,128,0,29162:0:0:0:0:
182,192,29162,128,0,29237:0:0:0:0:
256,192,29237,128,0,29612:0:0:0:0:
36,192,29612,128,0,29912:0:0:0:0:
475,192,29612,128,0,29912:0:0:0:0:
109,192,29687,1,0,0:0:0:0:
402,192,29687,1,0,0:0:0:0:
182,192,29762,1,0,0:0:0:0:
329,192,29762,1,0,0:0:0:0:
256,192,29837,1,0,0:0:0:0:
109,192,29912,1,0,0:0:0:0:
402,192,29912,128,0,30212:0:0:0:0:
182,192,29987,1,0,0:0:0:0:
329,192,30062,128,0,30212:0:0:0:0:
256,192,30062,1,0,0:0:0:0:
109,192,30137,1,0,0:0:0:0:
36,192,30212,128,0,30512:0:0:0:0:
182,192,30212,1,0,0:0:0:0:
475,192,30212,1,0,0:0:0:0:
256,192,30287,1,0,0:0:0:0:
109,192,30362,128,0,30512:0:0:0:0:
475,192,30362,1,0,0:0:0:0:
329,192,30362,1,0,0:0:0:0:
402,192,30437,1,0,0:0:0:0:
256,192,30512,128,0,30812:0:0:0:0:
182,192,30512,1,0,0:0:0:0:
475,192,30587,1,0,0:0:0:0:
329,192,30662,128,0,30812:0:0:0:0:
36,192,30662,1,0,0:0:0:0:
402,192,30662,1,0,0:0:0:0:
109,192,30737,1,0,0:0:0:0:
475,192,30812,128,0,31112:0:0:0:0:
182,192,30812,1,0,0:0:0:0:
109,192,30887,1,0,0:0:0:0:
402,192,30962,128,0,31112:0:0:0:0:
329,192,30962,1,0,0:0:0:0:
182,192,30962,1,0,0:0:0:0:
256,192,31037,1,0,0:0:0:0:
109,192,31112,128,0,31412:0:0:0:0:
182,192,31112,1,0,0:0:0:0:
329,192,31187,1,0,0:0:0:0:
182,192,31262,128,0,31412:0:0:0:0:
256,192,31262,1,0,0:0:0:0:
36,192,31262,1,0,0:0:0:0:
402,192,31337,1,0,0:0:0:0:
256,192,31412,128,0,31712:0:0:0:0:
475,192,31412,1,0,0:0:0:0:
36,192,31487,1,0,0:0:0:0:
329,192,31562,128,0,31712:0:0:0:0:
182,192,31562,128,0,32012:0:0:0:0:
109,192,31562,1,0,0:0:0:0:
36,192,31712,128,0,32012:0:0:0:0:
109,192,31712,128,0,32012:0:0:0:0:
402,192,31712,1,0,0:0:0:0:
256,192,31862,128,0,32012:0:0:0:0:
329,192,31862,128,0,32012:0:0:0:0:
475,192,31862,1,0,0:0:0:0:
402,192,32012,1,0,0:0:0:0:
475,192,32087,1,0,0:0:0:0:
402,192,32162,128,0,32462:0:0:0:0:
182,192,32162,1,0,0:0:0:0:
36,192,32162,1,0,0:0:0:0:
109,192,32237,1,0,0:0:0:0:
329,192,32312,128,0,32462:0:0:0:0:
256,192,32312,1,0,0:0:0:0:
182,192,32387,1,0,0:0:0:0:
36,192,32462,128,0,32762:0:0:0:0:
109,192,32462,1,0,0:0:0:0:
475,192,32462,1,0,0:0:0:0:
256,192,32537,1,0,0:0:0:0:
109,192,32612,128,0,32762:0:0:0:0:
182,192,32612,1,0,0:0:0:0:
402,192,32612,1,0,0:0:0:0:
329,192,32687,1,0,0:0:0:0:
256,192,32762,128,0,33062:0:0:0:0:
475,192,32762,1,0,0:0:0:0:
402,192,32837,1,0,0:0:0:0:
329,192,32912,128,0,33062:0:0:0:0:
182,192,32912,128,0,33212:0:0:0:0:
475,192,33062,128,0,33362:0:0:0:0:
36,192,33062,128,0,33512:0:0:0:0:
402,192,33212,128,0,33362:0:0:0:0:
329,192,33212,128,0,33512:0:0:0:0:
109,192,33362,128,0,33512:0:0:0:0:
256,192,33362,128,0,33512:0:0:0:0:
402,192,33512,128,0,33812:0:0:0:0:
182,192,33512,128,0,33812:0:0:0:0:
256,192,33662,128,0,33812:0:0:0:0:
329,192,33662,128,0,33812:0:0:0:0:
36,192,33662,128,0,33812:0:0:0:0:
109,192,33662,128,0,33812:0:0:0:0:
475,192,33887,1,0,0:0:0:0:
402,192,33962,1,0,0:0:0:0:
36,192,33962,1,0,0:0:0:0:
329,192,34037,1,0,0:0:0:0:
109,192,34037,1,0,0:0:0:0:
475,192,34112,1,0,0:0:0:0:
182,192,34112,1,0,0:0:0:0:
402,192,34187,1,0,0:0:0:0:
36,192,34187,1,0,0:0:0:0:
109,192,34262,1,0,0:0:0:0:
329,192,34262,1,0,0:0:0:0:
475,192,34337,1,0,0:0:0:0:
182,192,34337,1,0,0:0:0:0:
402,192,34412,1,0,0:0:0:0:
36,192,34412,1,0,0:0:0:0:
109,192,34412,1,0,0:0:0:0:
256,192,34412,128,0,34712:0:0:0:0:
329,192,34487,1,0,0:0:0:0:
475,192,34562,1,0,0:0:0:0:
182,192,34562,1,0,0:0:0:0:
109,192,34637,1,0,0:0:0:0:
36,192,34712,1,0,0:0:0:0:
329,192,34712,1,0,0:0:0:0:
402,192,34712,1,0,0:0:0:0:
475,192,34787,1,0,0:0:0:0:
182,192,34787,1,0,0:0:0:0:
109,192,34862,128,0,35162:0:0:0:0:
329,192,34862,1,0,0:0:0:0:
402,192,34937,1,0,0:0:0:0:
182,192,35012,128,0,35162:0:0:0:0:
475,192,35012,1,0,0:0:0:0:
256,192,35012,1,0,0:0:0:0:
36,192,35012,1,0,0:0:0:0:
329,192,35087,1,0,0:0:0:0:
402,192,35162,128,0,35462:0:0:0:0:
36,192,35237,1,0,0:0:0:0:
256,192,35237,1,0,0:0:0:0:
475,192,35312,128,0,35462:0:0:0:0:
329,192,35312,1,0,0:0:0:0:
182,192,35312,1,0,0:0:0:0:
109,192,35387,1,0,0:0:0:0:
36,192,35462,1,0,0:0:0:0:
256,192,35462,128,0,35762:0:0:0:0:
182,192,35537,1,0,0:0:0:0:
329,192,35612,128,0,35762:0:0:0:0:
36,192,35612,1,0,0:0:0:0:
402,192,35612,1,0,0:0:0:0:
475,192,35687,1,0,0:0:0:0:
109,192,35762,128,0,36062:0:0:0:0:
36,192,35762,1,0,0:0:0:0:
402,192,35837,1,0,0:0:0:0:
182,192,35912,128,0,36062:0:0:0:0:
475,192,35912,1,0,0:0:0:0:
256,192,35912,1,0,0:0:0:0:
36,192,35912,1,0,0:0:0:0:
329,192,35987,1,0,0:0:0:0:
475,192,36062,128,0,36362:0:0:0:0:
402,192,36062,1,0,0:0:0:0:
36,192,36062,1,0,0:0:0:0:
256,192,36137,1,0,0:0:0:0:
402,192,36212,128,0,36362:0:0:0:0:
329,192,36212,1,0,0:0:0:0:
109,192,36212,1,0,0:0:0:0:
182,192,36287,1,0,0:0:0:0:
36,192,36362,128,0,36662:0:0:0:0:
256,192,36362,1,0,0:0:0:0:
329,192,36362,1,0,0:0:0:0:
182,192,36437,1,0,0:0:0:0:
109,192,36512,128,0,36662:0:0:0:0:
475,192,36512,1,0,0:0:0:0:
329,192,36512,1,0,0:0:0:0:
402,192,36587,1,0,0:0:0:0:
182,192,36662,1,0,0:0:0:0:
329,192,36662,1,0,0:0:0:0:
256,192,36737,1,0,0:0:0:0:
475,192,36812,1,0,0:0:0:0:
329,192,36812,1,0,0:0:0:0:
402,192,36887,1,0,0:0:0:0:
182,192,36887,1,0,0:0:0:0:
109,192,36962,1,0,0:0:0:0:
36,192,37037,1,0,0:0:0:0:
256,192,37112,1,0,0:0:0:0:
475,192,37112,1,0,0:0:0:0:
402,192,37112,1,0,0:0:0:0:
109,192,37112,1,0,0:0:0:0:
182,192,37187,1,0,0:0:0:0:
109,192,37262,1,0,0:0:0:0:
402,192,37262,1,0,0:0:0:0:
36,192,37262,1,0,0:0:0:0:
256,192,37262,1,0,0:0:0:0:
329,192,37337,1,0,0:0:0:0:
256,192,37412,1,0,0:0:0:0:
402,192,37412,1,0,0:0:0:0:
36,192,37412,1,0,0:0:0:0:
475,192,37487,1,0,0:0:0:0:
109,192,37487,1,0,0:0:0:0:
402,192,37562,1,0,0:0:0:0:
182,192,37562,1,0,0:0:0:0:
329,192,37637,1,0,0:0:0:0:
36,192,37712,1,0,0:0:0:0:
256,192,37712,1,0,0:0:0:0:
475,192,37712,1,0,0:0:0:0:
109,192,37787,1,0,0:0:0:0:
402,192,37787,1,0,0:0:0:0:
182,192,37862,1,0,0:0:0:0:
329,192,37862,1,0,0:0:0:0:
256,192,37937,1,0,0:0:0:0:
109,192,38012,1,0,0:0:0:0:
475,192,38012,1,0,0:0:0:0:
402,192,38012,1,0,0:0:0:0:
36,192,38012,1,0,0:0:0:0:
182,192,38012,128,0,38312:0:0:0:0:
329,192,38012,128,0,38312:0:0:0:0:
256,192,38312,128,0,38612:0:0:0:0:
36,192,38537,1,0,0:0:0:0:
475,192,38537,1,0,0:0:0:0:
109,192,38612,1,0,0:0:0:0:
402,192,38612,1,0,0:0:0:0:
36,192,38687,1,0,0:0:0:0:
475,192,38687,1,0,0:0:0:0:
109,192,38762,1,0,0:0:0:0:
402,192,38762,1,0,0:0:0:0:
475,192,38837,1,0,0:0:0:0:
36,192,38837,1,0,0:0:0:0:
329,192,38912,1,0,0:0:0:0:
256,192,38912,1,0,0:0:0:0:
182,192,38912,1,0,0:0:0:0:
36,192,39212,128,0,39812:0:0:0:0:
109,192,39212,128,0,39812:0:0:0:0:
182,192,39212,128,0,39812:0:0:0:0:
475,192,39212,128,0,39812:0:0:0:0:
402,192,39212,128,0,39812:0:0:0:0:
329,192,39212,128,0,39812:0:0:0:0:
