osu file format v14

[General]
AudioFilename: audio.mp3
AudioLeadIn: 0
PreviewTime: 43703
Countdown: 1
SampleSet: Soft
StackLeniency: 0.9
Mode: 0
LetterboxInBreaks: 0
WidescreenStoryboard: 0

[Editor]
Bookmarks: 15556,24203,39468,40086,40439,40880,42027,66909,101497,101673,106438
DistanceSpacing: 1.2
BeatDivisor: 4
GridSize: 16
TimelineZoom: 5.799996

[Metadata]
Title:Ripple
TitleUnicode:Ripple
Artist:Getty
ArtistUnicode:Getty
Creator:TyTy
Version:this one
Source:
Tags:
BeatmapID:1593816
BeatmapSetID:757630

[Difficulty]
HPDrainRate:4
CircleSize:4.5
OverallDifficulty:7.5
ApproachRate:10
SliderMultiplier:1.4
SliderTickRate:1

[Events]
//Background and Video events
0,0,"wallpaper.jpg",0,0
//Break Periods
2,101520,105943
//Storyboard Layer 0 (Background)
//Storyboard Layer 1 (Fail)
//Storyboard Layer 2 (Pass)
//Storyboard Layer 3 (Foreground)
//Storyboard Sound Samples

[TimingPoints]
204,352.941176470588,4,2,0,59,1,0
10086,-133.333333333333,4,2,0,59,0,0
21998,-105.263157894737,4,2,0,59,0,0
43593,-50,4,2,0,59,0,1
49968,176.470588235294,4,2,0,59,1,1
49968,-50,4,2,0,59,0,1
50409,-100,4,2,0,59,0,1
53100,-50,4,2,0,59,0,1
53365,-66.6666666666667,4,2,0,59,0,1
55923,-66.6666666666667,4,2,0,59,0,1
61217,-50,4,2,0,59,0,0
71232,-142.857142857143,4,2,0,59,0,0
71453,-50,4,2,0,59,0,0
71553,-50,4,2,0,59,0,0
71806,-111.111111111111,4,2,0,59,0,0
72026,-50,4,2,0,59,0,0
74982,-66.6666666666667,4,2,0,59,0,0
76967,-200,4,2,0,59,0,0
81026,-125,4,2,0,59,0,0
86585,-50,4,2,0,59,0,0
87115,-125,4,2,0,59,0,0
89497,-142.857142857143,4,2,0,59,0,0
97791,-71.4285714285714,4,2,0,59,0,0
98320,-133.333333333333,4,2,0,59,0,0
115967,-200,4,2,0,59,0,0
122850,-100,4,2,0,59,0,0
126159,-133.333333333333,4,2,0,59,0,0
126512,-200,4,2,0,59,0,0

[HitObjects]
240,240,10615,5,0,0:0:0:0:
240,240,10792,2,0,B|241:193|321:177|321:177,1,105.000004005432
368,80,11321,2,0,L|432:112,1,52.5000020027161
256,112,11674,2,0,L|192:128,1,52.5000020027161
64,144,12027,2,0,L|112:176,1,52.5000020027161
128,288,12380,1,0,0:0:0:0:
224,96,12556,2,0,L|272:128,1,52.5000020027161
176,224,12909,1,0,0:0:0:0:
256,256,13086,6,0,L|304:288,1,52.5000020027161
288,160,13439,1,0,0:0:0:0:
160,160,13615,1,0,0:0:0:0:
176,48,13792,2,0,P|240:48|272:80,1,105.000004005432
268,73,14233,2,0,L|332:89,1,52.5000020027161
208,128,14498,1,0,0:0:0:0:
176,48,14674,2,0,P|240:48|272:80,1,105.000004005432
160,192,15203,2,0,P|176:240|192:256,1,52.5000020027161
320,208,15556,6,0,P|368:96|368:96,1,105.000004005432
352,144,16086,6,0,B|442:310|291:219|291:219|201:295|201:295|291:279|291:279|321:355|321:355,1,498.750019025803
313,336,17851,6,0,B|242:326|242:326|300:273|300:273|182:246|182:246|140:163|140:163|252:194|252:194|329:210|329:210|234:114|234:114|316:114|314:114,1,774.375029540063
416,112,20674,5,0,0:0:0:0:
256,208,21027,1,0,0:0:0:0:
416,112,21380,1,0,0:0:0:0:
256,16,21733,1,0,0:0:0:0:
144,240,22086,6,0,L|202:249,1,33.2499991121292
158,162,22262,2,0,L|216:152,1,33.2499991121292
208,240,22439,2,0,L|266:249,1,33.2499991121292
224,176,22615,2,0,L|282:166,1,33.2499991121292
288,224,22792,2,0,L|346:233,1,33.2499991121292
288,192,22968,2,0,L|346:182,1,33.2499991121292
400,208,23145,1,0,0:0:0:0:
464,208,23498,6,0,L|397:208,1,66.4999982242585
160,144,23851,1,0,0:0:0:0:
160,144,24203,2,0,B|176:96|176:96|195:71|195:71,1,66.4999982242585
240,320,24556,1,0,0:0:0:0:
240,320,24909,2,0,B|304:288|304:288|335:234,1,132.999996448517
288,144,25439,2,0,P|256:133|231:101,1,66.4999982242585
192,224,25968,1,0,0:0:0:0:
192,224,26321,1,0,0:0:0:0:
192,224,26498,6,0,P|224:235|250:268,1,74.8124980022908
368,272,26851,2,0,P|400:266|424:244,2,66.4999982242585
304,128,27380,5,0,0:0:0:0:
304,128,27556,1,0,0:0:0:0:
304,128,27733,2,0,L|384:137,1,66.4999982242585
272,336,27998,2,0,L|224:288,1,66.4999982242585
320,256,28262,2,0,L|368:208,1,66.4999982242585
272,128,28527,6,0,L|224:175,1,66.4999982242585
224,175,28792,2,0,P|141:119|112:128,1,132.999996448517
64,224,29233,2,0,L|80:288,1,66.4999982242585
64,224,29498,6,0,L|54:176,1,33.2499991121292
160,288,29674,2,0,L|199:276,1,33.2499991121292
160,80,29851,2,0,L|119:91,1,33.2499991121292
144,192,30027,2,0,L|192:192,1,33.2499991121292
272,96,30203,2,0,L|271:140,1,33.2499991121292
272,267,30379,2,0,L|271:220,1,33.2499991121292
336,80,30556,5,2,0:3:0:0:
272,160,30733,1,2,0:3:0:0:
336,224,30909,1,14,0:0:0:0:
400,288,31086,1,14,0:0:0:0:
272,64,31262,1,14,0:0:0:0:
192,112,31439,1,14,0:0:0:0:
448,112,31615,1,14,0:0:0:0:
400,32,31792,1,14,0:0:0:0:
288,224,31968,1,14,0:0:0:0:
256,192,33380,12,0,35851,0:0:0:0:
174,210,37262,6,0,L|192:256,2,49.8749986681939
174,210,37615,6,0,P|165:176|140:152,1,66.4999982242585
96,144,37968,6,0,L|64:80,1,66.4999982242585
192,144,38321,2,0,L|224:80,1,66.4999982242585
128,48,38674,2,0,L|240:32,1,99.7499973363877
240,32,39028,5,0,0:0:0:0:
261,53,39116,1,0,0:0:0:0:
283,75,39204,1,0,0:0:0:0:
304,96,39292,1,0,0:0:0:0:
326,118,39380,1,0,0:0:0:0:
347,139,39468,1,0,0:0:0:0:
369,161,39557,1,0,0:0:0:0:
391,183,39645,1,0,0:0:0:0:
416,207,39733,1,0,0:0:0:0:
441,231,39821,1,0,0:0:0:0:
464,256,39909,1,0,0:0:0:0:
485,275,39998,1,0,0:0:0:0:
416,272,40086,5,0,0:0:0:0:
388,294,40174,1,0,0:0:0:0:
361,315,40262,1,0,0:0:0:0:
334,338,40351,1,0,0:0:0:0:
320,288,40439,1,0,0:0:0:0:
288,272,40527,5,0,0:0:0:0:
256,256,40615,1,0,0:0:0:0:
224,240,40703,1,0,0:0:0:0:
288,224,40791,1,0,0:0:0:0:
314,203,40879,1,0,0:0:0:0:
337,184,40968,1,0,0:0:0:0:
368,160,41056,1,0,0:0:0:0:
333,136,41145,1,0,0:0:0:0:
303,117,41233,1,0,0:0:0:0:
232,64,41321,6,0,L|211:90,1,33.2499991121292
103,128,41498,2,0,L|76:107,1,33.2499991121292
64,256,41674,2,0,L|97:278,1,33.2499991121292
224,320,41851,2,0,P|226:320|227:318,1,33.2499991121292
288,208,42027,5,0,0:0:0:0:
320,240,42115,1,0,0:0:0:0:
320,240,42203,1,0,0:0:0:0:
320,240,42292,1,0,0:0:0:0:
320,240,42380,1,0,0:0:0:0:
320,240,42468,1,0,0:0:0:0:
320,240,42556,1,0,0:0:0:0:
320,240,42645,1,0,0:0:0:0:
320,240,42733,1,0,0:0:0:0:
320,240,42821,1,0,0:0:0:0:
263,249,42909,1,0,0:0:0:0:
231,265,42997,1,0,0:0:0:0:
206,289,43085,1,0,0:0:0:0:
192,321,43174,1,0,0:0:0:0:
192,352,43262,6,0,L|126:219,1,132.999996448517
132,232,43968,6,0,P|192:128|264:166,1,210
256,160,44321,6,0,B|230:126|195:121|195:121|237:133|256:160|256:160|229:128|195:121,1,210
256,160,44674,6,0,P|274:223|240:288,1,140
134,306,44939,2,0,P|103:290|85:260,1,70
86,125,45115,1,0,0:0:0:0:
86,125,45203,2,0,P|107:98|140:90,1,70
240,80,45380,1,0,0:0:0:0:
240,80,45468,1,0,0:0:0:0:
240,80,45556,6,0,L|320:64,1,70
368,161,45733,1,0,0:0:0:0:
368,161,45821,1,0,0:0:0:0:
368,161,45909,2,0,L|399:223,1,70
432,336,46086,1,0,0:0:0:0:
432,336,46174,1,0,0:0:0:0:
432,336,46262,2,0,B|366:336|366:336|371:336,1,70
240,256,46439,2,0,P|245:231|240:176,1,70
128,208,46615,2,0,P|126:269|142:298,1,70
176,336,46792,5,0,0:0:0:0:
256,352,46880,1,0,0:0:0:0:
320,320,46968,1,0,0:0:0:0:
346,249,47056,2,0,P|316:231|272:224,1,70
288,224,47233,2,0,P|260:203|253:170,1,70
256,176,47409,2,0,P|256:128|288:112,1,70
344,95,47586,5,0,0:0:0:0:
421,95,47674,1,0,0:0:0:0:
453,161,47762,1,0,0:0:0:0:
416,224,47851,1,0,0:0:0:0:
343,223,47939,1,0,0:0:0:0:
272,192,48027,6,0,B|240:196|240:196|203:184,1,70
240,112,48203,2,0,B|272:107|272:107|309:120,1,70
250,288,48380,2,0,B|218:292|218:292|181:280,1,70
86,136,48556,2,0,B|118:131|118:131|154:143,1,70
192,352,48733,2,0,B|160:356|160:356|123:344,1,70
59,248,48909,2,0,B|91:243|91:243|127:255,1,70
272,288,49086,2,0,P|306:287|332:264,1,70
367,143,49262,6,0,P|351:95|335:79,1,70
256,64,49439,1,0,0:0:0:0:
208,128,49527,1,0,0:0:0:0:
224,208,49615,1,0,0:0:0:0:
304,240,49703,1,0,0:0:0:0:
390,200,49792,2,0,P|363:172|374:136,1,70
388,99,49968,1,0,0:0:0:0:
388,99,50056,1,0,0:0:0:0:
388,99,50144,6,0,B|291:168|291:168|407:168|407:168|318:101|318:101|352:208|352:208|387:99,1,560
256,96,50585,5,0,0:0:0:0:
256,96,50674,1,0,0:0:0:0:
256,96,50762,2,0,L|319:128,1,70
320,224,50939,1,0,0:0:0:0:
320,224,51026,6,0,B|345:254|345:254|352:287,1,70
215,226,51203,2,0,B|204:186|204:186|183:163,1,70
96,96,51380,1,0,0:0:0:0:
144,192,51468,2,0,B|147:235|147:235|175:254,1,70
224,352,51645,1,0,0:0:0:0:
352,288,51732,6,0,L|343:216,1,70
326,132,51909,2,0,L|295:70,1,70
192,64,52085,6,0,P|157:64|131:87,1,70
70,143,52262,1,0,0:0:0:0:
192,64,52350,2,0,L|142:113,1,70
100,173,52527,1,0,0:0:0:0:
191,64,52615,2,0,P|168:88|165:123,1,70
145,195,52791,1,0,0:0:0:0:
192,64,52879,2,0,L|192:134,1,70
200,208,53056,1,0,0:0:0:0:
192,64,53144,6,0,B|128:64|224:160|336:128|336:128|336:128,1,210
432,160,53409,1,0,0:0:0:0:
432,160,53497,2,0,B|486:220|397:234|397:234|416:288|362:308|362:308,1,183.750007009506
288,352,53762,1,0,0:0:0:0:
288,352,53850,1,0,0:0:0:0:
288,352,53938,2,0,B|256:384|256:384|183:384,1,105.000004005432
96,320,54115,1,0,0:0:0:0:
96,320,54203,1,0,0:0:0:0:
96,320,54291,2,0,L|48:224,1,105.000004005432
32,96,54468,1,0,0:0:0:0:
32,96,54556,6,0,B|32:16|107:-13|114:172|114:172|194:101|194:101|96:102,1,420.000016021729
64,128,54998,1,0,0:0:0:0:
64,128,55086,1,0,0:0:0:0:
64,128,55174,1,0,0:0:0:0:
64,128,55262,1,0,0:0:0:0:
64,128,55351,1,0,0:0:0:0:
64,128,55439,1,0,0:0:0:0:
64,128,55527,1,0,0:0:0:0:
64,128,55615,2,0,B|64:48|64:48|64:192|64:192|64:192|64:192,1,210.000008010865
64,178,55968,6,0,P|53:269|160:274,1,210.000008010865
197,237,56233,1,0,0:0:0:0:
242,177,56321,1,0,0:0:0:0:
288,116,56409,1,0,0:0:0:0:
325,60,56498,2,0,P|370:42|392:85,1,105.000004005432
384,160,56674,1,0,0:0:0:0:
379,235,56762,1,0,0:0:0:0:
368,304,56851,1,0,0:0:0:0:
336,367,56939,6,0,P|287:378|246:348,1,105.000004005432
208,288,57115,1,0,0:0:0:0:
175,218,57203,1,0,0:0:0:0:
140,150,57292,1,0,0:0:0:0:
101,90,57380,2,0,P|51:90|37:137,1,105.000004005432
65,209,57556,1,0,0:0:0:0:
134,250,57645,1,0,0:0:0:0:
218,231,57733,1,0,0:0:0:0:
256,160,57820,1,0,0:0:0:0:
208,96,57909,2,0,P|196:47|233:-3,1,105.000004005432
327,3,58085,2,0,P|378:26|407:83,1,105.000004005432
448,157,58262,5,0,0:0:0:0:
432,240,58351,1,0,0:0:0:0:
384,320,58439,2,0,P|345:353|294:347,1,105.000004005432,0|0,0:1|0:1,0:1:0:0:
251,233,58615,6,0,P|206:211|161:235,1,105.000004005432
161,236,58792,2,0,P|135:190|177:124,1,105.000004005432
149,143,58967,6,0,L|249:111,1,105.000004005432
149,143,59144,2,0,L|71:72,1,105.000004005432
182,87,59320,1,0,0:0:0:0:
182,87,59409,1,0,0:0:0:0:
182,87,59497,5,0,0:0:0:0:
182,87,59586,2,0,L|278:167,1,105.000004005432
425,196,59762,1,0,0:0:0:0:
425,196,59851,2,0,L|315:116,1,105.000004005432
272,80,60027,1,0,0:0:0:0:
272,80,60115,1,0,0:0:0:0:
272,80,60203,2,0,P|224:64|186:98,1,105.000004005432
226,177,60380,1,0,0:0:0:0:
194,243,60468,1,0,0:0:0:0:
112,224,60556,2,0,P|78:261|93:309,1,105.000004005432
168,330,60733,1,0,0:0:0:0:
247,334,60821,1,0,0:0:0:0:
320,304,60909,6,0,L|393:186,1,105.000004005432
325,165,61085,2,0,L|259:273,1,105.000004005432
270,254,61262,6,0,B|272:192|144:208|144:320|270:318|262:378|112:384|48:384|34:296|80:233,1,420
111,198,61615,5,0,0:0:0:0:
151,164,61703,1,0,0:0:0:0:
198,140,61791,1,0,0:0:0:0:
249,128,61879,1,0,0:0:0:0:
298,143,61968,1,0,0:0:0:0:
303,191,62056,1,0,0:0:0:0:
259,214,62144,1,0,0:0:0:0:
213,186,62232,1,0,0:0:0:0:
167,157,62321,1,0,0:0:0:0:
114,144,62409,1,0,0:0:0:0:
53,160,62497,1,0,0:0:0:0:
32,192,62585,6,0,P|51:257|110:292,1,140
110,292,62762,2,0,P|129:226|188:191,1,140
192,196,62938,2,0,P|213:261|272:296,1,140
353,292,63115,2,0,P|412:257|432:192,1,140
352,64,63291,2,0,P|291:32|225:50,1,140
128,144,63467,2,0,P|113:212|147:271,1,140
320,208,63644,6,0,P|254:187|220:127,1,140
220,128,63820,2,0,P|216:195|258:250,1,140,0|0,0:3|0:3,0:3:0:0:
288,288,63997,2,0,P|346:253|368:187,1,140
369,194,64173,6,0,P|347:128|287:95,1,140
288,95,64350,2,0,P|220:87|179:33,1,140
175,33,64526,2,0,P|129:83|61:85,1,140
48,160,64790,1,0,0:0:0:0:
78,225,64878,1,0,0:0:0:0:
128,270,64967,1,0,0:0:0:0:
192,287,65055,1,0,0:0:0:0:
258,275,65143,1,0,0:0:0:0:
319,242,65231,1,0,0:0:0:0:
360,184,65320,1,0,0:0:0:0:
352,117,65408,1,0,0:0:0:0:
317,63,65496,1,0,0:0:0:0:
317,63,65585,1,0,0:0:0:0:
317,63,65673,1,0,0:0:0:0:
317,63,65762,1,0,0:0:0:0:
317,63,65850,1,0,0:0:0:0:
256,192,65938,12,0,66732,0:0:0:0:
96,144,66909,5,14,0:0:0:0:
96,144,67085,6,12,B|145:193|256:144|176:96|176:96|208:192|208:192|240:96|240:96|240:96|240:96|163:144|265:200|333:177,1,560
409,245,67527,5,12,0:0:0:0:
409,245,67615,2,12,B|489:325|489:325|313:293,1,280
256,160,67967,6,12,B|128:112|128:112|232:231,1,280
221,219,68321,1,12,0:0:0:0:
445,271,68497,5,12,0:0:0:0:
446,271,68585,2,12,B|433:139|433:139|374:256|374:256|402:299,1,280
383,270,68850,1,12,0:0:0:0:
368,176,69026,6,12,B|334:109|334:109|288:176,1,140
208,336,69203,1,0,0:0:0:0:
208,336,69291,2,12,B|358:318|182:254|182:254|136:330,1,280
85,341,69556,2,0,B|135:310|135:310|130:245|130:245|175:235|175:235|185:197,1,210
96,240,69820,1,12,0:0:0:0:
96,240,69909,5,12,0:0:0:0:
96,240,69997,2,12,B|72:172|72:172|120:60|120:60|152:172,1,280
192,208,70262,5,0,0:0:0:0:
192,208,70350,1,0,0:0:0:0:
192,208,70438,5,12,0:0:0:0:
192,208,70526,2,12,B|320:224|320:224|256:176|256:176|192:208|192:208|272:304,1,280
352,288,70791,1,8,0:0:0:0:
352,288,70879,2,12,B|351:287|351:287|415:319|415:319|479:271|479:271|351:287,1,280
256,256,71144,1,0,0:0:0:0:
256,256,71232,2,12,L|224:192,1,48.9999985046387
194,128,71497,6,12,B|194:80|114:48|114:48|146:16,1,140
240,32,71673,6,12,B|288:64|288:64|368:-16|368:64,1,140
432,176,71850,2,0,L|384:250,1,62.9999980773926
336,304,72026,2,12,B|305:353|305:353|193:337,1,140
143,247,72203,1,4,0:0:0:0:
112,144,72291,2,0,B|150:76|150:76|202:116,1,140
288,176,72467,5,12,0:0:0:0:
288,176,72556,2,0,B|338:283|338:283|376:184|376:184|285:243|285:243|392:247|392:247|280:163,1,560,12|12,0:0|0:0,0:0:0:0:
352,240,72997,5,0,0:0:0:0:
352,240,73085,1,12,0:0:0:0:
352,240,73173,1,12,0:0:0:0:
352,240,73262,2,0,B|327:300|327:300|397:258|397:258|397:342|397:342|327:370,1,280,12|0,0:0|0:0,0:0:0:0:
240,352,73526,1,12,0:0:0:0:
240,352,73615,2,0,B|137:455|191:17|117:451|21:309,1,280,12|0,0:0|0:0,0:0:0:0:
80,144,73879,1,12,0:0:0:0:
80,144,73967,2,0,B|173:180|173:180|180:121|180:121|102:45|203:22|246:69,1,280
384,80,74232,1,12,0:0:0:0:
384,80,74320,2,0,B|326:122|326:122|369:223|369:223|255:180|255:180,1,280,12|0,0:0|0:0,0:0:0:0:
176,176,74585,1,12,0:0:0:0:
176,176,74673,2,0,B|185:262|18:272|18:272|100:400|220:282,1,420,12|0,0:0|0:0,0:0:0:0:
304,160,75026,6,0,B|336:128|336:128|432:112,1,105.000004005432,12|0,0:0|0:0,0:0:0:0:
416,224,75203,2,0,B|368:256|368:256|304:256,1,105.000004005432,0|12,0:0|0:0,0:0:0:0:
226,119,75379,2,0,B|210:119|166:121|166:121|128:96,1,105.000004005432,0|12,0:0|0:0,0:0:0:0:
80,192,75556,2,0,B|133:213|133:213|178:199,1,105.000004005432,0|12,0:0|0:0,0:0:0:0:
88,361,75733,2,0,B|113:344|113:344|109:326|109:326|139:327|139:327|166:284|166:284|156:296|156:296|183:297|190:294|190:294|183:283|183:283|216:277|216:277|229:269|229:269,1,210.000008010865,12|0,0:0|0:0,0:0:0:0:
288,272,75997,5,0,0:0:0:0:
288,272,76085,1,12,0:0:0:0:
288,272,76173,2,0,L|416:272,1,105.000004005432,12|0,0:0|0:0,0:0:0:0:
351,115,76350,5,0,0:0:0:0:
351,115,76438,1,12,0:0:0:0:
351,115,76526,2,0,L|238:184,1,105.000004005432
160,224,76703,1,0,0:0:0:0:
160,224,76791,2,12,L|272:160,1,105.000004005432,0|0,0:0|0:0,0:0:0:0:
262,171,76967,5,0,0:0:0:0:
262,171,77056,2,0,B|247:124|247:124|292:269|292:269|238:92,1,385
158,159,78203,5,0,0:0:0:0:
158,159,78556,6,2,P|191:148|202:148,1,35
291,208,78732,2,0,L|256:208,1,35
176,240,78909,2,0,B|192:302|192:302|224:291|224:291|172:309|172:309|198:300,1,175
224,176,79791,6,0,P|235:143|240:108,3,70
224,176,80673,5,0,0:0:0:0:
224,176,81026,2,0,B|266:147|266:147|309:204|309:204|266:247,1,168
273,241,81379,2,0,P|300:285|351:272,1,112
352,272,81732,2,0,P|400:272|416:336,1,112
416,320,82085,2,0,B|368:240|368:240|432:208|384:128,1,224
384,128,82526,2,0,L|320:96,1,56
333,102,82703,2,0,L|272:128,1,56
281,123,82879,2,0,B|263:175|263:175|228:215,1,105
230,213,83144,2,0,P|157:184|262:85,1,287
96,320,83850,5,0,0:0:0:0:
96,320,84026,6,0,P|134:300|153:310,1,56
143,303,84203,2,0,P|195:287|238:319,1,112
238,319,84467,2,0,L|302:271,1,56
288,288,84644,2,0,B|298:255|298:255|340:242,1,56
384,272,84820,2,0,B|374:310|374:310|353:319,1,56
176,208,85438,2,0,L|128:176,1,56
192,112,85615,2,0,L|238:143,1,56
176,208,85791,2,0,L|222:239,1,56
192,112,85968,2,0,L|144:80,1,56
48,128,86320,5,12,0:0:0:0:
341,330,86673,6,0,B|384:274|384:274|361:305|361:305|337:284|337:284|397:334,1,210
448,160,87115,6,0,P|416:128|384:112,1,56
288,240,87291,2,0,P|310:223|328:202,1,56
272,48,87467,2,0,P|240:80|208:96,1,56
86,138,87643,2,0,P|118:170|150:186,1,56
192,112,88085,2,0,L|128:176,2,91
192,112,88438,2,0,B|272:112|272:112|224:176|224:176|291:174,1,224
399,225,88967,6,0,L|351:257,1,56
64,304,89143,2,0,L|112:240,1,56
248,337,89320,2,0,L|184:289,1,56
80,80,89497,2,0,L|112:128,1,48.9999985046387
272,96,89673,2,0,L|256:142,1,48.9999985046387
96,192,89850,6,2,P|128:181|161:192,1,48.9999985046387
272,240,90026,2,0,L|224:240,1,48.9999985046387
144,256,90203,2,0,B|166:323|224:304|224:304|128:336,1,195.999994018555
240,176,91085,2,0,P|251:143|256:64,3,97.9999970092774
240,176,91967,1,0,0:0:0:0:
160,336,92673,6,0,L|202:292,1,48.9999985046387
218,195,92850,2,0,P|238:169|270:177,1,48.9999985046387
352,304,93026,2,0,L|224:240,1,97.9999970092774
480,128,93732,6,0,P|434:96|425:86,2,48.9999985046387
400,320,93997,2,0,L|352:272,1,48.9999985046387
368,176,94173,2,0,L|432:240,1,48.9999985046387
304,256,94350,2,0,P|231:227|352:128,1,293.999991027832
256,144,95498,2,0,P|308:128|351:160,1,112
351,160,95762,2,0,L|415:112,1,56
396,126,95939,2,0,B|406:93|406:93|448:80,1,56
480,128,96115,2,0,B|448:176,1,55.1249983177186
304,352,96557,1,0,0:0:0:0:
181,206,96732,6,0,L|136:177,1,48.9999985046387
192,112,96910,2,0,L|235:140,1,48.9999985046387
176,208,97086,2,0,L|219:236,1,48.9999985046387
196,117,97263,2,0,L|151:87,1,48.9999985046387
48,128,97615,1,0,0:0:0:0:
192,192,97968,6,0,B|244:126|244:126|215:156|215:156|185:133|185:133|272:198,1,244.999992523194
176,16,98409,2,0,L|192:80,1,52.5000020027161
240,208,98585,2,0,L|288:160,1,52.5000020027161
48,160,98762,2,0,L|85:197,1,52.5000020027161
240,208,98938,2,0,L|288:160,1,52.5000020027161
427,205,99379,6,0,P|416:272|432:304,2,105.000004005432
432,208,99820,6,0,P|428:167|416:144,2,52.5000020027161
288,144,100085,5,0,0:0:0:0:
288,144,100173,1,2,0:0:0:0:
288,144,100262,2,10,L|240:176,1,56
80,288,100438,2,10,L|128:224,1,56
272,320,100615,2,10,L|208:272,1,56
192,96,100791,2,10,L|236:62,1,56
113,140,100967,2,10,L|79:95,1,56
241,208,101144,2,2,L|287:239,1,56,14|10,0:0|0:0,0:0:0:0:
384,304,101320,1,6,0:0:0:0:
349,207,106438,6,0,P|317:192|275:133,1,105.000004005432
336,96,106703,6,0,P|372:96|396:193,1,132.999996448517
272,336,107056,2,0,L|224:288,1,66.4999982242585
320,256,107320,2,0,L|368:208,1,66.4999982242585
304,160,107585,2,0,L|256:207,1,66.4999982242585
256,207,107850,2,0,P|173:151|144:160,1,132.999996448517
160,224,108203,6,0,L|208:272,1,52.5000020027161
64,176,108379,2,0,L|80:240,1,66.4999982242585
192,112,108556,2,0,L|256:64,1,52.5000020027161
162,219,108732,2,0,P|200:219|237:197,1,52.5000020027161
192,112,108909,2,0,P|153:112|116:133,1,52.5000020027161
161,218,109085,2,0,P|194:219|224:207,1,52.5000020027161
368,144,109262,2,0,L|304:96,1,52.5000020027161
224,208,109438,2,0,L|272:240,1,52.5000020027161
64,112,109614,5,14,0:0:0:0:
320,112,109790,1,14,0:0:0:0:
240,64,109967,1,14,0:0:0:0:
112,288,110143,1,14,0:0:0:0:
176,224,110320,1,14,0:0:0:0:
272,224,110496,1,14,0:3:0:0:
352,288,110673,1,14,0:3:0:0:
448,80,110850,1,14,0:0:0:0:
208,304,111026,1,14,0:0:0:0:
256,192,112438,12,0,114909,0:0:0:0:
338,209,116144,6,0,P|291:255|228:271,1,132.999996448517
338,210,116673,6,0,P|346:176|371:152,1,66.4999982242585
416,96,117026,6,0,L|480:112,1,66.4999982242585
384,16,117379,2,0,L|278:33,1,105
324,138,117732,2,0,L|224:96,1,105
188,82,118086,1,0,0:0:0:0:
154,75,118174,1,0,0:0:0:0:
160,128,118262,5,0,0:0:0:0:
135,152,118350,1,0,0:0:0:0:
110,176,118438,1,0,0:0:0:0:
85,200,118526,1,0,0:0:0:0:
59,224,118615,1,0,0:0:0:0:
183,178,118703,5,0,0:0:0:0:
207,203,118791,1,0,0:0:0:0:
231,228,118879,1,0,0:0:0:0:
255,253,118967,1,0,0:0:0:0:
280,279,119056,1,0,0:0:0:0:
288,224,119144,5,0,0:0:0:0:
314,200,119232,1,0,0:0:0:0:
339,176,119320,1,0,0:0:0:0:
365,153,119409,1,0,0:0:0:0:
391,128,119497,1,0,0:0:0:0:
320,128,119585,5,0,0:0:0:0:
291,108,119673,1,0,0:0:0:0:
262,90,119761,1,0,0:0:0:0:
230,67,119849,1,0,0:0:0:0:
202,51,119937,1,0,0:0:0:0:
160,48,120026,5,0,0:0:0:0:
160,48,120114,1,0,0:0:0:0:
160,48,120203,1,0,0:0:0:0:
160,48,120291,1,0,0:0:0:0:
160,48,120379,2,0,L|181:74,1,33.2499991121292
64,96,120556,2,0,L|96:112,1,35
64,208,120732,2,0,L|96:192,1,35
144,288,120909,2,0,L|158:255,1,35
224,176,121085,5,0,0:0:0:0:
224,176,121173,1,0,0:0:0:0:
224,176,121261,1,0,0:0:0:0:
224,176,121350,1,0,0:0:0:0:
224,176,121438,1,0,0:0:0:0:
224,176,121526,1,0,0:0:0:0:
224,176,121614,1,0,0:0:0:0:
224,176,121703,1,0,0:0:0:0:
240,160,121791,1,0,0:0:0:0:
273,148,121879,5,0,0:0:0:0:
308,148,121967,1,0,0:0:0:0:
340,162,122055,1,0,0:0:0:0:
365,186,122143,1,0,0:0:0:0:
379,218,122232,1,0,0:0:0:0:
381,253,122320,1,0,0:0:0:0:
416,96,122673,5,0,0:0:0:0:
416,96,123026,6,0,P|343:63|258:152,1,210
256,160,123379,6,0,B|269:118|281:93|281:93|256:160|256:160|263:125|263:125|283:93,1,210
256,160,123732,6,0,P|238:223|272:288,1,140
384,320,123997,2,0,P|415:304|433:274,1,70
432,139,124173,1,0,0:0:0:0:
432,139,124261,2,0,P|411:112|378:104,1,70
260,91,124438,1,0,0:0:0:0:
260,91,124526,1,0,0:0:0:0:
260,91,124614,6,0,L|180:75,1,70
144,161,124791,1,0,0:0:0:0:
144,161,124879,1,0,0:0:0:0:
144,161,124967,2,0,L|113:223,1,70
80,336,125144,1,0,0:0:0:0:
80,336,125232,1,0,0:0:0:0:
80,336,125320,2,0,B|146:336|146:336|141:336,1,70
272,320,125497,2,0,P|267:295|272:240,1,70
400,240,125673,2,0,L|336:288,1,70
208,208,125850,2,0,L|272:160,1,70
400,240,126026,6,0,P|391:300|370:326,1,70
400,144,126203,6,0,L|343:150,1,52.5000020027161
256,192,126379,12,0,128320,0:0:0:0:
