osu file format v14

[General]
AudioFilename: audio.mp3
AudioLeadIn: 0
PreviewTime: 138434
Countdown: 0
SampleSet: None
StackLeniency: 0.7
Mode: 0
LetterboxInBreaks: 0
WidescreenStoryboard: 0

[Editor]
Bookmarks: 93346,98993,104640
DistanceSpacing: 0.9
BeatDivisor: 4
GridSize: 4
TimelineZoom: 1.8

[Metadata]
Title:Doggy Tails
TitleUnicode:Doggy Tails
Artist:Getty
ArtistUnicode:Getty
Creator:eeezzzeee
Version:Extra
Source:
Tags:eze
BeatmapID:1761038
BeatmapSetID:841522

[Difficulty]
HPDrainRate:6
CircleSize:4
OverallDifficulty:8.5
ApproachRate:9.3
SliderMultiplier:1.8
SliderTickRate:1

[Events]
//Background and Video events
//Break Periods
2,99193,104086
//Storyboard Layer 0 (Background)
//Storyboard Layer 1 (Fail)
//Storyboard Layer 2 (Pass)
//Storyboard Layer 3 (Foreground)
//Storyboard Sound Samples

[TimingPoints]
170,352.941176470588,4,2,0,70,1,0
170,-111.111111111111,4,2,0,70,0,0
5464,-76.9230769230769,4,2,0,70,0,0
5817,-111.111111111111,4,2,0,70,0,0
11111,-133.333333333333,4,2,0,70,0,0
11464,-100,4,2,0,70,0,0
12875,-90.9090909090909,4,2,0,70,0,0
14287,-83.3333333333333,4,2,0,70,0,0
15699,-76.9230769230769,4,2,0,70,0,0
17111,-71.4285714285714,4,2,0,70,0,0
25581,-125,4,2,0,70,0,0
36875,-111.111111111111,4,2,0,70,0,0
42522,-100,4,2,0,70,0,0
45346,-71.4285714285714,4,2,0,70,0,0
46758,-100,4,2,0,70,0,0
47464,-83.3333333333333,4,2,0,70,0,0
48169,-83.3333333333333,4,2,0,70,0,0
52405,-66.6666666666667,4,2,0,70,0,0
53817,-83.3333333333333,4,2,0,70,0,0
59111,-125,4,2,0,70,0,0
59464,-83.3333333333333,4,2,0,70,0,0
63699,-66.6666666666667,4,2,0,70,0,0
64758,-83.3333333333333,4,2,0,70,0,0
64934,-111.111111111111,4,2,0,70,0,0
65111,-133.333333333333,4,2,0,70,0,0
66522,-111.111111111111,4,2,0,70,0,0
67934,-83.3333333333333,4,2,0,70,0,0
70052,-111.111111111111,4,2,0,70,0,0
70405,-83.3333333333333,4,2,0,70,0,0
70758,-62.5,4,2,0,70,0,0
71287,-76.9230769230769,4,2,0,70,0,0
73581,-62.5,4,2,0,70,0,0
74111,-76.9230769230769,4,2,0,70,0,0
76405,-62.5,4,2,0,70,0,0
76934,-76.9230769230769,4,2,0,70,0,0
82052,-62.5,4,2,0,70,0,0
82581,-76.9230769230769,4,2,0,70,0,0
84875,-62.5,4,2,0,70,0,0
85405,-76.9230769230769,4,2,0,70,0,0
87699,-62.5,4,2,0,70,0,0
88228,-76.9230769230769,4,2,0,70,0,0
92993,-133.333333333333,4,2,0,70,0,0
104640,-166.666666666667,4,2,0,70,0,0
113111,-166.666666666667,4,2,0,70,0,0
113464,-133.333333333333,4,2,0,70,0,0
113817,-111.111111111111,4,2,0,70,0,0
114169,-90.9090909090909,4,2,0,70,0,0
115934,-111.111111111111,4,2,0,70,0,0

[HitObjects]
72,129,170,6,0,P|123:162|203:130,1,121.499996292114
179,151,522,2,0,L|199:242,1,80.9999975280763
352,220,875,2,0,L|330:371,1,121.499996292114
301,157,1228,2,0,P|347:139|394:150,1,80.9999975280763
445,311,1581,6,0,P|393:342|302:322,1,121.499996292114
296,312,1934,1,0,0:0:0:0:
364,229,2111,1,0,0:0:0:0:
213,244,2287,2,0,L|72:232,1,121.499996292114
64,196,2640,1,0,0:0:0:0:
96,349,2817,1,0,0:0:0:0:
213,244,2993,6,0,P|216:172|200:100,1,121.499996292114
207,123,3346,2,0,L|104:88,1,80.9999975280763
296,36,3699,2,0,L|410:75,1,121.499996292114
481,133,4052,2,0,P|498:97|499:56,1,80.9999975280763
332,180,4405,6,0,P|327:240|349:296,1,121.499996292114
388,320,4758,1,0,0:0:0:0:
252,340,4934,1,0,0:0:0:0:
425,225,5111,1,0,0:0:0:0:
252,150,5287,1,0,0:0:0:0:
252,150,5375,1,0,0:0:0:0:
252,150,5464,6,0,L|180:164,1,58.4999973220826
60,260,5640,2,0,L|132:274,1,58.4999973220826
252,340,5817,6,0,B|272:320|272:320|376:320,1,121.499996292114
446,348,6169,2,0,P|450:309|435:271,1,80.9999975280763
320,160,6522,2,0,P|313:100|336:44,1,121.499996292114
436,172,6875,2,0,L|355:182,1,80.9999975280763
204,100,7228,6,0,L|82:115,1,121.499996292114
56,144,7581,1,0,0:0:0:0:
152,20,7758,1,0,0:0:0:0:
180,240,7934,2,0,B|208:260|208:260|320:248,1,121.499996292114
324,216,8287,1,0,0:0:0:0:
392,340,8464,1,0,0:0:0:0:
448,148,8640,6,0,P|420:96|347:82,1,121.499996292114
296,128,8993,2,0,L|196:116,1,80.9999975280763
56,172,9346,2,0,B|46:85|46:85|66:57,1,121.499996292114
125,224,9699,2,0,P|77:256|25:256,1,80.9999975280763
136,139,10052,5,0,0:0:0:0:
236,272,10317,1,0,0:0:0:0:
236,272,10405,1,0,0:0:0:0:
252,155,10581,1,0,0:0:0:0:
352,288,10758,5,0,0:0:0:0:
376,284,10846,1,0,0:0:0:0:
400,280,10934,1,0,0:0:0:0:
424,276,11022,1,0,0:0:0:0:
448,272,11111,6,0,B|460:244|460:244|448:212|448:212|452:164,1,101.250003862381
416,51,11464,6,0,L|417:6,3,45
328,83,11817,6,0,L|297:49,1,45
228,115,11993,2,0,L|183:114,1,45
77,144,12169,5,0,0:0:0:0:
67,176,12257,1,0,0:0:0:0:
66,210,12345,1,0,0:0:0:0:
74,243,12433,1,0,0:0:0:0:
104,276,12522,5,0,0:0:0:0:
104,276,12875,6,0,L|176:272,3,49.5000015106202
229,339,13228,6,0,L|301:335,1,49.5000015106202
346,263,13405,2,0,L|395:260,1,49.5000015106202
485,196,13581,5,0,0:0:0:0:
493,159,13669,1,0,0:0:0:0:
489,122,13757,1,0,0:0:0:0:
473,87,13845,1,0,0:0:0:0:
436,48,13933,5,0,0:0:0:0:
436,48,14287,6,0,L|424:112,3,53.9999983520508
296,120,14640,6,0,L|314:170,1,53.9999983520508
210,252,14817,2,0,L|250:287,1,53.9999983520508
55,272,14993,5,0,0:0:0:0:
41,233,15081,1,0,0:0:0:0:
35,193,15169,1,0,0:0:0:0:
38,153,15257,1,0,0:0:0:0:
54,91,15345,5,0,0:0:0:0:
54,91,15699,6,0,L|142:71,3,58.4999973220826
274,34,16052,6,0,L|216:21,1,58.4999973220826
338,138,16228,2,0,L|395:125,1,58.4999973220826
215,141,16405,5,0,0:0:0:0:
215,141,16493,2,0,L|219:268,1,116.999994644165
252,340,16758,1,0,0:0:0:0:
99,125,17111,5,0,0:0:0:0:
99,125,17199,2,0,P|67:137|35:165,1,62.9999980773926
27,261,17375,1,0,0:0:0:0:
27,261,17463,2,0,P|53:282|93:296,1,62.9999980773926
181,256,17640,2,0,P|186:222|178:180,1,62.9999980773926
333,112,17817,5,0,0:0:0:0:
333,112,17905,2,0,P|320:80|293:48,1,62.9999980773926
299,229,18081,1,0,0:0:0:0:
299,229,18169,2,0,P|332:234|374:226,1,62.9999980773926
215,141,18346,2,0,P|193:167|179:207,1,62.9999980773926
280,336,18522,5,0,0:0:0:0:
280,336,18611,2,0,L|355:364,1,62.9999980773926
420,207,18787,1,0,0:0:0:0:
420,207,18876,2,0,L|344:235,1,62.9999980773926
280,78,19052,2,0,L|355:106,1,62.9999980773926
128,232,19228,5,0,0:0:0:0:
128,232,19317,2,0,L|120:92,1,125.999996154785
168,28,19581,1,0,0:0:0:0:
8,156,19758,1,0,0:0:0:0:
8,156,19846,1,0,0:0:0:0:
8,156,19934,6,0,L|80:168,1,62.9999980773926
200,324,20111,1,0,0:0:0:0:
200,324,20199,1,0,0:0:0:0:
200,324,20287,6,0,L|212:252,1,62.9999980773926
368,132,20464,1,0,0:0:0:0:
368,132,20552,1,0,0:0:0:0:
368,132,20640,6,0,L|296:120,1,62.9999980773926
432,332,20817,1,0,0:0:0:0:
432,332,20905,1,0,0:0:0:0:
432,332,20993,6,0,L|482:324,6,31.4999990386963
320,364,21346,5,0,0:0:0:0:
293,322,21434,1,0,0:0:0:0:
286,274,21522,1,0,0:0:0:0:
300,227,21610,1,0,0:0:0:0:
340,196,21699,5,0,0:0:0:0:
347,147,21787,1,0,0:0:0:0:
326,101,21875,1,0,0:0:0:0:
283,75,21963,1,0,0:0:0:0:
233,78,22052,5,0,0:0:0:0:
192,106,22140,1,0,0:0:0:0:
143,112,22228,1,0,0:0:0:0:
96,94,22316,1,0,0:0:0:0:
74,49,22404,5,0,0:0:0:0:
256,196,22758,5,0,0:0:0:0:
256,192,22846,12,0,24875,0:0:0:0:
44,108,25581,6,0,P|88:68|160:78,1,108
208,104,25934,2,0,L|292:100,1,72
420,164,26287,1,0,0:0:0:0:
396,64,26464,1,0,0:0:0:0:
255,200,26640,1,0,0:0:0:0:
279,100,26817,1,0,0:0:0:0:
279,100,27169,6,0,L|208:104,1,72
124,48,27522,1,0,0:0:0:0:
40,165,27699,2,0,P|32:121|36:81,1,72
202,205,28052,2,0,P|202:240|195:276,1,72
120,316,28405,6,0,P|169:302|239:319,1,108
296,356,28758,2,0,L|367:352,1,72
500,208,29111,1,0,0:0:0:0:
476,308,29288,1,0,0:0:0:0:
343,251,29464,1,0,0:0:0:0:
367,351,29641,1,0,0:0:0:0:
319,151,29817,6,0,L|328:100,1,36
319,151,29993,6,0,L|248:147,1,72
147,114,30346,1,0,0:0:0:0:
147,114,30522,2,0,P|147:182|159:202,1,72
48,80,30875,1,0,0:0:0:0:
64,244,31052,1,0,0:0:0:0:
251,114,31228,6,0,B|199:99|199:99|146:113,1,108
327,151,31581,2,0,P|334:116|327:81,1,72
255,236,31934,1,0,0:0:0:0:
355,260,32111,1,0,0:0:0:0:
227,105,32287,1,0,0:0:0:0:
327,81,32464,1,0,0:0:0:0:
327,81,32817,6,0,P|334:116|327:151,1,72
440,36,33169,1,0,0:0:0:0:
464,210,33346,2,0,L|393:208,1,72
179,116,33699,2,0,L|250:113,1,72
337,283,34052,6,0,B|284:269|284:269|232:284,1,108
156,250,34405,2,0,P|149:285|156:321,1,72
283,165,34758,1,0,0:0:0:0:
183,141,34935,1,0,0:0:0:0:
255,296,35111,1,0,0:0:0:0:
155,320,35288,1,0,0:0:0:0:
355,272,35464,6,0,L|396:296,1,36
386,290,35640,6,0,P|392:254|385:219,1,72
296,156,35993,1,0,0:0:0:0:
412,72,36169,1,0,0:0:0:0:
472,204,36346,1,0,0:0:0:0:
220,100,36522,6,0,P|216:180|240:228,1,108
272,288,36875,6,0,L|136:301,1,121.499996292114
151,299,37228,1,0,0:0:0:0:
340,352,37405,1,0,0:0:0:0:
168,324,37581,1,0,0:0:0:0:
256,192,37758,1,0,0:0:0:0:
424,308,37934,2,0,P|440:256|434:207,1,80.9999975280763
392,64,38287,5,0,0:0:0:0:
392,64,38464,2,0,L|472:71,1,80.9999975280763
288,188,38817,1,0,0:0:0:0:
252,52,38993,1,0,0:0:0:0:
304,196,39169,1,0,0:0:0:0:
136,164,39346,1,0,0:0:0:0:
336,92,39522,1,0,0:0:0:0:
192,244,39699,6,0,L|203:364,1,121.499996292114
203,364,40052,1,0,0:0:0:0:
272,180,40228,1,0,0:0:0:0:
224,352,40405,1,0,0:0:0:0:
136,164,40581,1,0,0:0:0:0:
32,328,40758,2,0,P|80:335|118:322,1,80.9999975280763
272,180,41111,6,0,L|232:172,1,40.4999987640381
340,244,41287,6,0,L|444:226,1,80.9999975280763
456,96,41640,1,0,0:0:0:0:
340,244,41817,1,0,0:0:0:0:
304,84,41993,1,0,0:0:0:0:
396,324,42169,1,0,0:0:0:0:
192,208,42346,1,0,0:0:0:0:
420,72,42522,6,0,P|344:60|312:68,1,90
104,198,42875,2,0,P|180:210|212:202,1,90
368,148,43228,5,0,0:0:0:0:
396,324,43405,1,0,0:0:0:0:
224,184,43581,5,0,0:0:0:0:
144,372,43758,1,0,0:0:0:0:
28,156,43934,6,0,P|24:100|36:52,1,90
323,143,44287,2,0,P|327:187|320:231,1,90
64,336,44640,5,0,0:0:0:0:
276,316,44817,1,0,0:0:0:0:
112,196,44993,5,0,0:0:0:0:
404,275,45169,1,0,0:0:0:0:
356,40,45346,5,0,0:0:0:0:
320,231,45522,1,0,0:0:0:0:
180,32,45699,1,0,0:0:0:0:
448,120,45875,1,0,0:0:0:0:
112,196,46052,1,0,0:0:0:0:
315,114,46228,1,0,0:0:0:0:
315,114,46317,1,0,0:0:0:0:
315,114,46405,6,0,L|308:188,1,62.9999980773926
148,340,46581,2,0,L|153:277,1,62.9999980773926
404,232,46758,5,0,0:0:0:0:
292,324,46934,5,0,0:0:0:0:
292,324,47022,2,0,L|244:320,1,45
148,340,47199,5,0,0:0:0:0:
128,336,47287,1,0,0:0:0:0:
108,332,47375,1,0,0:0:0:0:
64,312,47464,6,0,P|52:280|56:239,1,53.9999983520508
196,44,47640,2,0,P|208:76|204:117,1,53.9999983520508
76,172,47817,5,0,0:0:0:0:
76,172,48169,6,0,L|145:159,1,53.9999983520508
288,244,48346,2,0,B|251:258|251:258|183:246,1,107.999996704102
380,112,48699,1,0,0:0:0:0:
464,280,48875,2,0,L|472:168,1,107.999996704102
388,328,49228,1,0,0:0:0:0:
300,216,49405,1,0,0:0:0:0:
104,340,49581,6,0,L|35:327,1,53.9999983520508
184,204,49758,2,0,B|198:241|198:241|186:309,1,107.999996704102
16,192,50111,1,0,0:0:0:0:
220,120,50287,6,0,L|280:112,1,53.9999983520508
376,168,50464,2,0,L|423:131,1,53.9999983520508
440,48,50640,1,0,0:0:0:0:
488,236,50817,1,0,0:0:0:0:
299,284,50993,6,0,L|239:276,1,53.9999983520508
96,172,51169,2,0,B|82:209|82:209|94:277,1,107.999996704102
199,198,51522,2,0,P|197:137|168:94,1,107.999996704102
67,69,51875,1,0,0:0:0:0:
245,276,52052,2,0,L|352:271,1,107.999996704102
456,68,52405,6,0,B|444:116|444:116|456:156|456:156|444:204,1,135.000005149842
251,183,52758,2,0,B|274:140|327:137|327:137|364:157,1,135.000005149842
348,274,53111,2,0,B|299:266|299:266|260:281|260:281|211:273,1,135.000005149842
16,160,53464,6,0,P|12:188|20:232,1,67.5000025749208
144,152,53640,2,0,P|149:118|145:85,1,67.5000025749208
60,24,53817,1,0,0:0:0:0:
60,24,53993,6,0,P|132:64|224:32,1,161.999995056153
376,23,54346,2,0,P|384:49|386:76,1,53.9999983520508
340,160,54522,5,0,0:0:0:0:
220,32,54699,1,0,0:0:0:0:
452,148,54875,1,0,0:0:0:0:
212,192,55052,1,0,0:0:0:0:
440,312,55228,1,0,0:0:0:0:
440,312,55405,6,0,P|364:264|288:304,1,161.999995056153
176,336,55758,2,0,P|168:310|166:283,1,53.9999983520508
212,192,55934,5,0,0:0:0:0:
361,354,56111,1,0,0:0:0:0:
340,160,56287,1,0,0:0:0:0:
200,348,56464,1,0,0:0:0:0:
140,116,56640,1,0,0:0:0:0:
140,116,56817,6,0,P|96:176|32:112,1,161.999995056153
123,64,57169,2,0,P|135:89|139:115,1,53.9999983520508
72,256,57346,5,0,0:0:0:0:
272,168,57522,1,0,0:0:0:0:
60,280,57699,1,0,0:0:0:0:
312,320,57875,1,0,0:0:0:0:
352,68,58052,5,0,0:0:0:0:
240,260,58228,1,0,0:0:0:0:
184,80,58405,5,0,0:0:0:0:
328,296,58581,1,0,0:0:0:0:
344,44,58758,5,0,0:0:0:0:
144,272,58934,1,0,0:0:0:0:
459,314,59111,2,0,P|480:273|464:200,1,108
452,208,59464,6,0,B|430:168|430:168|441:81,1,107.999996704102
480,32,59728,1,0,0:0:0:0:
480,32,59817,1,0,0:0:0:0:
264,64,59993,1,0,0:0:0:0:
374,253,60169,6,0,L|298:245,1,53.9999983520508
224,200,60346,1,0,0:0:0:0:
191,203,60434,1,0,0:0:0:0:
159,206,60522,1,0,0:0:0:0:
264,64,60699,1,0,0:0:0:0:
60,176,60875,6,0,B|52:114|52:114|74:74,1,107.999996704102
144,24,61140,1,0,0:0:0:0:
144,24,61229,1,0,0:0:0:0:
224,200,61405,2,0,L|218:253,1,53.9999983520508
317,219,61581,2,0,L|308:112,1,107.999996704102
396,276,61846,1,0,0:0:0:0:
396,276,61934,1,0,0:0:0:0:
496,152,62111,1,0,0:0:0:0:
356,48,62287,6,0,B|316:69|316:69|254:62,1,107.999996704102
184,112,62552,1,0,0:0:0:0:
184,112,62640,1,0,0:0:0:0:
64,8,62817,1,0,0:0:0:0:
34,164,62993,6,0,L|94:171,1,53.9999983520508
256,260,63169,1,0,0:0:0:0:
256,260,63258,1,0,0:0:0:0:
256,260,63346,2,0,L|196:267,1,53.9999983520508
48,324,63522,2,0,L|56:264,1,53.9999983520508
204,64,63699,6,0,B|216:176|216:176|252:144,1,135.000005149842
357,63,63964,1,0,0:0:0:0:
381,38,64052,2,0,B|395:21|395:21|283:9,1,135.000005149842
107,130,64317,1,0,0:0:0:0:
131,155,64405,2,0,B|120:174|120:174|232:161,1,135.000005149842
460,96,64758,6,0,L|456:156,1,53.9999983520508
376,212,64934,2,0,L|380:272,1,40.4999987640381
420,336,65111,6,0,L|472:340,7,33.7500012874604
304,268,65817,6,0,L|270:270,1,33.7500012874604
162,326,65993,2,0,L|195:323,1,33.7500012874604
314,258,66169,6,0,L|271:261,1,33.7500012874604
152,336,66345,2,0,L|194:332,1,33.7500012874604
56,260,66522,5,0,0:0:0:0:
48,228,66611,1,0,0:0:0:0:
47,195,66699,1,0,0:0:0:0:
54,163,66787,1,0,0:0:0:0:
73,137,66875,1,0,0:0:0:0:
97,115,66964,1,0,0:0:0:0:
102,83,67052,1,0,0:0:0:0:
91,52,67140,1,0,0:0:0:0:
62,36,67228,6,0,L|51:94,1,40.4999987640381
188,80,67405,2,0,L|199:138,1,40.4999987640381
24,96,67581,6,0,L|13:154,1,40.4999987640381
226,140,67758,2,0,L|237:198,1,40.4999987640381
104,320,67934,6,0,L|94:374,1,53.9999983520508
312,308,68111,1,0,0:0:0:0:
332,292,68199,1,0,0:0:0:0:
344,268,68287,6,0,L|333:215,1,53.9999983520508
150,52,68464,1,0,0:0:0:0:
132,87,68552,1,0,0:0:0:0:
141,125,68640,6,0,L|194:119,1,53.9999983520508
473,182,68817,1,0,0:0:0:0:
481,133,68905,1,0,0:0:0:0:
450,94,68993,6,0,L|396:99,1,53.9999983520508
196,240,69169,2,0,L|249:234,1,53.9999983520508
456,348,69346,5,0,0:0:0:0:
316,160,69522,1,0,0:0:0:0:
316,160,69611,1,0,0:0:0:0:
459,211,69787,1,0,0:0:0:0:
459,211,69875,1,0,0:0:0:0:
196,240,70052,6,0,B|148:258|108:231|108:231|86:261,1,121.499996292114
68,128,70405,6,0,L|72:60,1,53.9999983520508
156,108,70581,2,0,L|159:161,1,53.9999983520508
360,220,70758,6,0,B|399:208|399:208|419:214|419:214|438:205|438:205|459:211|459:211|505:135|488:84|420:90|413:139,1,288
253,59,71287,6,0,P|244:124|272:174,1,116.999994644165
408,32,71640,1,0,0:0:0:0:
360,220,71817,1,0,0:0:0:0:
149,164,71993,2,0,L|265:167,1,116.999994644165
56,24,72346,5,0,0:0:0:0:
70,217,72523,1,0,0:0:0:0:
336,104,72699,1,0,0:0:0:0:
268,283,72875,6,0,L|265:167,1,116.999994644165
132,80,73228,1,0,0:0:0:0:
460,112,73405,1,0,0:0:0:0:
473,85,73493,1,0,0:0:0:0:
457,51,73581,6,0,B|418:35|394:72|400:134|436:152|436:152|464:142|464:142|507:199|463:242,1,288
408,364,74111,6,0,P|350:367|298:340,1,116.999994644165
212,200,74464,2,0,P|205:231|210:268,1,58.4999973220826
312,165,74640,2,0,P|318:196|313:233,1,58.4999973220826
192,96,74817,2,0,L|60:108,1,116.999994644165
392,28,75169,5,0,0:0:0:0:
316,222,75346,1,0,0:0:0:0:
144,12,75522,1,0,0:0:0:0:
316,222,75699,6,0,P|318:193|312:165,1,58.4999973220826
212,200,75875,2,0,P|210:229|216:257,1,58.4999973220826
384,308,76052,1,0,0:0:0:0:
76,364,76228,1,0,0:0:0:0:
40,352,76317,1,0,0:0:0:0:
14,315,76405,6,0,B|20:283|55:250|55:250|104:283|104:283|78:327|87:356|87:356|119:366|163:354,1,288
317,221,76934,6,0,B|284:192|237:186|237:186|212:200,1,116.999994644165
88,88,77287,1,0,0:0:0:0:
228,291,77464,1,0,0:0:0:0:
288,52,77640,1,0,0:0:0:0:
228,291,77817,5,0,0:0:0:0:
88,88,77993,1,0,0:0:0:0:
228,291,78170,1,0,0:0:0:0:
288,52,78346,1,0,0:0:0:0:
428,227,78522,6,0,P|371:239|317:219,1,116.999994644165
213,123,78875,1,0,0:0:0:0:
457,63,79052,1,0,0:0:0:0:
455,80,79140,1,0,0:0:0:0:
449,127,79228,5,0,0:0:0:0:
428,227,79405,2,0,P|415:170|436:116,1,116.999994644165
340,320,79758,1,0,0:0:0:0:
340,320,79934,2,0,L|204:296,1,116.999994644165
96,60,80287,1,0,0:0:0:0:
48,180,80464,2,0,L|184:156,1,116.999994644165
404,120,80817,5,0,0:0:0:0:
224,51,80993,1,0,0:0:0:0:
255,241,81169,1,0,0:0:0:0:
488,256,81346,6,0,L|481:197,1,58.4999973220826
410,61,81522,2,0,L|403:119,1,58.4999973220826
324,226,81699,5,0,0:0:0:0:
290,236,81787,1,0,0:0:0:0:
255,241,81875,1,0,0:0:0:0:
220,237,81963,1,0,0:0:0:0:
187,225,82052,6,0,B|224:187|287:187|324:226|324:226|348:196|348:196|391:230|446:204,1,288
144,63,82581,6,0,P|195:35|253:34,1,116.999994644165
402,119,82934,1,0,0:0:0:0:
255,281,83111,1,0,0:0:0:0:
144,63,83287,2,0,L|151:180,1,116.999994644165
355,177,83640,5,0,0:0:0:0:
126,320,83817,1,0,0:0:0:0:
220,124,83993,1,0,0:0:0:0:
320,352,84169,6,0,L|435:338,1,116.999994644165
496,84,84522,1,0,0:0:0:0:
304,116,84699,1,0,0:0:0:0:
268,104,84787,1,0,0:0:0:0:
235,70,84875,6,0,B|224:135|279:210|291:161|291:161|271:115|230:198|253:277,1,288
78,259,85405,6,0,P|107:308|158:336,1,116.999994644165
390,247,85758,2,0,L|331:243,1,58.4999973220826
255,168,85934,2,0,L|183:172,1,58.4999973220826
344,20,86111,2,0,L|360:152,1,116.999994644165
228,272,86464,5,0,0:0:0:0:
460,100,86640,1,0,0:0:0:0:
409,318,86817,1,0,0:0:0:0:
255,168,86993,6,0,L|196:171,1,58.4999973220826
58,99,87169,2,0,L|117:96,1,58.4999973220826
328,88,87346,1,0,0:0:0:0:
354,122,87434,1,0,0:0:0:0:
364,165,87522,1,0,0:0:0:0:
356,207,87610,1,0,0:0:0:0:
332,244,87699,6,0,B|228:304|184:228|184:228|195:170|195:170|255:169,1,288
44,84,88228,6,0,B|62:48|62:48|155:27,1,116.999994644165
372,58,88581,1,0,0:0:0:0:
360,74,88669,1,0,0:0:0:0:
348,90,88758,2,0,L|356:218,1,116.999994644165
440,320,89111,5,0,0:0:0:0:
179,272,89287,2,0,L|234:251,1,58.4999973220826
376,200,89464,1,0,0:0:0:0:
299,372,89640,1,0,0:0:0:0:
104,212,89817,6,0,P|90:172|93:136,1,58.4999973220826
224,64,89993,2,0,P|221:93|210:119,1,58.4999973220826
102,63,90169,1,0,0:0:0:0:
330,144,90346,1,0,0:0:0:0:
347,137,90434,1,0,0:0:0:0:
398,121,90522,5,0,0:0:0:0:
104,212,90699,1,0,0:0:0:0:
416,228,90875,5,0,0:0:0:0:
102,63,91052,1,0,0:0:0:0:
298,341,91228,5,0,0:0:0:0:
337,305,91317,1,0,0:0:0:0:
336,252,91405,1,0,0:0:0:0:
300,213,91493,1,0,0:0:0:0:
247,214,91581,1,0,0:0:0:0:
203,243,91669,1,0,0:0:0:0:
149,241,91758,1,0,0:0:0:0:
104,212,91846,1,0,0:0:0:0:
88,164,91934,1,0,0:0:0:0:
38,323,92111,5,0,0:0:0:0:
197,373,92287,1,0,0:0:0:0:
247,214,92464,1,0,0:0:0:0:
197,373,92640,5,0,0:0:0:0:
88,164,92817,1,0,0:0:0:0:
406,264,92993,2,0,B|428:228|428:228|409:137,1,135.000005149842
256,192,93434,12,0,98993,0:0:0:0:
452,288,104640,5,0,0:0:0:0:
452,288,104993,1,0,0:0:0:0:
424,92,105346,5,0,0:0:0:0:
424,92,105699,1,0,0:0:0:0:
228,236,106052,5,0,0:0:0:0:
228,236,106405,1,0,0:0:0:0:
256,40,106758,5,0,0:0:0:0:
256,40,107111,1,0,0:0:0:0:
424,92,107464,5,0,0:0:0:0:
452,288,107817,1,0,0:0:0:0:
424,92,108169,5,0,0:0:0:0:
452,288,108523,1,0,0:0:0:0:
228,236,108875,5,0,0:0:0:0:
256,40,109228,1,0,0:0:0:0:
228,236,109581,5,0,0:0:0:0:
256,40,109934,1,0,0:0:0:0:
52,68,110287,5,0,0:0:0:0:
80,264,110640,2,0,L|144:272,1,53.9999983520508
184,332,110993,2,0,P|244:312|296:328,1,107.999996704102
360,352,111522,2,0,P|383:303|376:250,1,107.999996704102
422,161,112052,6,0,L|369:172,1,53.9999983520508
258,192,112405,2,0,P|279:208|305:217,1,53.9999983520508
268,62,112758,1,0,0:0:0:0:
96,120,112934,1,0,0:0:0:0:
96,120,113022,1,0,0:0:0:0:
96,120,113111,6,0,L|100:196,1,53.9999983520508
188,324,113464,6,0,L|191:256,1,67.5000025749208
268,62,113817,6,0,L|272:142,1,80.9999975280763
380,352,114169,6,0,L|385:253,1,99.0000030212403
256,192,114522,12,0,115758,0:0:0:0:
432,85,115934,6,0,B|414:148|469:139|452:199,1,121.499996292114
384,253,116287,2,0,L|303:246,1,80.9999975280763
216,112,116640,2,0,L|296:105,2,80.9999975280763
141,168,117169,2,0,P|125:130|125:90,1,80.9999975280763
141,168,117522,6,0,P|140:208|125:245,1,80.9999975280763
32,300,117875,1,0,0:0:0:0:
224,232,118052,1,0,0:0:0:0:
192,352,118228,1,0,0:0:0:0:
328,216,118405,1,0,0:0:0:0:
328,340,118581,1,0,0:0:0:0:
420,152,118758,6,0,B|358:175|362:119|304:142,1,121.499996292114
224,168,119111,2,0,L|231:87,1,80.9999975280763
86,286,119464,2,0,L|93:367,1,80.9999975280763
137,206,119817,2,0,P|85:190|45:206,1,80.9999975280763
164,104,120169,6,0,L|160:63,1,40.4999987640381
137,206,120346,6,0,P|176:212|213:196,1,80.9999975280763
164,104,120699,1,0,0:0:0:0:
279,252,120875,1,0,0:0:0:0:
311,132,121051,1,0,0:0:0:0:
384,264,121228,1,0,0:0:0:0:
445,156,121404,1,0,0:0:0:0:
244,40,121581,6,0,B|267:98|211:94|234:156,1,121.499996292114
288,220,121934,2,0,L|281:301,1,80.9999975280763
400,100,122287,2,0,L|481:93,2,80.9999975280763
323,40,122817,2,0,P|259:36|231:44,1,80.9999975280763
323,40,123169,6,0,P|287:93|280:121,1,80.9999975280763
376,224,123522,1,0,0:0:0:0:
189,175,123699,1,0,0:0:0:0:
301,255,123875,1,0,0:0:0:0:
115,211,124052,1,0,0:0:0:0:
171,336,124228,1,0,0:0:0:0:
21,136,124405,6,0,B|82:160|79:104|137:128,1,121.499996292114
200,184,124758,2,0,L|300:172,1,80.9999975280763
