osu file format v14

[General]
AudioFilename: audio.mp3
AudioLeadIn: 0
PreviewTime: 193122
Countdown: 0
SampleSet: Normal
StackLeniency: 0.7
Mode: 1
LetterboxInBreaks: 0
WidescreenStoryboard: 0

[Editor]
Bookmarks: 57593,80181,102770,125358,147946,159240,170534,181828,193122,215711,227005,238299
DistanceSpacing: 0.8
BeatDivisor: 12
GridSize: 32
TimelineZoom: 2.3

[Metadata]
Title:Burned Out feat. DJ Noriken
TitleUnicode:Burned Out feat. DJ Noriken
Artist:Getty
ArtistUnicode:Getty
Creator:ikin5050
Version:Crash and Burn
Source:
Tags:kick it out electronic english mappers' guild mpg featured artist fa edm hard dance hardstyle uk hardcore
BeatmapID:2962494
BeatmapSetID:1439853

[Difficulty]
HPDrainRate:5
CircleSize:5
OverallDifficulty:6
ApproachRate:5
SliderMultiplier:1.4
SliderTickRate:1

[Events]
//Background and Video events
0,0,"burned out getty.jpg",0,0
//Break Periods
//Storyboard Layer 0 (Background)
//Storyboard Layer 1 (Fail)
//Storyboard Layer 2 (Pass)
//Storyboard Layer 3 (Foreground)
//Storyboard Layer 4 (Overlay)
//Storyboard Sound Samples

[TimingPoints]
1123,352.941176470588,4,1,0,70,1,0
1123,-125,4,1,0,70,0,0
11711,-125,4,1,0,70,0,0
11887,-121.250039406263,4,1,0,70,0,0
12064,-117.71838231399,4,1,0,70,0,0
12152,-116.028663721086,4,1,0,70,0,0
12240,-114.38676682372,4,1,0,70,0,0
12328,-112.790689805301,4,1,0,70,0,0
12417,-111.238541039791,4,1,0,85,0,0
18064,-111.111111111111,4,1,0,85,0,0
18240,-110.344827586207,4,1,0,85,0,0
18328,-109.965635738832,4,1,0,85,0,0
18417,-109.58904109589,4,1,0,85,0,0
18593,-108.843537414966,4,1,0,85,0,0
18770,-108.108108108108,4,1,0,85,0,0
18946,-107.38255033557,4,1,0,85,0,0
19034,-107.023411371237,4,1,0,85,0,0
19122,-106.666666666667,4,1,0,85,0,0
19299,-105.960264900662,4,1,0,85,0,0
19475,-105.263157894737,4,1,0,85,0,0
19652,-104.575163398693,4,1,0,85,0,0
19740,-104.234527687296,4,1,0,85,0,0
19828,-103.896103896104,4,1,0,85,0,0
20005,-103.225806451613,4,1,0,85,0,0
20181,-102.564102564103,4,1,0,85,0,0
20358,-101.910828025478,4,1,0,85,0,0
20446,-101.587301587302,4,1,0,85,0,0
20534,-101.26582278481,4,1,0,85,0,0
20711,-100.62893081761,4,1,0,85,0,0
20887,-100,4,1,0,85,0,0
22828,-86.9565217391304,4,1,0,85,0,0
22917,-88.0961022760509,4,1,0,85,0,0
23005,-89.2659482543151,4,1,0,85,0,0
23181,-91.7013909266976,4,1,0,85,0,0
23358,-94.2734533497243,4,1,0,85,0,0
23534,-96.9939630957369,4,1,0,85,0,0
23711,-99.8761535695737,4,1,0,85,0,0
23799,-142.857142857143,4,1,0,60,0,0
46299,-133.333333333333,4,1,0,60,0,0
57505,-125,4,1,0,70,0,0
67828,-125,4,1,0,70,0,0
68005,-122.466174842509,4,1,0,70,0,0
68181,-120.03317717017,4,1,0,70,0,0
68358,-117.694829077684,4,1,0,70,0,0
68534,-115.445846085289,4,1,0,70,0,0
68711,-113.281201324484,4,1,0,70,0,0
68887,-111.196361655047,4,1,0,70,0,0
79652,-109.58904109589,4,1,0,85,0,0
79828,-108.108108108108,4,1,0,85,0,0
80005,-106.666666666667,4,1,0,85,0,0
80181,-105.263157894737,4,1,0,85,0,0
90770,-105.263157894737,4,1,0,85,0,0
90946,-103.896103896104,4,1,0,85,0,0
91122,-102.564102564103,4,1,0,85,0,0
91299,-101.26582278481,4,1,0,85,0,0
91475,-100,4,1,0,85,0,0
101711,-100,4,1,0,85,0,0
101887,-102.546012395762,4,1,0,85,0,0
101975,-103.86815392014,4,1,0,85,0,0
102064,-105.224944625373,4,1,0,85,0,0
102240,-108.047718194263,4,1,0,85,0,0
102417,-111.025991184536,4,1,0,85,0,0
102593,-114.173237336475,4,1,0,85,0,0
102770,-117.504118519354,4,1,0,70,0,0
113358,-117.647058823529,4,1,0,70,0,0
113534,-115.95937247426,4,1,0,70,0,0
113711,-114.319422183913,4,1,0,70,0,0
113799,-113.516655163646,4,1,0,70,0,0
113887,-112.725210880688,4,1,0,70,0,0
114064,-111.174727760885,4,1,0,80,0,0
116534,-111.111111111111,4,1,0,80,0,0
116622,-109.619674539186,4,1,0,80,0,0
116711,-108.167746541336,4,1,0,80,0,0
116799,-106.75377774931,4,1,0,80,0,0
116887,-105.376298762882,4,1,0,80,0,0
119358,-105.263157894737,4,1,0,80,0,0
119446,-103.923636911597,4,1,0,80,0,0
119534,-102.617779556486,4,1,0,80,0,0
119711,-100,4,1,0,85,0,0
120064,-98.7654320987654,4,1,0,85,0,0
120240,-98.159509202454,4,1,0,85,0,0
120417,-97.5609756097561,4,1,0,85,0,0
120593,-96.969696969697,4,1,0,85,0,0
120681,-96.6767371601208,4,1,0,85,0,0
120770,-96.3855421686747,4,1,0,85,0,0
120946,-95.8083832335329,4,1,0,85,0,0
121122,-95.2380952380952,4,1,0,85,0,0
121299,-94.6745562130178,4,1,0,85,0,0
121387,-94.3952802359882,4,1,0,85,0,0
121475,-94.1176470588235,4,1,0,85,0,0
121652,-93.5672514619883,4,1,0,85,0,0
121828,-93.0232558139535,4,1,0,85,0,0
121917,-92.7536231884058,4,1,0,85,0,0
122005,-92.485549132948,4,1,0,85,0,0
122093,-92.2190201729107,4,1,0,85,0,0
122181,-91.9540229885058,4,1,0,85,0,0
122358,-91.4285714285714,4,1,0,85,0,0
122534,-90.9090909090909,4,1,0,85,0,0
122622,-90.6515580736544,4,1,0,85,0,0
122711,-90.3954802259887,4,1,0,85,0,0
122887,-89.8876404494382,4,1,0,85,0,0
122975,-89.6358543417367,4,1,0,85,0,0
123064,-89.3854748603352,4,1,0,85,0,0
123240,-88.8888888888889,4,1,0,85,0,0
123328,-88.6426592797784,4,1,0,85,0,0
123417,-88.3977900552486,4,1,0,85,0,0
123593,-87.9120879120879,4,1,0,85,0,0
123681,-87.6712328767123,4,1,0,85,0,0
123770,-87.431693989071,4,1,0,85,0,0
123858,-87.1934604904632,4,1,0,85,0,0
123946,-86.9565217391304,4,1,0,85,0,0
125358,-66.6666666666667,4,1,0,85,0,0
125711,-100,4,1,0,100,0,1
142652,-100,4,1,0,100,0,1
142828,-99.2907660580474,4,1,0,100,0,1
143005,-98.5915215235151,4,1,0,100,0,1
143181,-97.9020568243118,4,1,0,100,0,1
143270,-97.5609756097561,4,1,0,100,0,1
143358,-97.2222627314984,4,1,0,100,0,1
143446,-96.8857997389896,4,1,0,100,0,1
143534,-96.5517507728968,4,1,0,100,0,1
143711,-95.8904240945786,4,1,0,100,0,1
143799,-95.5631007932693,4,1,0,100,0,1
143887,-95.2380952380952,4,1,0,100,0,1
144064,-94.594581811543,4,1,0,100,0,1
144152,-94.2761196703353,4,1,0,100,0,1
144240,-93.9597063195419,4,1,0,100,0,1
144328,-93.6454974776585,4,1,0,100,0,1
144417,-93.3332960000149,4,1,0,100,0,1
144505,-93.0232558139535,4,1,0,100,0,1
144593,-92.7152686285836,4,1,0,100,0,1
144770,-92.1052873961283,4,1,0,100,0,1
144946,-91.5032799350693,4,1,0,100,0,1
145122,-90.9090909090909,4,1,0,100,0,0
146358,-90.9090909090909,4,1,0,100,0,0
146534,-92.3077207100679,4,1,0,100,0,0
146711,-93.7499707031342,4,1,0,100,0,0
146887,-95.2380952380952,4,1,0,100,0,0
147152,-97.5609756097561,4,1,0,100,0,0
147240,-98.3606234883202,4,1,0,100,0,0
147593,-101.694949727102,4,1,0,100,0,0
147681,-102.564102564103,4,1,0,100,0,0
147770,-103.448240190262,4,1,0,100,0,0
147946,-105.263157894737,4,1,0,100,0,0
148299,-100,4,1,0,100,0,1
157828,-100,4,1,0,85,0,0
157829,-100,4,1,0,85,0,0
158181,-100,4,1,0,85,0,0
158358,-101.683057975612,4,1,0,85,0,0
158446,-102.546012395762,4,1,0,85,0,0
158534,-103.423632506875,4,1,0,85,0,0
158622,-104.316512991057,4,1,0,85,0,0
158711,-105.224944625373,4,1,0,85,0,0
158887,-107.090115261091,4,1,0,85,0,0
159064,-109.022601475512,4,1,0,85,0,0
159240,-111.025991184536,4,1,0,85,0,0
164181,-111.111111111111,4,1,0,85,0,0
164446,-115.890029633081,4,1,0,85,0,0
164534,-117.575821708024,4,1,0,85,0,0
164711,-121.098655441629,4,1,0,85,0,0
164799,-122.940440274305,4,1,0,85,0,0
164887,-124.839113592358,4,1,0,85,0,0
166299,-125,4,1,0,85,0,0
166387,-124.031007751938,4,1,0,85,0,0
166475,-123.076923076923,4,1,0,85,0,0
166564,-122.137404580153,4,1,0,85,0,0
166652,-121.212121212121,4,1,0,85,0,0
166828,-119.402985074627,4,1,0,85,0,0
167005,-117.647058823529,4,1,0,85,0,0
167093,-116.788321167883,4,1,0,85,0,0
167181,-115.942028985507,4,1,0,85,0,0
167270,-115.107913669065,4,1,0,85,0,0
167358,-114.285714285714,4,1,0,85,0,0
167446,-113.475177304965,4,1,0,85,0,0
167534,-112.676056338028,4,1,0,85,0,0
167622,-111.888111888112,4,1,0,85,0,0
167711,-111.111111111111,4,1,0,85,0,0
167887,-109.58904109589,4,1,0,85,0,0
167975,-108.843537414966,4,1,0,85,0,0
168064,-108.108108108108,4,1,0,85,0,0
168240,-106.666666666667,4,1,0,85,0,0
168417,-105.263157894737,4,1,0,85,0,0
168505,-104.575163398693,4,1,0,85,0,0
168593,-103.896103896104,4,1,0,85,0,0
168681,-103.225806451613,4,1,0,85,0,0
168770,-102.564102564103,4,1,0,85,0,0
168858,-101.910828025478,4,1,0,85,0,0
168946,-101.26582278481,4,1,0,85,0,0
169034,-100.62893081761,4,1,0,85,0,0
169122,-100,4,1,0,85,0,0
170005,-111.111111111111,4,1,0,70,0,0
170622,-133.333333333333,4,1,0,60,0,0
181122,-133.333333333333,4,1,0,60,0,0
181299,-127.046561294249,4,1,0,60,0,0
181475,-121.325799810004,4,1,0,60,0,0
181652,-116.098172614763,4,1,0,60,0,0
181828,-111.111111111111,4,1,0,70,0,0
182181,-110.726643598616,4,1,0,70,0,0
182358,-110.535344781847,4,1,0,70,0,0
182446,-110.440004020016,4,1,0,70,0,0
182534,-110.344827586207,4,1,0,70,0,0
182799,-110.060158882845,4,1,0,70,0,0
182887,-109.965635738832,4,1,0,70,0,0
183064,-109.77695518246,4,1,0,70,0,0
183152,-109.682917653356,4,1,0,70,0,0
183240,-109.58904109589,4,1,0,70,0,0
183417,-109.401769245412,4,1,0,70,0,0
183505,-109.308253647616,4,1,0,70,0,0
183593,-109.215017064846,4,1,0,70,0,0
183770,-109.028901381178,4,1,0,70,0,0
183946,-108.843537414966,4,1,0,70,0,0
184211,-108.566552382276,4,1,0,70,0,0
184299,-108.474576271186,4,1,0,70,0,0
184475,-108.290973514194,4,1,0,70,0,0
184564,-108.19946354706,4,1,0,70,0,0
184652,-108.108108108108,4,1,0,70,0,0
184917,-107.834848772408,4,1,0,70,0,0
185005,-107.744107744108,4,1,0,70,0,0
185181,-107.562967361093,4,1,0,70,0,0
185270,-107.472683130765,4,1,0,70,0,0
185358,-107.38255033557,4,1,0,70,0,0
185622,-107.112942028334,4,1,0,70,0,0
185711,-107.023411371237,4,1,0,70,0,0
185887,-106.844684156429,4,1,0,70,0,0
186064,-106.666666666667,4,1,0,70,0,0
186240,-106.489241391942,4,1,0,70,0,0
186328,-106.40063670141,4,1,0,70,0,0
186417,-106.312292358804,4,1,0,70,0,0
186593,-106.135930408793,4,1,0,70,0,0
186770,-105.960264900662,4,1,0,70,0,0
186946,-105.785179919434,4,1,0,70,0,0
187034,-105.697742507616,4,1,0,70,0,0
187122,-105.610561056106,4,1,0,70,0,0
187299,-105.436517727042,4,1,0,70,0,0
187475,-105.263157894737,4,1,0,75,0,0
187652,-104.576913182338,4,1,0,75,0,0
187828,-103.899558219078,4,1,0,75,0,0
188005,-103.231027943607,4,1,0,75,0,0
188093,-102.899925706254,4,1,0,75,0,0
188181,-102.570940626811,4,1,0,75,0,0
188358,-101.919241231633,4,1,0,75,0,0
188534,-101.275770885849,4,1,0,75,0,0
188711,-100.640475989195,4,1,0,75,0,0
188799,-100.325757735367,4,1,0,75,0,0
188887,-100.01300169022,4,1,0,75,0,0
188975,-99.7021895597849,4,1,0,75,0,0
189064,-99.3933032767984,4,1,0,75,0,0
189240,-98.7812370967009,4,1,0,75,0,0
189328,-98.4780221674028,4,1,0,75,0,0
189417,-98.1767594011611,4,1,0,75,0,0
189593,-97.579539522153,4,1,0,85,0,0
189681,-97.2836460353996,4,1,0,85,0,0
189770,-96.9895416177274,4,1,0,85,0,0
189946,-96.4066354759065,4,1,0,85,0,0
190034,-96.1178019781044,4,1,0,85,0,0
190122,-95.83078583161,4,1,0,85,0,0
190211,-95.545387403105,4,1,0,85,0,0
190299,-95.2616838455237,4,1,0,95,0,0
191711,-95.2380952380952,4,1,0,75,0,0
191887,-96.5517507728968,4,1,0,75,0,0
192064,-97.9020568243118,4,1,0,75,0,0
192240,-99.2907660580474,4,1,0,75,0,0
192328,-100,4,1,0,75,0,0
192417,-100.719438952437,4,1,0,75,0,0
192593,-102.189825776566,4,1,0,75,0,0
192770,-103.703672976689,4,1,0,75,0,0
192946,-105.263157894737,4,1,0,75,0,0
193122,-71.4285714285714,4,1,0,100,0,1
193211,-90.9090909090909,4,1,0,100,0,1
204417,-71.4285714285714,4,1,0,100,0,1
204505,-90.9090909090909,4,1,0,100,0,1
215005,-90.9090909090909,4,1,0,100,0,1
215093,-91.9540229885057,4,1,0,100,0,1
215181,-93.0232558139535,4,1,0,100,0,1
215358,-95.1914061198555,4,1,0,100,0,1
215534,-97.4874558016247,4,1,0,100,0,1
215711,-100,4,1,0,90,0,0
227005,-71.4285714285714,4,1,0,100,0,1
227181,-90.9090909090909,4,1,0,100,0,1
235475,-90.9090909090909,4,1,0,100,0,0
235476,-100,4,1,0,100,0,0
237946,-103.455410717981,4,1,0,85,0,0
238122,-107.143239797285,4,1,0,85,0,0
238299,-111.111111111111,4,1,0,70,0,0
248887,-111.111111111111,4,1,0,70,0,0
249063,-109.604535874113,4,1,0,70,0,0
249240,-108.138269917447,4,1,0,70,0,0
249328,-107.419693037485,4,1,0,70,0,0
249416,-106.710716850583,4,1,0,70,0,0
249504,-106.010925485981,4,1,0,70,0,0
249593,-105.320252557966,4,1,0,85,0,0
255240,-105.263157894737,4,1,0,85,0,0
255416,-104.80345683722,4,1,0,85,0,0
255504,-104.575163398693,4,1,0,85,0,0
255593,-104.347862381865,4,1,0,85,0,0
255769,-103.896103896104,4,1,0,85,0,0
255946,-103.448240190262,4,1,0,85,0,0
256122,-103.004327211786,4,1,0,85,0,0
256210,-102.783690695095,4,1,0,85,0,0
256298,-102.564102564103,4,1,0,85,0,0
256475,-102.127624807617,4,1,0,85,0,0
256651,-101.694949727102,4,1,0,85,0,0
256828,-101.26582278481,4,1,0,85,0,0
256916,-101.05266561774,4,1,0,85,0,0
257004,-100.840302238554,4,1,0,85,0,0
257181,-100.418443654709,4,1,0,85,0,0
257357,-100,4,1,0,85,0,0
257534,-99.5850291833928,4,1,0,85,0,0
257622,-99.3788819875776,4,1,0,85,0,0
257710,-99.173586503665,4,1,0,85,0,0
257887,-98.7654320987654,4,1,0,85,0,0
258063,-98.3606234883202,4,1,0,85,0,0
258151,-98.159509202454,4,1,0,85,0,0
258240,-97.959215660152,4,1,0,85,0,0
258416,-97.5609756097561,4,1,0,85,0,0
258504,-97.363114762877,4,1,0,85,0,0
258593,-97.1659604320776,4,1,0,85,0,0
258681,-96.969696969697,4,1,0,85,0,0
258769,-96.774224765879,4,1,0,85,0,0
258946,-96.3855421686747,4,1,0,85,0,0
259122,-95.9999692800098,4,1,0,85,0,0
259210,-95.8083832335329,4,1,0,85,0,0
259298,-95.6175603561945,4,1,0,85,0,0
259387,-95.4274050330322,4,1,0,85,0,0
259475,-95.2380952380952,4,1,0,85,0,0
260005,-86.9565217391304,4,1,0,85,0,0
260093,-88.1057268722467,4,1,0,85,0,0
260181,-89.2857142857143,4,1,0,85,0,0
260357,-91.743119266055,4,1,0,85,0,0
260534,-94.3396226415094,4,1,0,85,0,0
260710,-97.0873786407767,4,1,0,85,0,0
260887,-100,4,1,0,85,0,0

[HitObjects]
256,192,1123,5,12,0:0:0:0:
256,192,1475,1,8,0:0:0:0:
256,192,1652,1,0,0:0:0:0:
256,192,1828,1,8,0:0:0:0:
256,192,2181,1,8,0:0:0:0:
256,192,2358,1,0,0:0:0:0:
256,192,2534,1,8,0:0:0:0:
256,192,2887,1,8,0:0:0:0:
256,192,3064,1,0,0:0:0:0:
256,192,3240,1,8,0:0:0:0:
256,192,3593,1,8,0:0:0:0:
256,192,3770,1,0,0:0:0:0:
256,192,3946,1,8,0:0:0:0:
256,192,4299,1,8,0:0:0:0:
256,192,4475,1,0,0:0:0:0:
256,192,4652,1,8,0:0:0:0:
256,192,5005,1,8,0:0:0:0:
256,192,5181,1,0,0:0:0:0:
256,192,5358,1,8,0:0:0:0:
256,192,5711,1,8,0:0:0:0:
256,192,5887,1,0,0:0:0:0:
256,192,6064,1,8,0:0:0:0:
256,192,6417,1,8,0:0:0:0:
256,192,6770,1,12,0:0:0:0:
256,192,7034,1,0,0:0:0:0:
256,192,7122,1,8,0:0:0:0:
256,192,7299,1,0,0:0:0:0:
256,192,7475,1,8,0:0:0:0:
256,192,7740,1,0,0:0:0:0:
256,192,7828,1,8,0:0:0:0:
256,192,8005,1,0,0:0:0:0:
256,192,8181,1,8,0:0:0:0:
256,192,8446,1,0,0:0:0:0:
256,192,8534,1,8,0:0:0:0:
256,192,8711,1,0,0:0:0:0:
256,192,8887,1,8,0:0:0:0:
256,192,9152,1,0,0:0:0:0:
256,192,9240,1,8,0:0:0:0:
256,192,9417,1,0,0:0:0:0:
256,192,9593,1,8,0:0:0:0:
256,192,9858,1,0,0:0:0:0:
256,192,9946,1,8,0:0:0:0:
256,192,10122,1,0,0:0:0:0:
256,192,10299,1,8,0:0:0:0:
256,192,10564,1,0,0:0:0:0:
256,192,10652,1,8,0:0:0:0:
256,192,10828,1,0,0:0:0:0:
256,192,11005,1,8,0:0:0:0:
256,192,11270,1,0,0:0:0:0:
256,192,11358,1,8,0:0:0:0:
256,192,11534,1,0,0:0:0:0:
256,192,11711,1,8,0:0:0:0:
256,192,11887,1,0,0:0:0:0:
256,192,12064,1,8,0:0:0:0:
256,192,12152,1,0,0:0:0:0:
256,192,12240,1,0,0:0:0:0:
256,192,12328,1,0,0:0:0:0:
256,192,12417,1,12,0:0:0:0:
256,192,12681,1,0,0:0:0:0:
256,192,12770,1,8,0:0:0:0:
256,192,12946,1,0,0:0:0:0:
256,192,13034,1,0,0:0:0:0:
256,192,13122,1,8,0:0:0:0:
256,192,13387,1,0,0:0:0:0:
256,192,13475,1,8,0:0:0:0:
256,192,13652,1,8,0:0:0:0:
256,192,13828,1,0,0:0:0:0:
256,192,14093,1,8,0:0:0:0:
256,192,14181,1,0,0:0:0:0:
256,192,14358,1,8,0:0:0:0:
256,192,14446,1,8,0:0:0:0:
256,192,14534,1,0,0:0:0:0:
256,192,14799,1,0,0:0:0:0:
256,192,14887,1,8,0:0:0:0:
256,192,15064,1,0,0:0:0:0:
256,192,15240,1,8,0:0:0:0:
256,192,15505,1,8,0:0:0:0:
256,192,15593,1,8,0:0:0:0:
256,192,15770,1,0,0:0:0:0:
256,192,15858,1,8,0:0:0:0:
256,192,15946,1,0,0:0:0:0:
256,192,16211,1,8,0:0:0:0:
256,192,16299,1,8,0:0:0:0:
256,192,16475,1,0,0:0:0:0:
256,192,16652,1,8,0:0:0:0:
256,192,16917,1,0,0:0:0:0:
256,192,17005,1,8,0:0:0:0:
256,192,17181,1,0,0:0:0:0:
256,192,17270,1,8,0:0:0:0:
256,192,17358,1,0,0:0:0:0:
256,192,17534,1,0,0:0:0:0:
256,192,17711,1,8,0:0:0:0:
256,192,17887,1,0,0:0:0:0:
256,192,18064,1,8,0:0:0:0:
256,192,18240,1,8,0:0:0:0:
256,192,18328,1,8,0:0:0:0:
256,192,18417,1,0,0:0:0:0:
256,192,18593,1,0,0:0:0:0:
256,192,18770,1,8,0:0:0:0:
256,192,18946,1,0,0:0:0:0:
256,192,19034,1,8,0:0:0:0:
256,192,19122,1,0,0:0:0:0:
256,192,19299,1,0,0:0:0:0:
256,192,19475,1,8,0:0:0:0:
256,192,19652,1,8,0:0:0:0:
256,192,19740,1,8,0:0:0:0:
256,192,19828,1,0,0:0:0:0:
256,192,20005,1,0,0:0:0:0:
256,192,20181,1,8,0:0:0:0:
256,192,20358,1,0,0:0:0:0:
256,192,20446,1,8,0:0:0:0:
256,192,20534,1,0,0:0:0:0:
256,192,20711,1,0,0:0:0:0:
256,192,20887,1,8,0:0:0:0:
256,192,20975,1,8,0:0:0:0:
256,192,21064,1,8,0:0:0:0:
256,192,21240,1,0,0:0:0:0:
256,192,21328,1,0,0:0:0:0:
256,192,21417,1,8,0:0:0:0:
256,192,21505,1,8,0:0:0:0:
256,192,21593,1,0,0:0:0:0:
256,192,21770,1,8,0:0:0:0:
256,192,21946,1,0,0:0:0:0:
256,192,22034,1,8,0:0:0:0:
256,192,22122,1,8,0:0:0:0:
256,192,22211,1,8,0:0:0:0:
256,192,22299,1,0,0:0:0:0:
256,192,22828,1,0,0:0:0:0:
256,192,22917,1,0,0:0:0:0:
256,192,23005,1,8,0:0:0:0:
256,192,23181,1,0,0:0:0:0:
256,192,23358,1,8,0:0:0:0:
256,192,23534,1,8,0:0:0:0:
256,192,23711,1,4,0:0:0:0:
256,192,24240,1,8,0:0:0:0:
256,192,24593,1,0,0:0:0:0:
256,192,24770,1,8,0:0:0:0:
256,192,24946,1,8,0:0:0:0:
256,192,25299,1,0,0:0:0:0:
256,192,25652,1,0,0:0:0:0:
256,192,25828,1,8,0:0:0:0:
256,192,26005,1,8,0:0:0:0:
256,192,26181,1,8,0:0:0:0:
256,192,26358,1,0,0:0:0:0:
256,192,27946,1,0,0:0:0:0:
256,192,29358,1,0,0:0:0:0:
256,192,29887,1,8,0:0:0:0:
256,192,30240,1,8,0:0:0:0:
256,192,30417,1,0,0:0:0:0:
256,192,30593,1,8,0:0:0:0:
256,192,31299,1,0,0:0:0:0:
256,192,31475,1,8,0:0:0:0:
256,192,31652,1,8,0:0:0:0:
256,192,31828,1,8,0:0:0:0:
256,192,32005,1,0,0:0:0:0:
256,192,32887,1,0,0:0:0:0:
256,192,33593,1,0,0:0:0:0:
256,192,35005,1,8,0:0:0:0:
256,192,35181,1,8,0:0:0:0:
256,192,35358,1,0,0:0:0:0:
256,192,35534,1,0,0:0:0:0:
256,192,35711,1,8,0:0:0:0:
256,192,36064,1,8,0:0:0:0:
256,192,36417,1,0,0:0:0:0:
256,192,37122,1,8,0:0:0:0:
256,192,37299,1,0,0:0:0:0:
256,192,37475,1,8,0:0:0:0:
256,192,37652,1,8,0:0:0:0:
256,192,37828,1,0,0:0:0:0:
256,192,38005,1,0,0:0:0:0:
256,192,38181,1,8,0:0:0:0:
256,192,38358,1,0,0:0:0:0:
256,192,38534,1,8,0:0:0:0:
256,192,38887,1,8,0:0:0:0:
256,192,39240,1,0,0:0:0:0:
256,192,39946,1,8,0:0:0:0:
256,192,40122,1,0,0:0:0:0:
256,192,40299,1,8,0:0:0:0:
256,192,40475,1,0,0:0:0:0:
256,192,40652,1,8,0:0:0:0:
256,192,40828,1,8,0:0:0:0:
256,192,41005,1,8,0:0:0:0:
256,192,41181,1,0,0:0:0:0:
256,192,41358,1,8,0:0:0:0:
256,192,41711,1,0,0:0:0:0:
256,192,41887,1,8,0:0:0:0:
256,192,42240,1,0,0:0:0:0:
256,192,42417,1,8,0:0:0:0:
256,192,42946,1,8,0:0:0:0:
256,192,43299,1,0,0:0:0:0:
256,192,43475,1,0,0:0:0:0:
256,192,43828,1,0,0:0:0:0:
256,192,44005,1,0,0:0:0:0:
256,192,44181,1,8,0:0:0:0:
256,192,44534,1,0,0:0:0:0:
256,192,44711,1,8,0:0:0:0:
256,192,45064,1,0,0:0:0:0:
256,192,45240,1,8,0:0:0:0:
256,192,45770,1,0,0:0:0:0:
256,192,46299,1,0,0:0:0:0:
256,192,46475,1,8,0:0:0:0:
256,192,46652,1,0,0:0:0:0:
256,192,46828,1,0,0:0:0:0:
256,192,47005,1,8,0:0:0:0:
256,192,47358,1,0,0:0:0:0:
256,192,47711,1,8,0:0:0:0:
256,192,48417,1,8,0:0:0:0:
256,192,48593,1,0,0:0:0:0:
256,192,48770,1,8,0:0:0:0:
256,192,48946,1,8,0:0:0:0:
256,192,49122,1,0,0:0:0:0:
256,192,49299,1,0,0:0:0:0:
256,192,49475,1,8,0:0:0:0:
256,192,49652,1,0,0:0:0:0:
256,192,49828,1,8,0:0:0:0:
256,192,50181,1,8,0:0:0:0:
256,192,50534,1,0,0:0:0:0:
256,192,51240,1,0,0:0:0:0:
256,192,51417,1,0,0:0:0:0:
256,192,51593,1,8,0:0:0:0:
256,192,51770,1,8,0:0:0:0:
256,192,51946,1,0,0:0:0:0:
256,192,52122,1,0,0:0:0:0:
256,192,52299,1,8,0:0:0:0:
256,192,52475,1,0,0:0:0:0:
256,192,52652,1,8,0:0:0:0:
256,192,53005,1,0,0:0:0:0:
256,192,53181,1,8,0:0:0:0:
256,192,53534,1,0,0:0:0:0:
256,192,53711,1,8,0:0:0:0:
256,192,54240,1,0,0:0:0:0:
256,192,54770,1,0,0:0:0:0:
256,192,55122,1,8,0:0:0:0:
256,192,55299,1,8,0:0:0:0:
256,192,55475,1,0,0:0:0:0:
256,192,55828,1,8,0:0:0:0:
256,192,56005,1,0,0:0:0:0:
256,192,56358,1,8,0:0:0:0:
256,192,56534,1,0,0:0:0:0:
256,192,57064,1,0,0:0:0:0:
256,192,57240,1,8,0:0:0:0:
256,192,57593,1,12,0:0:0:0:
256,192,58122,1,8,0:0:0:0:
256,192,58299,1,0,0:0:0:0:
256,192,58652,1,8,0:0:0:0:
256,192,59005,1,8,0:0:0:0:
256,192,59181,1,0,0:0:0:0:
256,192,59358,1,0,0:0:0:0:
256,192,59534,1,8,0:0:0:0:
256,192,59711,1,0,0:0:0:0:
256,192,59887,1,8,0:0:0:0:
256,192,60064,1,8,0:0:0:0:
256,192,60240,1,0,0:0:0:0:
256,192,60417,1,8,0:0:0:0:
256,192,60946,1,8,0:0:0:0:
256,192,61122,1,0,0:0:0:0:
256,192,61475,1,8,0:0:0:0:
256,192,61828,1,8,0:0:0:0:
256,192,62005,1,0,0:0:0:0:
256,192,62093,1,0,0:0:0:0:
256,192,62181,1,8,0:0:0:0:
256,192,62358,1,8,0:0:0:0:
256,192,62534,1,0,0:0:0:0:
256,192,62711,1,8,0:0:0:0:
256,192,62887,1,8,0:0:0:0:
256,192,63064,1,0,0:0:0:0:
256,192,63240,1,8,0:0:0:0:
256,192,63770,1,0,0:0:0:0:
256,192,63946,1,8,0:0:0:0:
256,192,64299,1,0,0:0:0:0:
256,192,64652,1,8,0:0:0:0:
256,192,64828,1,0,0:0:0:0:
256,192,64917,1,0,0:0:0:0:
256,192,65005,1,8,0:0:0:0:
256,192,65181,1,0,0:0:0:0:
256,192,65358,1,8,0:0:0:0:
256,192,65534,1,8,0:0:0:0:
256,192,65711,1,0,0:0:0:0:
256,192,65887,1,0,0:0:0:0:
256,192,66064,1,8,0:0:0:0:
256,192,66593,1,0,0:0:0:0:
256,192,66770,1,8,0:0:0:0:
256,192,67122,1,8,0:0:0:0:
256,192,67475,1,0,0:0:0:0:
256,192,67828,1,0,0:0:0:0:
256,192,68005,1,8,0:0:0:0:
256,192,68181,1,0,0:0:0:0:
256,192,68358,1,0,0:0:0:0:
256,192,68534,1,8,0:0:0:0:
256,192,68711,1,0,0:0:0:0:
256,192,68887,1,12,0:0:0:0:
256,192,69240,1,0,0:0:0:0:
256,192,69417,1,8,0:0:0:0:
256,192,69505,1,8,0:0:0:0:
256,192,69593,1,0,0:0:0:0:
256,192,69946,1,0,0:0:0:0:
256,192,70122,1,8,0:0:0:0:
256,192,70211,1,8,0:0:0:0:
256,192,70299,1,0,0:0:0:0:
256,192,70475,1,0,0:0:0:0:
256,192,70652,1,8,0:0:0:0:
256,192,70828,1,0,0:0:0:0:
256,192,71005,1,8,0:0:0:0:
256,192,71181,1,8,0:0:0:0:
256,192,71358,1,0,0:0:0:0:
256,192,71534,1,0,0:0:0:0:
256,192,71711,1,8,0:0:0:0:
256,192,72064,1,0,0:0:0:0:
256,192,72240,1,8,0:0:0:0:
256,192,72328,1,0,0:0:0:0:
256,192,72417,1,8,0:0:0:0:
256,192,72681,1,8,0:0:0:0:
256,192,72770,1,0,0:0:0:0:
256,192,72946,1,8,0:0:0:0:
256,192,73122,1,0,0:0:0:0:
256,192,73299,1,0,0:0:0:0:
256,192,73475,1,8,0:0:0:0:
256,192,73652,1,0,0:0:0:0:
256,192,73828,1,8,0:0:0:0:
256,192,74005,1,8,0:0:0:0:
256,192,74181,1,0,0:0:0:0:
256,192,74358,1,8,0:0:0:0:
256,192,74534,1,0,0:0:0:0:
256,192,74887,1,8,0:0:0:0:
256,192,75064,1,0,0:0:0:0:
256,192,75152,1,0,0:0:0:0:
256,192,75240,1,8,0:0:0:0:
256,192,75593,1,0,0:0:0:0:
256,192,75770,1,8,0:0:0:0:
256,192,75858,1,8,0:0:0:0:
256,192,75946,1,8,0:0:0:0:
256,192,76122,1,0,0:0:0:0:
256,192,76299,1,8,0:0:0:0:
256,192,76475,1,0,0:0:0:0:
256,192,76652,1,0,0:0:0:0:
256,192,77005,1,8,0:0:0:0:
256,192,77181,1,0,0:0:0:0:
256,192,77358,1,8,0:0:0:0:
256,192,77711,1,0,0:0:0:0:
256,192,77887,1,8,0:0:0:0:
256,192,77975,1,8,0:0:0:0:
256,192,78064,1,0,0:0:0:0:
256,192,78417,1,8,0:0:0:0:
256,192,78770,1,4,0:0:0:0:
256,192,79652,1,0,0:0:0:0:
256,192,79828,1,8,0:0:0:0:
256,192,80005,1,8,0:0:0:0:
256,192,80181,1,4,0:0:0:0:
256,192,80711,1,0,0:0:0:0:
256,192,80799,1,0,0:0:0:0:
256,192,80887,1,8,0:0:0:0:
256,192,81152,1,0,0:0:0:0:
256,192,81417,1,0,0:0:0:0:
256,192,81505,1,0,0:0:0:0:
256,192,81593,1,8,0:0:0:0:
256,192,81770,1,8,0:0:0:0:
256,192,81946,1,0,0:0:0:0:
256,192,82299,1,0,0:0:0:0:
256,192,82652,1,8,0:0:0:0:
256,192,83005,1,8,0:0:0:0:
256,192,83534,1,8,0:0:0:0:
256,192,83622,1,0,0:0:0:0:
256,192,83711,1,8,0:0:0:0:
256,192,83975,1,8,0:0:0:0:
256,192,84240,1,0,0:0:0:0:
256,192,84417,1,0,0:0:0:0:
256,192,84593,1,8,0:0:0:0:
256,192,84770,1,0,0:0:0:0:
256,192,85122,1,0,0:0:0:0:
256,192,85299,1,8,0:0:0:0:
256,192,85475,1,0,0:0:0:0:
256,192,85652,1,0,0:0:0:0:
256,192,85828,1,8,0:0:0:0:
256,192,86358,1,0,0:0:0:0:
256,192,86446,1,0,0:0:0:0:
256,192,86534,1,8,0:0:0:0:
256,192,86799,1,0,0:0:0:0:
256,192,87064,1,0,0:0:0:0:
256,192,87152,1,0,0:0:0:0:
256,192,87240,1,8,0:0:0:0:
256,192,87417,1,8,0:0:0:0:
256,192,87593,1,0,0:0:0:0:
256,192,87946,1,0,0:0:0:0:
256,192,88299,1,8,0:0:0:0:
256,192,88652,1,8,0:0:0:0:
256,192,89181,1,0,0:0:0:0:
256,192,89270,1,8,0:0:0:0:
256,192,89358,1,8,0:0:0:0:
256,192,89622,1,8,0:0:0:0:
256,192,89887,1,8,0:0:0:0:
256,192,90064,1,8,0:0:0:0:
256,192,90240,1,0,0:0:0:0:
256,192,90417,1,8,0:0:0:0:
256,192,90770,1,8,0:0:0:0:
256,192,90946,1,0,0:0:0:0:
256,192,91122,1,8,0:0:0:0:
256,192,91299,1,8,0:0:0:0:
256,192,91475,1,4,0:0:0:0:
256,192,91828,1,8,0:0:0:0:
256,192,92005,1,0,0:0:0:0:
256,192,92093,1,0,0:0:0:0:
256,192,92181,1,8,0:0:0:0:
256,192,92446,1,0,0:0:0:0:
256,192,92711,1,0,0:0:0:0:
256,192,92799,1,0,0:0:0:0:
256,192,92887,1,8,0:0:0:0:
256,192,93064,1,8,0:0:0:0:
256,192,93240,1,0,0:0:0:0:
256,192,93593,1,0,0:0:0:0:
256,192,93946,1,8,0:0:0:0:
256,192,94299,1,8,0:0:0:0:
256,192,94652,1,0,0:0:0:0:
256,192,94828,1,8,0:0:0:0:
256,192,94917,1,0,0:0:0:0:
256,192,95005,1,8,0:0:0:0:
256,192,95270,1,8,0:0:0:0:
256,192,95534,1,0,0:0:0:0:
256,192,95711,1,8,0:0:0:0:
256,192,95887,1,8,0:0:0:0:
256,192,96064,1,0,0:0:0:0:
256,192,96417,1,0,0:0:0:0:
256,192,96593,1,8,0:0:0:0:
256,192,96770,1,0,0:0:0:0:
256,192,96946,1,0,0:0:0:0:
256,192,97122,1,8,0:0:0:0:
256,192,97475,1,8,0:0:0:0:
256,192,97652,1,0,0:0:0:0:
256,192,97740,1,0,0:0:0:0:
256,192,97828,1,8,0:0:0:0:
256,192,98093,1,0,0:0:0:0:
256,192,98358,1,0,0:0:0:0:
256,192,98446,1,0,0:0:0:0:
256,192,98534,1,8,0:0:0:0:
256,192,98711,1,8,0:0:0:0:
256,192,98887,1,0,0:0:0:0:
256,192,99240,1,0,0:0:0:0:
256,192,99593,1,8,0:0:0:0:
256,192,99946,1,8,0:0:0:0:
256,192,100299,1,8,0:0:0:0:
256,192,100475,1,0,0:0:0:0:
256,192,100564,1,8,0:0:0:0:
256,192,100652,1,8,0:0:0:0:
256,192,100917,1,8,0:0:0:0:
256,192,101181,1,8,0:0:0:0:
256,192,101358,1,0,0:0:0:0:
256,192,101534,1,0,0:0:0:0:
256,192,101711,1,0,0:0:0:0:
256,192,101887,1,8,0:0:0:0:
256,192,101975,1,8,0:0:0:0:
256,192,102064,1,0,0:0:0:0:
256,192,102240,1,0,0:0:0:0:
256,192,102417,1,8,0:0:0:0:
256,192,102593,1,0,0:0:0:0:
256,192,102770,1,12,0:0:0:0:
256,192,103122,1,0,0:0:0:0:
256,192,103299,1,0,0:0:0:0:
256,192,103475,1,8,0:0:0:0:
256,192,103828,1,8,0:0:0:0:
256,192,104181,1,0,0:0:0:0:
256,192,104446,1,0,0:0:0:0:
256,192,104534,1,8,0:0:0:0:
256,192,104711,1,8,0:0:0:0:
256,192,104887,1,0,0:0:0:0:
256,192,105064,1,0,0:0:0:0:
256,192,105240,1,8,0:0:0:0:
256,192,105593,1,0,0:0:0:0:
256,192,105946,1,8,0:0:0:0:
256,192,106122,1,0,0:0:0:0:
256,192,106299,1,8,0:0:0:0:
256,192,106652,1,0,0:0:0:0:
256,192,106740,1,8,0:0:0:0:
256,192,106828,1,0,0:0:0:0:
256,192,107005,1,8,0:0:0:0:
256,192,107270,1,0,0:0:0:0:
256,192,107358,1,8,0:0:0:0:
256,192,107534,1,8,0:0:0:0:
256,192,107711,1,0,0:0:0:0:
256,192,107887,1,8,0:0:0:0:
256,192,108064,1,0,0:0:0:0:
256,192,108240,1,8,0:0:0:0:
256,192,108328,1,8,0:0:0:0:
256,192,108417,1,4,0:0:0:0:
256,192,108770,1,0,0:0:0:0:
256,192,108946,1,8,0:0:0:0:
256,192,109299,1,0,0:0:0:0:
256,192,109475,1,8,0:0:0:0:
256,192,109652,1,0,0:0:0:0:
256,192,109828,1,8,0:0:0:0:
256,192,110093,1,0,0:0:0:0:
256,192,110181,1,0,0:0:0:0:
256,192,110358,1,8,0:0:0:0:
256,192,110534,1,0,0:0:0:0:
256,192,110711,1,0,0:0:0:0:
256,192,110887,1,8,0:0:0:0:
256,192,111064,1,0,0:0:0:0:
256,192,111240,1,8,0:0:0:0:
256,192,111505,1,0,0:0:0:0:
256,192,111593,1,8,0:0:0:0:
256,192,111770,1,8,0:0:0:0:
256,192,111946,1,0,0:0:0:0:
256,192,112122,1,0,0:0:0:0:
256,192,112299,1,8,0:0:0:0:
256,192,112652,1,8,0:0:0:0:
256,192,112917,1,0,0:0:0:0:
256,192,113005,1,0,0:0:0:0:
256,192,113181,1,8,0:0:0:0:
256,192,113358,1,8,0:0:0:0:
256,192,113534,1,0,0:0:0:0:
256,192,113711,1,0,0:0:0:0:
256,192,113799,1,8,0:0:0:0:
256,192,113887,1,0,0:0:0:0:
256,192,114064,1,12,0:0:0:0:
256,192,114417,1,0,0:0:0:0:
256,192,114593,1,8,0:0:0:0:
256,192,114681,1,8,0:0:0:0:
256,192,114770,1,0,0:0:0:0:
256,192,114946,1,8,0:0:0:0:
256,192,115122,1,0,0:0:0:0:
256,192,115299,1,8,0:0:0:0:
256,192,115475,1,0,0:0:0:0:
256,192,115652,1,8,0:0:0:0:
256,192,115740,1,0,0:0:0:0:
256,192,115828,1,8,0:0:0:0:
256,192,116005,1,8,0:0:0:0:
256,192,116181,1,0,0:0:0:0:
256,192,116358,1,0,0:0:0:0:
256,192,116534,1,8,0:0:0:0:
256,192,116622,1,0,0:0:0:0:
256,192,116711,1,8,0:0:0:0:
256,192,116799,1,8,0:0:0:0:
256,192,116887,1,4,0:0:0:0:
256,192,117240,1,0,0:0:0:0:
256,192,117417,1,8,0:0:0:0:
256,192,117505,1,8,0:0:0:0:
256,192,117593,1,0,0:0:0:0:
256,192,117770,1,8,0:0:0:0:
256,192,117946,1,0,0:0:0:0:
256,192,118122,1,8,0:0:0:0:
256,192,118211,1,0,0:0:0:0:
256,192,118299,1,8,0:0:0:0:
256,192,118475,1,0,0:0:0:0:
256,192,118652,1,8,0:0:0:0:
256,192,118828,1,8,0:0:0:0:
256,192,119005,1,0,0:0:0:0:
256,192,119181,1,8,0:0:0:0:
256,192,119358,1,0,0:0:0:0:
256,192,119446,1,0,0:0:0:0:
256,192,119534,1,0,0:0:0:0:
256,192,119711,1,12,0:0:0:0:
256,192,120064,1,0,0:0:0:0:
256,192,120240,1,8,0:0:0:0:
256,192,120417,1,0,0:0:0:0:
256,192,120593,1,8,0:0:0:0:
256,192,120681,1,8,0:0:0:0:
256,192,120770,1,0,0:0:0:0:
256,192,120946,1,8,0:0:0:0:
256,192,121122,1,0,0:0:0:0:
256,192,121299,1,8,0:0:0:0:
256,192,121387,1,8,0:0:0:0:
256,192,121475,1,0,0:0:0:0:
256,192,121652,1,0,0:0:0:0:
256,192,121828,1,8,0:0:0:0:
256,192,121917,1,8,0:0:0:0:
256,192,122005,1,0,0:0:0:0:
256,192,122093,1,0,0:0:0:0:
256,192,122181,1,8,0:0:0:0:
256,192,122358,1,0,0:0:0:0:
256,192,122534,1,8,0:0:0:0:
256,192,122622,1,8,0:0:0:0:
256,192,122711,1,0,0:0:0:0:
256,192,122887,1,8,0:0:0:0:
256,192,122975,1,8,0:0:0:0:
256,192,123064,1,0,0:0:0:0:
256,192,123240,1,0,0:0:0:0:
256,192,123328,1,0,0:0:0:0:
256,192,123417,1,0,0:0:0:0:
256,192,123593,1,8,0:0:0:0:
256,192,123681,1,8,0:0:0:0:
256,192,123770,1,0,0:0:0:0:
256,192,123858,1,0,0:0:0:0:
256,192,123946,1,8,0:0:0:0:
256,192,124122,1,0,0:0:0:0:
256,192,124299,1,8,0:0:0:0:
256,192,124475,1,0,0:0:0:0:
256,192,124652,1,8,0:0:0:0:
256,192,124740,1,8,0:0:0:0:
256,192,124828,1,8,0:0:0:0:
256,192,125005,1,0,0:0:0:0:
118,161,125358,2,0,L|223:125,1,105.000004005432
256,192,125711,1,4,0:0:0:0:
256,192,125887,1,8,0:0:0:0:
256,192,126064,1,0,0:0:0:0:
256,192,126152,1,0,0:0:0:0:
256,192,126240,1,8,0:0:0:0:
256,192,126328,1,0,0:0:0:0:
256,192,126417,1,8,0:0:0:0:
256,192,126505,1,8,0:0:0:0:
256,192,126593,1,0,0:0:0:0:
256,192,126770,1,0,0:0:0:0:
256,192,126946,1,8,0:0:0:0:
256,192,127122,1,8,0:0:0:0:
256,192,127211,1,8,0:0:0:0:
256,192,127299,1,0,0:0:0:0:
256,192,127387,1,0,0:0:0:0:
256,192,127475,1,8,0:0:0:0:
256,192,127652,1,0,0:0:0:0:
256,192,127828,1,8,0:0:0:0:
256,192,127917,1,0,0:0:0:0:
256,192,128005,1,0,0:0:0:0:
256,192,128093,1,0,0:0:0:0:
256,192,128181,1,8,0:0:0:0:
256,192,128534,1,0,0:0:0:0:
256,192,128622,1,0,0:0:0:0:
256,192,128711,1,8,0:0:0:0:
256,192,128887,1,0,0:0:0:0:
256,192,128975,1,0,0:0:0:0:
256,192,129064,1,8,0:0:0:0:
256,192,129152,1,8,0:0:0:0:
256,192,129240,1,0,0:0:0:0:
256,192,129417,1,8,0:0:0:0:
256,192,129505,1,8,0:0:0:0:
256,192,129593,1,0,0:0:0:0:
256,192,129770,1,0,0:0:0:0:
256,192,129946,1,8,0:0:0:0:
256,192,130122,1,0,0:0:0:0:
256,192,130299,1,8,0:0:0:0:
256,192,130475,1,0,0:0:0:0:
256,192,130564,1,8,0:0:0:0:
256,192,130652,1,0,0:0:0:0:
256,192,130740,1,0,0:0:0:0:
256,192,130828,1,8,0:0:0:0:
256,192,131005,1,0,0:0:0:0:
256,192,131358,1,12,0:0:0:0:
256,192,131534,1,0,0:0:0:0:
256,192,131711,1,8,0:0:0:0:
256,192,131799,1,8,0:0:0:0:
256,192,131887,1,0,0:0:0:0:
256,192,131975,1,8,0:0:0:0:
256,192,132064,1,0,0:0:0:0:
256,192,132152,1,0,0:0:0:0:
256,192,132240,1,8,0:0:0:0:
256,192,132417,1,0,0:0:0:0:
256,192,132593,1,8,0:0:0:0:
256,192,132770,1,8,0:0:0:0:
256,192,132858,1,8,0:0:0:0:
256,192,132946,1,0,0:0:0:0:
256,192,133034,1,8,0:0:0:0:
256,192,133122,1,0,0:0:0:0:
256,192,133299,1,8,0:0:0:0:
256,192,133475,1,8,0:0:0:0:
256,192,133652,1,0,0:0:0:0:
256,192,133828,1,8,0:0:0:0:
256,192,134181,1,0,0:0:0:0:
256,192,134358,1,8,0:0:0:0:
256,192,134446,1,0,0:0:0:0:
256,192,134534,1,8,0:0:0:0:
256,192,134799,1,8,0:0:0:0:
256,192,135064,1,0,0:0:0:0:
256,192,135152,1,0,0:0:0:0:
256,192,135240,1,8,0:0:0:0:
256,192,135417,1,0,0:0:0:0:
256,192,135593,1,8,0:0:0:0:
256,192,135946,1,8,0:0:0:0:
256,192,136299,1,8,0:0:0:0:
256,192,136387,1,0,0:0:0:0:
256,192,136475,1,8,0:0:0:0:
256,192,136564,1,8,0:0:0:0:
256,192,136652,1,0,0:0:0:0:
256,192,137005,1,4,0:0:0:0:
256,192,137181,1,8,0:0:0:0:
256,192,137358,1,0,0:0:0:0:
256,192,137446,1,0,0:0:0:0:
256,192,137534,1,8,0:0:0:0:
256,192,137622,1,0,0:0:0:0:
256,192,137711,1,8,0:0:0:0:
256,192,137799,1,8,0:0:0:0:
256,192,137887,1,0,0:0:0:0:
256,192,138064,1,0,0:0:0:0:
256,192,138240,1,8,0:0:0:0:
256,192,138417,1,8,0:0:0:0:
256,192,138505,1,8,0:0:0:0:
256,192,138593,1,0,0:0:0:0:
256,192,138681,1,0,0:0:0:0:
256,192,138770,1,8,0:0:0:0:
256,192,138946,1,0,0:0:0:0:
256,192,139122,1,8,0:0:0:0:
256,192,139211,1,0,0:0:0:0:
256,192,139299,1,0,0:0:0:0:
256,192,139387,1,0,0:0:0:0:
256,192,139475,1,8,0:0:0:0:
256,192,139828,1,0,0:0:0:0:
256,192,139917,1,0,0:0:0:0:
256,192,140005,1,8,0:0:0:0:
256,192,140181,1,0,0:0:0:0:
256,192,140270,1,0,0:0:0:0:
256,192,140358,1,8,0:0:0:0:
256,192,140446,1,8,0:0:0:0:
256,192,140534,1,0,0:0:0:0:
256,192,140711,1,8,0:0:0:0:
256,192,140799,1,8,0:0:0:0:
256,192,140887,1,0,0:0:0:0:
256,192,141064,1,0,0:0:0:0:
256,192,141240,1,8,0:0:0:0:
256,192,141417,1,0,0:0:0:0:
256,192,141593,1,8,0:0:0:0:
256,192,141770,1,0,0:0:0:0:
256,192,141858,1,8,0:0:0:0:
256,192,141946,1,0,0:0:0:0:
256,192,142034,1,0,0:0:0:0:
256,192,142122,1,8,0:0:0:0:
256,192,142299,1,0,0:0:0:0:
256,192,142652,1,4,0:0:0:0:
256,192,142828,1,8,0:0:0:0:
256,192,143005,1,0,0:0:0:0:
256,192,143181,1,8,0:0:0:0:
256,192,143270,1,8,0:0:0:0:
256,192,143358,1,0,0:0:0:0:
256,192,143446,1,0,0:0:0:0:
256,192,143534,1,8,0:0:0:0:
256,192,143711,1,0,0:0:0:0:
256,192,143799,1,0,0:0:0:0:
256,192,143887,1,8,0:0:0:0:
256,192,144064,1,0,0:0:0:0:
256,192,144152,1,0,0:0:0:0:
256,192,144240,1,8,0:0:0:0:
256,192,144328,1,8,0:0:0:0:
256,192,144417,1,0,0:0:0:0:
256,192,144505,1,0,0:0:0:0:
256,192,144593,1,8,0:0:0:0:
256,192,144770,1,8,0:0:0:0:
256,192,144946,1,0,0:0:0:0:
256,192,145122,1,12,0:0:0:0:
256,192,145475,1,0,0:0:0:0:
256,192,145652,1,8,0:0:0:0:
256,192,145740,1,0,0:0:0:0:
256,192,145828,1,8,0:0:0:0:
256,192,146093,1,8,0:0:0:0:
256,192,146358,1,0,0:0:0:0:
256,192,146534,1,8,0:0:0:0:
256,192,146711,1,8,0:0:0:0:
256,192,146887,1,0,0:0:0:0:
256,192,147152,1,8,0:0:0:0:
256,192,147240,1,0,0:0:0:0:
256,192,147593,1,0,0:0:0:0:
256,192,147681,1,0,0:0:0:0:
256,192,147770,1,8,0:0:0:0:
256,192,147946,1,0,0:0:0:0:
256,192,148299,1,12,0:0:0:0:
256,192,148475,1,8,0:0:0:0:
256,192,148652,1,0,0:0:0:0:
256,192,148740,1,0,0:0:0:0:
256,192,148828,1,8,0:0:0:0:
256,192,148917,1,8,0:0:0:0:
256,192,149005,1,0,0:0:0:0:
256,192,149093,1,0,0:0:0:0:
256,192,149181,1,8,0:0:0:0:
256,192,149358,1,0,0:0:0:0:
256,192,149534,1,8,0:0:0:0:
256,192,149711,1,8,0:0:0:0:
256,192,149799,1,8,0:0:0:0:
256,192,149887,1,0,0:0:0:0:
256,192,149975,1,0,0:0:0:0:
256,192,150064,1,8,0:0:0:0:
256,192,150240,1,0,0:0:0:0:
256,192,150417,1,8,0:0:0:0:
256,192,150505,1,8,0:0:0:0:
256,192,150593,1,0,0:0:0:0:
256,192,150681,1,0,0:0:0:0:
256,192,150770,1,8,0:0:0:0:
256,192,151122,1,0,0:0:0:0:
256,192,151211,1,0,0:0:0:0:
256,192,151299,1,8,0:0:0:0:
256,192,151475,1,0,0:0:0:0:
256,192,151564,1,8,0:0:0:0:
256,192,151652,1,0,0:0:0:0:
256,192,151740,1,0,0:0:0:0:
256,192,151828,1,8,0:0:0:0:
256,192,151917,1,8,0:0:0:0:
256,192,152005,1,0,0:0:0:0:
256,192,152181,1,0,0:0:0:0:
256,192,152358,1,0,0:0:0:0:
256,192,152534,1,8,0:0:0:0:
256,192,152622,1,0,0:0:0:0:
256,192,152711,1,0,0:0:0:0:
256,192,152799,1,0,0:0:0:0:
256,192,152887,1,8,0:0:0:0:
256,192,153064,1,0,0:0:0:0:
256,192,153240,1,8,0:0:0:0:
256,192,153328,1,8,0:0:0:0:
256,192,153417,1,0,0:0:0:0:
256,192,153593,1,12,0:0:0:0:
256,192,153770,1,8,0:0:0:0:
256,192,153946,1,0,0:0:0:0:
256,192,154034,1,0,0:0:0:0:
256,192,154122,1,8,0:0:0:0:
256,192,154299,1,8,0:0:0:0:
256,192,154387,1,0,0:0:0:0:
256,192,154475,1,8,0:0:0:0:
256,192,154564,1,8,0:0:0:0:
256,192,154652,1,0,0:0:0:0:
256,192,154828,1,0,0:0:0:0:
256,192,155005,1,8,0:0:0:0:
256,192,155093,1,0,0:0:0:0:
256,192,155181,1,8,0:0:0:0:
256,192,155358,1,0,0:0:0:0:
256,192,155446,1,0,0:0:0:0:
256,192,155534,1,8,0:0:0:0:
256,192,155711,1,8,0:0:0:0:
256,192,155799,1,0,0:0:0:0:
256,192,155887,1,8,0:0:0:0:
256,192,155975,1,8,0:0:0:0:
256,192,156064,1,0,0:0:0:0:
256,192,156240,1,0,0:0:0:0:
256,192,156417,1,8,0:0:0:0:
256,192,156505,1,0,0:0:0:0:
256,192,156593,1,8,0:0:0:0:
256,192,156681,1,0,0:0:0:0:
256,192,156770,1,8,0:0:0:0:
256,192,156858,1,0,0:0:0:0:
256,192,156946,1,8,0:0:0:0:
256,192,157034,1,8,0:0:0:0:
256,192,157122,1,0,0:0:0:0:
256,192,157299,1,8,0:0:0:0:
256,192,157475,1,0,0:0:0:0:
256,192,157652,1,8,0:0:0:0:
256,192,157828,1,0,0:0:0:0:
256,192,158181,1,0,0:0:0:0:
256,192,158358,1,8,0:0:0:0:
256,192,158446,1,8,0:0:0:0:
256,192,158534,1,0,0:0:0:0:
256,192,158622,1,8,0:0:0:0:
256,192,158711,1,0,0:0:0:0:
256,192,158887,1,8,0:0:0:0:
256,192,159064,1,8,0:0:0:0:
256,192,159240,1,4,0:0:0:0:
256,192,159593,1,0,0:0:0:0:
256,192,159770,1,8,0:0:0:0:
256,192,159946,1,0,0:0:0:0:
256,192,160211,1,8,0:0:0:0:
256,192,160299,1,0,0:0:0:0:
256,192,160475,1,8,0:0:0:0:
256,192,160652,1,0,0:0:0:0:
256,192,160917,1,8,0:0:0:0:
256,192,161005,1,0,0:0:0:0:
256,192,161181,1,8,0:0:0:0:
256,192,161358,1,0,0:0:0:0:
256,192,161622,1,8,0:0:0:0:
256,192,161711,1,0,0:0:0:0:
256,192,161887,1,8,0:0:0:0:
256,192,162064,1,0,0:0:0:0:
256,192,162328,1,8,0:0:0:0:
256,192,162417,1,0,0:0:0:0:
256,192,162593,1,8,0:0:0:0:
256,192,162770,1,0,0:0:0:0:
256,192,163034,1,8,0:0:0:0:
256,192,163122,1,0,0:0:0:0:
256,192,163299,1,8,0:0:0:0:
256,192,163475,1,0,0:0:0:0:
256,192,163740,1,8,0:0:0:0:
256,192,163828,1,0,0:0:0:0:
256,192,164005,1,8,0:0:0:0:
256,192,164181,1,0,0:0:0:0:
256,192,164446,1,8,0:0:0:0:
256,192,164534,1,0,0:0:0:0:
256,192,164711,1,8,0:0:0:0:
256,192,164799,1,8,0:0:0:0:
256,192,164887,1,4,0:0:0:0:
256,192,165152,1,8,0:0:0:0:
256,192,165240,1,0,0:0:0:0:
256,192,165417,1,8,0:0:0:0:
256,192,165770,1,0,0:0:0:0:
256,192,165858,1,8,0:0:0:0:
256,192,165946,1,0,0:0:0:0:
256,192,166122,1,0,0:0:0:0:
256,192,166299,1,8,0:0:0:0:
256,192,166387,1,8,0:0:0:0:
256,192,166475,1,0,0:0:0:0:
256,192,166564,1,0,0:0:0:0:
256,192,166652,1,8,0:0:0:0:
256,192,166828,1,0,0:0:0:0:
256,192,167005,1,8,0:0:0:0:
256,192,167093,1,8,0:0:0:0:
256,192,167181,1,0,0:0:0:0:
256,192,167270,1,0,0:0:0:0:
256,192,167358,1,8,0:0:0:0:
256,192,167446,1,0,0:0:0:0:
256,192,167534,1,8,0:0:0:0:
256,192,167622,1,8,0:0:0:0:
256,192,167711,1,0,0:0:0:0:
256,192,167887,1,8,0:0:0:0:
256,192,167975,1,8,0:0:0:0:
256,192,168064,1,0,0:0:0:0:
256,192,168240,1,8,0:0:0:0:
256,192,168417,1,0,0:0:0:0:
256,192,168505,1,0,0:0:0:0:
256,192,168593,1,0,0:0:0:0:
256,192,168681,1,0,0:0:0:0:
256,192,168770,1,8,0:0:0:0:
256,192,168858,1,8,0:0:0:0:
256,192,168946,1,8,0:0:0:0:
256,192,169034,1,8,0:0:0:0:
256,192,169122,1,0,0:0:0:0:
256,192,170181,1,0,0:0:0:0:
256,192,170358,1,0,0:0:0:0:
256,192,170534,1,12,0:0:0:0:
256,192,171064,1,8,0:0:0:0:
256,192,171152,1,0,0:0:0:0:
256,192,171240,1,8,0:0:0:0:
256,192,171505,1,8,0:0:0:0:
256,192,171770,1,8,0:0:0:0:
256,192,171858,1,8,0:0:0:0:
256,192,171946,1,0,0:0:0:0:
256,192,172122,1,0,0:0:0:0:
256,192,172299,1,8,0:0:0:0:
256,192,172652,1,0,0:0:0:0:
256,192,173005,1,0,0:0:0:0:
256,192,173358,1,8,0:0:0:0:
256,192,173887,1,0,0:0:0:0:
256,192,173975,1,0,0:0:0:0:
256,192,174064,1,8,0:0:0:0:
256,192,174328,1,0,0:0:0:0:
256,192,174593,1,0,0:0:0:0:
256,192,174770,1,8,0:0:0:0:
256,192,174946,1,8,0:0:0:0:
256,192,175122,1,0,0:0:0:0:
256,192,175475,1,0,0:0:0:0:
256,192,175652,1,8,0:0:0:0:
256,192,175828,1,0,0:0:0:0:
256,192,176005,1,8,0:0:0:0:
256,192,176181,1,8,0:0:0:0:
256,192,176711,1,0,0:0:0:0:
256,192,176799,1,0,0:0:0:0:
256,192,176887,1,8,0:0:0:0:
256,192,177152,1,0,0:0:0:0:
256,192,177417,1,0,0:0:0:0:
256,192,177505,1,0,0:0:0:0:
256,192,177593,1,8,0:0:0:0:
256,192,177770,1,8,0:0:0:0:
256,192,177946,1,0,0:0:0:0:
256,192,178299,1,0,0:0:0:0:
256,192,178652,1,8,0:0:0:0:
256,192,179005,1,8,0:0:0:0:
256,192,179534,1,0,0:0:0:0:
256,192,179622,1,0,0:0:0:0:
256,192,179711,1,8,0:0:0:0:
256,192,179975,1,8,0:0:0:0:
256,192,180240,1,0,0:0:0:0:
256,192,180417,1,8,0:0:0:0:
256,192,180593,1,8,0:0:0:0:
256,192,180770,1,8,0:0:0:0:
256,192,181122,1,0,0:0:0:0:
256,192,181299,1,8,0:0:0:0:
256,192,181475,1,0,0:0:0:0:
256,192,181652,1,8,0:0:0:0:
256,192,181828,1,4,0:0:0:0:
256,192,182181,1,8,0:0:0:0:
256,192,182358,1,0,0:0:0:0:
256,192,182446,1,0,0:0:0:0:
256,192,182534,1,8,0:0:0:0:
256,192,182799,1,0,0:0:0:0:
256,192,182887,1,8,0:0:0:0:
256,192,183064,1,0,0:0:0:0:
256,192,183152,1,0,0:0:0:0:
256,192,183240,1,8,0:0:0:0:
256,192,183417,1,8,0:0:0:0:
256,192,183505,1,0,0:0:0:0:
256,192,183593,1,8,0:0:0:0:
256,192,183770,1,0,0:0:0:0:
256,192,183946,1,8,0:0:0:0:
256,192,184211,1,0,0:0:0:0:
256,192,184299,1,8,0:0:0:0:
256,192,184475,1,0,0:0:0:0:
256,192,184564,1,0,0:0:0:0:
256,192,184652,1,8,0:0:0:0:
256,192,184917,1,0,0:0:0:0:
256,192,185005,1,0,0:0:0:0:
256,192,185181,1,8,0:0:0:0:
256,192,185270,1,0,0:0:0:0:
256,192,185358,1,8,0:0:0:0:
256,192,185622,1,8,0:0:0:0:
256,192,185711,1,0,0:0:0:0:
256,192,185887,1,8,0:0:0:0:
256,192,186064,1,8,0:0:0:0:
256,192,186240,1,8,0:0:0:0:
256,192,186328,1,8,0:0:0:0:
256,192,186417,1,0,0:0:0:0:
256,192,186593,1,0,0:0:0:0:
256,192,186770,1,8,0:0:0:0:
256,192,186946,1,8,0:0:0:0:
256,192,187034,1,8,0:0:0:0:
256,192,187122,1,0,0:0:0:0:
256,192,187299,1,0,0:0:0:0:
256,192,187475,5,12,0:0:0:0:
256,192,187652,1,0,0:0:0:0:
256,192,187828,1,0,0:0:0:0:
256,192,188005,1,8,0:0:0:0:
256,192,188093,1,8,0:0:0:0:
256,192,188181,1,0,0:0:0:0:
256,192,188358,1,8,0:0:0:0:
256,192,188534,1,0,0:0:0:0:
256,192,188711,1,8,0:0:0:0:
256,192,188799,1,0,0:0:0:0:
256,192,188887,1,8,0:0:0:0:
256,192,188975,1,8,0:0:0:0:
256,192,189064,1,0,0:0:0:0:
256,192,189152,1,0,0:0:0:0:
256,192,189240,1,8,0:0:0:0:
256,192,189328,1,8,0:0:0:0:
256,192,189417,1,0,0:0:0:0:
256,192,189593,1,8,0:0:0:0:
256,192,189681,1,8,0:0:0:0:
256,192,189770,1,0,0:0:0:0:
256,192,189946,1,8,0:0:0:0:
256,192,190034,1,8,0:0:0:0:
256,192,190122,1,8,0:0:0:0:
256,192,190211,1,8,0:0:0:0:
256,192,190299,1,4,0:0:0:0:
256,192,190652,1,0,0:0:0:0:
256,192,190828,1,0,0:0:0:0:
256,192,190917,1,8,0:0:0:0:
256,192,191005,1,8,0:0:0:0:
256,192,191270,1,0,0:0:0:0:
256,192,191534,1,0,0:0:0:0:
256,192,191711,1,8,0:0:0:0:
256,192,191887,1,8,0:0:0:0:
256,192,192064,1,0,0:0:0:0:
256,192,192240,1,8,0:0:0:0:
256,192,192328,1,0,0:0:0:0:
256,192,192417,1,8,0:0:0:0:
256,192,192593,1,8,0:0:0:0:
256,192,192770,1,0,0:0:0:0:
256,192,192946,1,0,0:0:0:0:
256,192,193122,1,12,0:0:0:0:
256,192,193475,1,0,0:0:0:0:
256,192,193652,1,8,0:0:0:0:
256,192,193740,1,0,0:0:0:0:
256,192,193828,1,8,0:0:0:0:
256,192,194093,1,8,0:0:0:0:
256,192,194181,1,0,0:0:0:0:
256,192,194358,1,0,0:0:0:0:
256,192,194446,1,0,0:0:0:0:
256,192,194534,1,8,0:0:0:0:
256,192,194711,1,8,0:0:0:0:
256,192,194887,1,0,0:0:0:0:
256,192,195064,1,8,0:0:0:0:
256,192,195240,1,0,0:0:0:0:
256,192,195328,1,0,0:0:0:0:
256,192,195417,1,0,0:0:0:0:
256,192,195593,1,8,0:0:0:0:
256,192,195681,1,8,0:0:0:0:
256,192,195770,1,0,0:0:0:0:
256,192,195858,1,0,0:0:0:0:
256,192,195946,1,12,0:0:0:0:
256,192,196299,1,0,0:0:0:0:
256,192,196475,1,8,0:0:0:0:
256,192,196564,1,0,0:0:0:0:
256,192,196652,1,8,0:0:0:0:
256,192,196917,1,8,0:0:0:0:
256,192,197005,1,0,0:0:0:0:
256,192,197181,1,0,0:0:0:0:
256,192,197358,1,8,0:0:0:0:
256,192,197446,1,8,0:0:0:0:
256,192,197534,1,0,0:0:0:0:
256,192,197711,1,0,0:0:0:0:
256,192,197887,1,8,0:0:0:0:
256,192,198064,1,0,0:0:0:0:
256,192,198152,1,0,0:0:0:0:
256,192,198240,1,8,0:0:0:0:
256,192,198417,1,0,0:0:0:0:
256,192,198505,1,8,0:0:0:0:
256,192,198593,1,0,0:0:0:0:
256,192,198681,1,0,0:0:0:0:
256,192,198770,1,12,0:0:0:0:
256,192,199122,1,0,0:0:0:0:
256,192,199299,1,0,0:0:0:0:
256,192,199387,1,0,0:0:0:0:
256,192,199475,1,8,0:0:0:0:
256,192,199740,1,0,0:0:0:0:
256,192,199828,1,8,0:0:0:0:
256,192,200005,1,8,0:0:0:0:
256,192,200093,1,8,0:0:0:0:
256,192,200181,1,0,0:0:0:0:
256,192,200358,1,8,0:0:0:0:
256,192,200534,1,0,0:0:0:0:
256,192,200711,1,8,0:0:0:0:
256,192,200887,1,0,0:0:0:0:
256,192,200975,1,0,0:0:0:0:
256,192,201064,1,0,0:0:0:0:
256,192,201240,1,8,0:0:0:0:
256,192,201328,1,8,0:0:0:0:
256,192,201417,1,0,0:0:0:0:
256,192,201505,1,0,0:0:0:0:
256,192,201593,1,12,0:0:0:0:
256,192,201946,1,0,0:0:0:0:
256,192,202122,1,8,0:0:0:0:
256,192,202211,1,8,0:0:0:0:
256,192,202299,1,8,0:0:0:0:
256,192,202564,1,8,0:0:0:0:
256,192,202652,1,0,0:0:0:0:
256,192,202828,1,0,0:0:0:0:
256,192,203005,1,8,0:0:0:0:
256,192,203093,1,8,0:0:0:0:
256,192,203181,1,8,0:0:0:0:
256,192,203358,1,0,0:0:0:0:
256,192,203711,1,0,0:0:0:0:
256,192,203799,1,0,0:0:0:0:
256,192,203887,1,8,0:0:0:0:
256,192,204064,1,8,0:0:0:0:
256,192,204152,1,8,0:0:0:0:
256,192,204240,1,8,0:0:0:0:
256,192,204417,1,4,0:0:0:0:
256,192,204770,1,0,0:0:0:0:
256,192,204946,1,8,0:0:0:0:
256,192,205034,1,0,0:0:0:0:
256,192,205122,1,8,0:0:0:0:
256,192,205387,1,8,0:0:0:0:
256,192,205475,1,0,0:0:0:0:
256,192,205652,1,0,0:0:0:0:
256,192,205740,1,0,0:0:0:0:
256,192,205828,1,8,0:0:0:0:
256,192,206005,1,8,0:0:0:0:
256,192,206181,1,0,0:0:0:0:
256,192,206358,1,8,0:0:0:0:
256,192,206534,1,0,0:0:0:0:
256,192,206622,1,0,0:0:0:0:
256,192,206711,1,0,0:0:0:0:
256,192,206887,1,8,0:0:0:0:
256,192,206975,1,8,0:0:0:0:
256,192,207064,1,0,0:0:0:0:
256,192,207152,1,0,0:0:0:0:
256,192,207240,1,12,0:0:0:0:
256,192,207593,1,0,0:0:0:0:
256,192,207770,1,8,0:0:0:0:
256,192,207858,1,0,0:0:0:0:
256,192,207946,1,8,0:0:0:0:
256,192,208211,1,8,0:0:0:0:
256,192,208299,1,0,0:0:0:0:
256,192,208475,1,0,0:0:0:0:
256,192,208652,1,8,0:0:0:0:
256,192,208740,1,0,0:0:0:0:
256,192,208828,1,8,0:0:0:0:
256,192,209005,1,0,0:0:0:0:
256,192,209358,1,0,0:0:0:0:
256,192,209446,1,0,0:0:0:0:
256,192,209534,1,8,0:0:0:0:
256,192,209711,1,0,0:0:0:0:
256,192,209799,1,8,0:0:0:0:
256,192,209887,1,0,0:0:0:0:
256,192,209975,1,0,0:0:0:0:
256,192,210064,1,12,0:0:0:0:
256,192,210417,1,8,0:0:0:0:
256,192,210593,1,0,0:0:0:0:
256,192,210681,1,0,0:0:0:0:
256,192,210770,1,8,0:0:0:0:
256,192,211034,1,0,0:0:0:0:
256,192,211122,1,8,0:0:0:0:
256,192,211299,1,8,0:0:0:0:
256,192,211387,1,8,0:0:0:0:
256,192,211475,1,0,0:0:0:0:
256,192,211652,1,8,0:0:0:0:
256,192,211828,1,0,0:0:0:0:
256,192,212005,1,8,0:0:0:0:
256,192,212181,1,0,0:0:0:0:
256,192,212270,1,0,0:0:0:0:
256,192,212358,1,0,0:0:0:0:
256,192,212534,1,8,0:0:0:0:
256,192,212622,1,8,0:0:0:0:
256,192,212711,1,0,0:0:0:0:
256,192,212799,1,0,0:0:0:0:
256,192,212887,1,12,0:0:0:0:
256,192,213240,1,0,0:0:0:0:
256,192,213417,1,8,0:0:0:0:
256,192,213505,1,8,0:0:0:0:
256,192,213593,1,8,0:0:0:0:
256,192,213858,1,8,0:0:0:0:
256,192,213946,1,0,0:0:0:0:
256,192,214122,1,0,0:0:0:0:
256,192,214299,1,8,0:0:0:0:
256,192,214387,1,0,0:0:0:0:
256,192,214475,1,8,0:0:0:0:
256,192,214652,1,0,0:0:0:0:
256,192,215005,1,0,0:0:0:0:
256,192,215093,1,0,0:0:0:0:
256,192,215181,1,0,0:0:0:0:
256,192,215358,1,8,0:0:0:0:
256,192,215534,1,8,0:0:0:0:
256,192,215711,1,4,0:0:0:0:
256,192,216064,1,8,0:0:0:0:
256,192,216240,1,0,0:0:0:0:
256,192,216328,1,0,0:0:0:0:
256,192,216417,1,8,0:0:0:0:
256,192,216770,1,0,0:0:0:0:
256,192,216946,1,8,0:0:0:0:
256,192,217034,1,0,0:0:0:0:
256,192,217122,1,8,0:0:0:0:
256,192,217299,1,8,0:0:0:0:
256,192,217475,1,0,0:0:0:0:
256,192,217652,1,0,0:0:0:0:
256,192,217828,1,8,0:0:0:0:
256,192,218181,1,0,0:0:0:0:
256,192,218534,1,8,0:0:0:0:
256,192,218887,1,0,0:0:0:0:
256,192,219064,1,0,0:0:0:0:
256,192,219152,1,0,0:0:0:0:
256,192,219240,1,8,0:0:0:0:
256,192,219417,1,0,0:0:0:0:
224,192,219505,1,0,0:0:0:0:
256,192,219593,1,8,0:0:0:0:
256,192,219770,1,0,0:0:0:0:
256,192,219858,1,0,0:0:0:0:
256,192,219946,1,8,0:0:0:0:
256,192,220122,1,8,0:0:0:0:
256,192,220299,1,0,0:0:0:0:
256,192,220652,1,8,0:0:0:0:
256,192,220828,1,0,0:0:0:0:
256,192,221005,1,0,0:0:0:0:
256,192,221181,1,8,0:0:0:0:
256,192,221270,1,0,0:0:0:0:
256,192,221358,1,8,0:0:0:0:
256,192,221711,1,0,0:0:0:0:
256,192,221887,1,8,0:0:0:0:
256,192,221975,1,8,0:0:0:0:
256,192,222064,1,0,0:0:0:0:
256,192,222417,1,8,0:0:0:0:
256,192,222593,1,0,0:0:0:0:
256,192,222681,1,0,0:0:0:0:
256,192,222770,1,8,0:0:0:0:
256,192,222946,1,8,0:0:0:0:
256,192,223122,1,0,0:0:0:0:
256,192,223475,1,0,0:0:0:0:
256,192,223828,1,8,0:0:0:0:
256,192,224181,1,8,0:0:0:0:
256,192,224534,1,0,0:0:0:0:
256,192,224711,1,8,0:0:0:0:
256,192,224799,1,8,0:0:0:0:
256,192,224887,1,0,0:0:0:0:
256,192,225152,1,0,0:0:0:0:
256,192,225240,1,8,0:0:0:0:
256,192,225417,1,0,0:0:0:0:
256,192,225593,1,8,0:0:0:0:
256,192,225770,1,8,0:0:0:0:
256,192,225946,1,0,0:0:0:0:
256,192,226299,1,0,0:0:0:0:
256,192,226475,1,8,0:0:0:0:
256,192,226652,1,0,0:0:0:0:
256,192,226828,1,0,0:0:0:0:
256,192,227005,1,12,0:0:0:0:
256,192,227358,1,0,0:0:0:0:
256,192,227534,1,8,0:0:0:0:
256,192,227622,1,0,0:0:0:0:
256,192,227711,1,8,0:0:0:0:
256,192,227975,1,8,0:0:0:0:
256,192,228064,1,0,0:0:0:0:
256,192,228240,1,0,0:0:0:0:
256,192,228328,1,0,0:0:0:0:
256,192,228417,1,8,0:0:0:0:
256,192,228593,1,8,0:0:0:0:
256,192,228770,1,0,0:0:0:0:
256,192,228946,1,0,0:0:0:0:
256,192,229122,1,8,0:0:0:0:
256,192,229211,1,8,0:0:0:0:
256,192,229299,1,0,0:0:0:0:
256,192,229475,1,0,0:0:0:0:
256,192,229564,1,8,0:0:0:0:
256,192,229652,1,0,0:0:0:0:
256,192,229740,1,0,0:0:0:0:
256,192,229828,1,8,0:0:0:0:
256,192,230181,1,0,0:0:0:0:
256,192,230358,1,8,0:0:0:0:
256,192,230446,1,0,0:0:0:0:
256,192,230534,1,8,0:0:0:0:
256,192,230711,1,0,0:0:0:0:
256,192,230799,1,8,0:0:0:0:
256,192,230887,1,0,0:0:0:0:
256,192,231064,1,0,0:0:0:0:
256,192,231240,1,8,0:0:0:0:
256,192,231328,1,0,0:0:0:0:
256,192,231417,1,8,0:0:0:0:
256,192,231505,1,8,0:0:0:0:
256,192,231593,1,0,0:0:0:0:
256,192,231946,1,0,0:0:0:0:
256,192,232034,1,0,0:0:0:0:
256,192,232122,1,8,0:0:0:0:
256,192,232299,1,0,0:0:0:0:
256,192,232387,1,8,0:0:0:0:
256,192,232475,1,0,0:0:0:0:
256,192,232564,1,0,0:0:0:0:
256,192,232652,1,12,0:0:0:0:
256,192,233005,1,8,0:0:0:0:
256,192,233181,1,0,0:0:0:0:
256,192,233270,1,0,0:0:0:0:
256,192,233358,1,8,0:0:0:0:
256,192,233534,1,8,0:0:0:0:
256,192,233622,1,0,0:0:0:0:
256,192,233711,1,8,0:0:0:0:
256,192,233887,1,8,0:0:0:0:
256,192,233975,1,8,0:0:0:0:
256,192,234064,1,0,0:0:0:0:
256,192,234240,1,8,0:0:0:0:
256,192,234417,1,0,0:0:0:0:
256,192,234593,1,0,0:0:0:0:
256,192,234770,1,8,0:0:0:0:
256,192,234858,1,8,0:0:0:0:
256,192,234946,1,0,0:0:0:0:
256,192,235122,1,8,0:0:0:0:
256,192,235211,1,0,0:0:0:0:
256,192,235299,1,0,0:0:0:0:
256,192,235387,1,0,0:0:0:0:
256,192,235475,1,12,0:0:0:0:
256,192,236005,1,0,0:0:0:0:
256,192,236093,1,8,0:0:0:0:
256,192,236181,1,0,0:0:0:0:
256,192,236446,1,8,0:0:0:0:
256,192,236711,1,8,0:0:0:0:
256,192,236887,1,8,0:0:0:0:
256,192,237064,1,0,0:0:0:0:
256,192,237240,1,0,0:0:0:0:
256,192,237417,1,8,0:0:0:0:
256,192,237505,1,8,0:0:0:0:
256,192,237593,1,0,0:0:0:0:
256,192,237946,1,8,0:0:0:0:
256,192,238122,1,0,0:0:0:0:
256,192,238299,1,12,0:0:0:0:
256,192,238564,1,0,0:0:0:0:
256,192,238652,1,8,0:0:0:0:
256,192,238828,1,0,0:0:0:0:
256,192,239005,1,8,0:0:0:0:
256,192,239270,1,0,0:0:0:0:
256,192,239358,1,8,0:0:0:0:
256,192,239534,1,0,0:0:0:0:
256,192,239711,1,8,0:0:0:0:
256,192,239975,1,0,0:0:0:0:
256,192,240064,1,8,0:0:0:0:
256,192,240240,1,0,0:0:0:0:
256,192,240417,1,8,0:0:0:0:
256,192,240681,1,0,0:0:0:0:
256,192,240770,1,8,0:0:0:0:
256,192,240946,1,0,0:0:0:0:
256,192,241122,1,8,0:0:0:0:
256,192,241387,1,0,0:0:0:0:
256,192,241475,1,8,0:0:0:0:
256,192,241652,1,0,0:0:0:0:
256,192,241828,1,8,0:0:0:0:
256,192,242093,1,0,0:0:0:0:
256,192,242181,1,8,0:0:0:0:
245,183,242358,1,0,0:0:0:0:
256,192,242534,1,8,0:0:0:0:
256,192,242799,1,0,0:0:0:0:
256,192,242887,1,8,0:0:0:0:
256,192,243064,1,0,0:0:0:0:
256,192,243240,1,8,0:0:0:0:
256,192,243505,1,0,0:0:0:0:
256,192,243593,1,8,0:0:0:0:
256,192,243946,1,12,0:0:0:0:
256,192,244211,1,0,0:0:0:0:
256,192,244299,1,8,0:0:0:0:
256,192,244475,1,0,0:0:0:0:
256,192,244652,1,8,0:0:0:0:
256,192,244917,1,0,0:0:0:0:
256,192,245005,1,8,0:0:0:0:
256,192,245181,1,0,0:0:0:0:
256,192,245358,1,8,0:0:0:0:
256,192,245622,1,0,0:0:0:0:
256,192,245711,1,8,0:0:0:0:
256,192,245887,1,0,0:0:0:0:
256,192,246064,1,8,0:0:0:0:
256,192,246328,1,0,0:0:0:0:
256,192,246417,1,8,0:0:0:0:
256,192,246593,1,0,0:0:0:0:
256,192,246770,1,8,0:0:0:0:
256,192,247034,1,0,0:0:0:0:
256,192,247122,1,8,0:0:0:0:
256,192,247299,1,0,0:0:0:0:
256,192,247475,1,8,0:0:0:0:
256,192,247740,1,0,0:0:0:0:
256,192,247828,1,8,0:0:0:0:
256,192,248005,1,0,0:0:0:0:
256,192,248181,1,8,0:0:0:0:
256,192,248446,1,0,0:0:0:0:
256,192,248534,1,8,0:0:0:0:
256,192,248711,1,0,0:0:0:0:
256,192,248887,1,8,0:0:0:0:
256,192,249064,1,0,0:0:0:0:
256,192,249240,1,8,0:0:0:0:
256,192,249328,1,0,0:0:0:0:
256,192,249417,1,0,0:0:0:0:
256,192,249505,1,0,0:0:0:0:
256,192,249593,1,12,0:0:0:0:
256,192,249858,1,0,0:0:0:0:
256,192,249946,1,8,0:0:0:0:
256,192,250122,1,0,0:0:0:0:
256,192,250211,1,0,0:0:0:0:
256,192,250299,1,8,0:0:0:0:
256,192,250564,1,0,0:0:0:0:
256,192,250652,1,8,0:0:0:0:
256,192,250828,1,8,0:0:0:0:
256,192,251005,1,0,0:0:0:0:
256,192,251270,1,8,0:0:0:0:
256,192,251358,1,0,0:0:0:0:
256,192,251534,1,8,0:0:0:0:
256,192,251622,1,8,0:0:0:0:
256,192,251711,1,0,0:0:0:0:
256,192,251975,1,0,0:0:0:0:
256,192,252064,1,8,0:0:0:0:
256,192,252240,1,0,0:0:0:0:
256,192,252417,1,8,0:0:0:0:
256,192,252681,1,8,0:0:0:0:
256,192,252770,1,8,0:0:0:0:
256,192,252946,1,0,0:0:0:0:
256,192,253034,1,8,0:0:0:0:
256,192,253122,1,0,0:0:0:0:
256,192,253387,1,8,0:0:0:0:
256,192,253475,1,8,0:0:0:0:
256,192,253652,1,0,0:0:0:0:
256,192,253828,1,8,0:0:0:0:
256,192,254093,1,0,0:0:0:0:
256,192,254181,1,8,0:0:0:0:
256,192,254358,1,0,0:0:0:0:
256,192,254446,1,8,0:0:0:0:
256,192,254534,1,0,0:0:0:0:
256,192,254711,1,0,0:0:0:0:
256,192,254887,1,8,0:0:0:0:
256,192,255064,1,0,0:0:0:0:
256,192,255240,1,8,0:0:0:0:
256,192,255417,1,8,0:0:0:0:
256,192,255505,1,8,0:0:0:0:
256,192,255593,1,0,0:0:0:0:
256,192,255770,1,0,0:0:0:0:
256,192,255946,1,8,0:0:0:0:
256,192,256122,1,0,0:0:0:0:
256,192,256211,1,8,0:0:0:0:
256,192,256299,1,0,0:0:0:0:
256,192,256475,1,0,0:0:0:0:
256,192,256652,1,8,0:0:0:0:
256,192,256828,1,8,0:0:0:0:
256,192,256917,1,8,0:0:0:0:
256,192,257005,1,0,0:0:0:0:
256,192,257181,1,0,0:0:0:0:
256,192,257358,1,8,0:0:0:0:
256,192,257534,1,0,0:0:0:0:
256,192,257622,1,8,0:0:0:0:
256,192,257711,1,0,0:0:0:0:
256,192,257887,1,0,0:0:0:0:
256,192,258064,1,8,0:0:0:0:
256,192,258152,1,8,0:0:0:0:
256,192,258240,1,8,0:0:0:0:
256,192,258417,1,0,0:0:0:0:
256,192,258505,1,0,0:0:0:0:
256,192,258593,1,8,0:0:0:0:
256,192,258681,1,8,0:0:0:0:
256,192,258770,1,0,0:0:0:0:
256,192,258946,1,8,0:0:0:0:
256,192,259122,1,0,0:0:0:0:
256,192,259211,1,8,0:0:0:0:
256,192,259299,1,8,0:0:0:0:
256,192,259387,1,8,0:0:0:0:
256,192,259475,1,0,0:0:0:0:
256,192,260005,1,0,0:0:0:0:
256,192,260093,1,0,0:0:0:0:
256,192,260181,1,8,0:0:0:0:
256,192,260358,1,0,0:0:0:0:
256,192,260534,1,8,0:0:0:0:
256,192,260711,1,8,0:0:0:0:
256,192,260887,1,4,0:0:0:0:
