osu file format v14

[General]
AudioFilename: audio.mp3
AudioLeadIn: 0
PreviewTime: -1
Countdown: 1
SampleSet: Soft
StackLeniency: 0.7
Mode: 0
LetterboxInBreaks: 0
WidescreenStoryboard: 0

[Editor]
Bookmarks: 6086,29717,41532,53348,59255,71071,82886,94702,106517,116855,118332,128671,130148,140486
DistanceSpacing: 1
BeatDivisor: 4
GridSize: 4
TimelineZoom: 1.9

[Metadata]
Title:Rockefeller Street (Nightcore Mix)
TitleUnicode:Rockefeller Street (Nightcore Mix)
Artist:Getter Jaani
ArtistUnicode:Getter Jaani
Creator:WillCookie
Version:one two seven tree
Source:Eurovision Song Contest 2011
Tags:
BeatmapID:1897640
BeatmapSetID:909389

[Difficulty]
HPDrainRate:3
CircleSize:4
OverallDifficulty:7
ApproachRate:8.5
SliderMultiplier:2.2
SliderTickRate:1

[Events]
//Background and Video events
0,0,"g.jpg",0,0
//Break Periods
2,106717,111750
//Storyboard Layer 0 (Background)
//Storyboard Layer 1 (Fail)
//Storyboard Layer 2 (Pass)
//Storyboard Layer 3 (Foreground)
//Storyboard Sound Samples

[TimingPoints]
179,369.230769230769,4,2,0,100,1,0
29717,-66.6666666666667,4,2,0,100,0,0
41532,-50,4,2,0,100,0,1
53348,-66.6666666666667,4,2,0,100,0,0
59255,-80,4,2,0,100,0,0
71071,-57.1428571428571,4,2,0,100,0,0
82886,-40,4,2,0,100,0,1
94702,-50,4,2,0,100,0,0
106517,-133.333333333333,4,2,0,100,0,0
116855,-80,4,2,0,100,0,0
117594,-50,4,2,0,100,0,0
118332,-28.5714285714286,4,2,0,100,0,1
128671,-25,4,2,0,100,0,1
129409,-22.2222222222222,4,2,0,100,0,1
130148,-20,4,2,0,100,0,1
140486,-100,4,2,0,100,0,0

[HitObjects]
113,181,6086,5,0,0:0:0:0:
272,296,6455,1,0,0:0:0:0:
328,106,6825,6,0,P|401:173|415:215,1,110
285,186,7194,1,0,0:0:0:0:
105,324,7563,6,0,P|86:256|108:193,1,110
218,183,7932,1,0,0:0:0:0:
132,84,8117,2,0,P|203:99|262:91,1,110
363,42,8486,1,0,0:0:0:0:
466,113,8671,1,0,0:0:0:0:
361,186,8855,2,0,P|296:278|172:307,1,220
147,194,9409,1,0,0:0:0:0:
352,295,9778,5,0,0:0:0:0:
399,176,9963,1,0,0:0:0:0:
344,60,10148,1,0,0:0:0:0:
297,158,10332,6,0,P|219:138|186:98,1,110
135,238,10702,2,0,P|208:241|258:218,1,110
323,134,11071,1,0,0:0:0:0:
343,257,11255,2,0,L|303:367,1,110
406,195,11625,1,0,0:0:0:0:
271,187,11809,2,0,P|192:185|105:66,1,220
232,68,12363,6,0,P|288:26|361:39,1,110
163,40,12732,5,0,0:0:0:0:
358,176,13102,1,0,0:0:0:0:
61,228,13471,6,0,P|142:228|177:201,1,110
87,112,13840,1,0,0:0:0:0:
210,88,14025,1,0,0:0:0:0:
244,210,14209,6,0,P|259:295|285:332,1,110
330,200,14578,1,0,0:0:0:0:
410,301,14763,2,0,P|426:156|360:68,1,220
304,170,15317,6,0,P|237:186|165:173,1,110
120,291,15686,1,0,0:0:0:0:
242,266,15871,1,0,0:0:0:0:
337,346,16055,1,0,0:0:0:0:
367,224,16240,1,0,0:0:0:0:
237,151,16425,6,0,P|298:113|362:106,1,110
481,233,16794,2,0,P|395:212|350:235,1,110
254,326,17163,2,0,P|194:273|179:227,1,110
303,196,17532,1,0,0:0:0:0:
154,102,17717,6,0,P|286:113|410:80,1,220
431,211,18271,1,0,0:0:0:0:
231,315,18640,5,0,0:0:0:0:
312,217,18825,1,0,0:0:0:0:
186,187,19009,1,0,0:0:0:0:
288,102,19194,5,0,0:0:0:0:
215,238,19378,2,0,P|274:222|332:173,2,110
121,145,19932,1,0,0:0:0:0:
119,283,20117,2,0,P|166:329|243:340,1,110
243,208,20486,1,0,0:0:0:0:
385,199,20671,2,0,P|441:98|366:16,1,220
245,88,21225,6,0,P|286:151|286:220,1,110
245,312,21594,1,0,0:0:0:0:
368,223,21778,5,0,0:0:0:0:
357,355,21963,1,0,0:0:0:0:
459,264,22148,1,0,0:0:0:0:
335,283,22332,6,0,P|276:280|223:239,1,110
322,198,22702,2,0,P|381:195|434:154,1,110
339,110,23071,2,0,P|280:107|227:66,1,110
208,206,23440,1,0,0:0:0:0:
97,278,23625,1,0,0:0:0:0:
117,128,23809,6,0,P|291:164|358:151,1,220
166,361,24548,5,0,0:0:0:0:
297,307,24732,1,0,0:0:0:0:
388,198,24917,2,0,P|303:199|250:159,1,110
378,286,25286,5,0,0:0:0:0:
261,250,25471,1,0,0:0:0:0:
374,197,25655,5,0,0:0:0:0:
259,145,25840,1,0,0:0:0:0:
388,106,26025,5,0,0:0:0:0:
273,31,26209,1,0,0:0:0:0:
167,106,26394,1,0,0:0:0:0:
299,156,26578,6,0,P|259:214|91:233,1,220
207,339,27132,2,0,P|329:339|442:274,1,220
313,232,27686,1,0,0:0:0:0:
434,193,27871,1,0,0:0:0:0:
320,133,28055,1,0,0:0:0:0:
443,87,28240,5,0,0:0:0:0:
323,21,28425,2,0,P|268:71|248:128,1,110
329,175,28794,2,0,P|314:244|241:291,1,110
188,261,29163,2,0,P|161:325|166:380,1,110
319,318,29532,1,0,0:0:0:0:
444,209,29717,5,0,0:0:0:0:
452,168,29809,1,0,0:0:0:0:
446,128,29901,1,0,0:0:0:0:
426,92,29993,1,0,0:0:0:0:
395,65,30086,2,0,P|307:108|212:91,1,165.000006294251
346,208,30455,5,0,0:0:0:0:
314,234,30547,1,0,0:0:0:0:
277,252,30639,1,0,0:0:0:0:
237,260,30731,1,0,0:0:0:0:
196,257,30824,1,0,0:0:0:0:
247,117,31009,1,0,0:0:0:0:
57,161,31194,5,0,0:0:0:0:
75,219,31286,1,0,0:0:0:0:
109,270,31378,1,0,0:0:0:0:
158,308,31470,1,0,0:0:0:0:
215,330,31563,2,0,P|337:275|374:187,1,165.000006294251
283,89,31932,5,0,0:0:0:0:
340,110,32024,1,0,0:0:0:0:
389,148,32116,1,0,0:0:0:0:
426,198,32208,1,0,0:0:0:0:
446,256,32301,1,0,0:0:0:0:
255,208,32486,1,0,0:0:0:0:
166,35,32671,5,0,0:0:0:0:
164,55,32763,1,0,0:0:0:0:
163,76,32855,1,0,0:0:0:0:
162,96,32947,1,0,0:0:0:0:
161,117,33040,1,0,0:0:0:0:
262,93,33225,1,0,0:0:0:0:
368,140,33409,5,0,0:0:0:0:
360,159,33501,1,0,0:0:0:0:
353,178,33593,1,0,0:0:0:0:
345,197,33685,1,0,0:0:0:0:
338,217,33778,1,0,0:0:0:0:
237,155,33963,1,0,0:0:0:0:
331,74,34148,5,0,0:0:0:0:
356,106,34240,1,0,0:0:0:0:
381,139,34332,1,0,0:0:0:0:
407,171,34424,1,0,0:0:0:0:
432,204,34517,1,0,0:0:0:0:
355,302,34702,1,0,0:0:0:0:
227,352,34886,5,0,0:0:0:0:
232,311,34978,1,0,0:0:0:0:
238,270,35070,1,0,0:0:0:0:
244,229,35162,1,0,0:0:0:0:
250,188,35255,2,0,P|340:230|360:176,1,165.000006294251
225,143,35625,5,0,0:0:0:0:
225,143,35717,1,0,0:0:0:0:
225,143,35809,1,0,0:0:0:0:
225,143,35902,1,0,0:0:0:0:
225,143,35994,2,0,P|199:243|221:335,1,165.000006294251
316,222,36363,5,0,0:0:0:0:
316,222,36455,1,0,0:0:0:0:
316,222,36548,1,0,0:0:0:0:
316,222,36640,1,0,0:0:0:0:
316,222,36732,2,0,P|366:133|381:24,1,165.000006294251
226,31,37102,6,0,L|304:89,1,82.5000031471254
206,116,37286,2,0,L|238:202,1,82.5000031471254
145,194,37471,1,0,0:0:0:0:
122,318,37655,1,0,0:0:0:0:
273,284,37840,6,0,L|359:263,1,82.5000031471254
275,199,38025,2,0,L|178:164,1,82.5000031471254
337,114,38209,1,0,0:0:0:0:
337,114,38394,1,0,0:0:0:0:
208,52,38578,6,0,L|117:88,4,82.5000031471254
279,137,39132,1,0,0:0:0:0:
169,211,39317,2,0,L|78:163,4,82.5000031471254
94,297,39871,1,0,0:0:0:0:
249,359,40055,5,0,0:0:0:0:
261,361,40148,1,0,0:0:0:0:
286,360,40240,1,0,0:0:0:0:
323,356,40332,1,0,0:0:0:0:
371,342,40425,1,0,0:0:0:0:
419,303,40517,1,0,0:0:0:0:
461,242,40609,1,0,0:0:0:0:
494,161,40702,1,0,0:0:0:0:
512,64,40794,5,0,0:0:0:0:
431,146,40886,1,0,0:0:0:0:
327,227,40978,1,0,0:0:0:0:
193,294,41071,1,0,0:0:0:0:
36,344,41163,2,0,L|43:275,1,41.2500015735627
324,355,41532,6,0,P|168:243|126:6,1,440
437,306,42271,5,0,0:0:0:0:
257,208,42455,1,0,0:0:0:0:
361,35,42640,1,0,0:0:0:0:
93,291,43009,6,0,P|239:278|330:231,1,220
199,94,43378,1,0,0:0:0:0:
190,267,43563,2,0,P|295:182|348:46,1,220
139,169,43932,1,0,0:0:0:0:
401,231,44117,1,0,0:0:0:0:
30,333,44486,5,0,0:0:0:0:
226,287,44671,1,0,0:0:0:0:
77,231,44855,5,0,0:0:0:0:
257,124,45040,1,0,0:0:0:0:
74,53,45225,6,0,P|282:192|372:187,1,293.333333333333
422,29,45717,1,0,0:0:0:0:
446,250,45963,6,0,P|317:286|189:257,1,220
403,368,46332,1,0,0:0:0:0:
159,77,46702,5,0,0:0:0:0:
500,182,47071,5,0,0:0:0:0:
19,104,47440,6,0,P|252:207|470:221,1,440
75,282,48178,5,0,0:0:0:0:
228,84,48363,1,0,0:0:0:0:
382,288,48548,1,0,0:0:0:0:
323,49,48917,5,0,0:0:0:0:
232,292,49102,1,0,0:0:0:0:
435,128,49286,2,0,P|511:229|494:341,1,220
290,148,49655,2,0,P|166:213|121:329,1,220
427,237,50025,1,0,0:0:0:0:
272,331,50394,5,0,0:0:0:0:
29,255,50578,1,0,0:0:0:0:
210,231,50763,5,0,0:0:0:0:
472,183,50948,1,0,0:0:0:0:
329,115,51132,5,0,0:0:0:0:
62,95,51317,1,0,0:0:0:0:
426,291,51502,6,0,P|292:209|158:199,1,220
441,95,51871,1,0,0:0:0:0:
169,104,52240,6,0,P|172:255|218:333,1,220
298,10,52609,2,0,P|292:240|443:393,1,440
55,226,53348,5,0,0:0:0:0:
369,141,53717,1,0,0:0:0:0:
97,70,54086,5,0,0:0:0:0:
224,160,54271,1,0,0:0:0:0:
224,160,54363,1,0,0:0:0:0:
224,160,54455,1,0,0:0:0:0:
321,58,54825,5,0,0:0:0:0:
246,369,55194,1,0,0:0:0:0:
445,322,55563,5,0,0:0:0:0:
413,183,55748,1,0,0:0:0:0:
413,183,55840,1,0,0:0:0:0:
413,183,55933,1,0,0:0:0:0:
74,297,56302,6,0,P|254:302|314:137,1,330.000012588501
51,74,57040,5,0,0:0:0:0:
153,216,57225,1,0,0:0:0:0:
153,216,57317,1,0,0:0:0:0:
153,216,57409,1,0,0:0:0:0:
281,24,57778,6,0,P|310:204|225:353,1,330.000012588501
459,42,58517,5,0,0:0:0:0:
444,208,58702,1,0,0:0:0:0:
444,208,58794,1,0,0:0:0:0:
444,208,58886,1,0,0:0:0:0:
139,84,59255,6,0,P|211:109|289:108,1,137.5
215,202,59625,2,0,P|157:255|78:276,1,137.5
192,357,59994,1,0,0:0:0:0:
308,338,60178,1,0,0:0:0:0:
392,254,60363,1,0,0:0:0:0:
308,338,60548,1,0,0:0:0:0:
392,254,60732,6,0,P|366:155|314:120,1,137.5
419,46,61102,1,0,0:0:0:0:
285,38,61286,1,0,0:0:0:0:
280,167,61471,6,0,P|189:204|114:183,1,137.5
225,93,61840,1,0,0:0:0:0:
145,288,62025,6,0,P|294:313|463:248,1,275
254,217,62578,2,0,P|361:150|431:-15,1,275
303,68,63132,1,0,0:0:0:0:
177,48,63317,2,0,P|126:113|121:190,1,137.5
280,178,63686,5,0,0:0:0:0:
155,310,63871,1,0,0:0:0:0:
280,178,64055,5,0,0:0:0:0:
155,310,64240,1,0,0:0:0:0:
280,178,64425,5,0,0:0:0:0:
155,310,64610,1,0,0:0:0:0:
337,289,64794,1,0,0:0:0:0:
408,120,64978,6,0,P|246:107|118:180,1,275
289,195,65532,2,0,P|298:278|234:360,1,137.5
143,277,65902,5,0,0:0:0:0:
266,233,66086,1,0,0:0:0:0:
354,140,66271,1,0,0:0:0:0:
332,297,66455,5,0,0:0:0:0:
194,189,66640,2,0,P|299:89|424:90,1,275
301,167,67194,1,0,0:0:0:0:
156,87,67378,2,0,P|145:203|102:240,1,137.5
301,167,67748,1,0,0:0:0:0:
203,299,67932,2,0,P|299:306|375:269,1,137.5
428,209,68302,1,0,0:0:0:0:
365,83,68486,5,0,0:0:0:0:
145,220,68855,1,0,0:0:0:0:
365,83,69225,5,0,0:0:0:0:
292,329,69594,1,0,0:0:0:0:
197,256,69778,6,0,P|230:188|208:88,1,137.5
274,313,70148,2,0,P|307:235|294:152,1,137.5
387,333,70517,1,0,0:0:0:0:
364,147,70702,1,0,0:0:0:0:
185,235,70886,1,0,0:0:0:0:
207,35,71071,5,0,0:0:0:0:
230,41,71163,1,0,0:0:0:0:
253,48,71255,1,0,0:0:0:0:
276,54,71347,1,0,0:0:0:0:
299,61,71440,1,0,0:0:0:0:
130,100,71625,1,0,0:0:0:0:
191,260,71809,5,0,0:0:0:0:
209,244,71901,1,0,0:0:0:0:
228,229,71993,1,0,0:0:0:0:
246,213,72085,1,0,0:0:0:0:
265,198,72178,1,0,0:0:0:0:
421,250,72363,1,0,0:0:0:0:
412,58,72548,6,0,L|314:88,1,96.2500009179115
435,124,72732,2,0,L|360:205,1,96.2500009179115
359,300,72917,1,0,0:0:0:0:
359,300,73102,1,0,0:0:0:0:
234,345,73286,6,0,L|108:360,1,96.2500009179115
302,268,73471,2,0,L|186:212,1,96.2500009179115
401,222,73655,1,0,0:0:0:0:
299,94,73840,1,0,0:0:0:0:
93,160,74025,5,0,0:0:0:0:
99,207,74117,1,0,0:0:0:0:
116,252,74209,1,0,0:0:0:0:
143,292,74301,1,0,0:0:0:0:
177,326,74394,2,0,P|277:271|329:162,1,192.500001835823
427,353,74763,5,0,0:0:0:0:
446,309,74855,1,0,0:0:0:0:
454,261,74947,1,0,0:0:0:0:
447,214,75039,1,0,0:0:0:0:
428,170,75132,2,0,P|292:168|201:111,1,192.500001835823
49,348,75502,5,0,0:0:0:0:
120,337,75594,1,0,0:0:0:0:
191,326,75686,1,0,0:0:0:0:
263,316,75778,1,0,0:0:0:0:
334,305,75871,1,0,0:0:0:0:
183,178,76055,5,0,0:0:0:0:
68,41,76240,5,0,0:0:0:0:
162,57,76332,1,0,0:0:0:0:
257,74,76424,1,0,0:0:0:0:
352,91,76516,1,0,0:0:0:0:
447,108,76609,1,0,0:0:0:0:
183,178,76794,5,0,0:0:0:0:
375,221,76978,5,0,0:0:0:0:
375,221,77071,1,0,0:0:0:0:
375,221,77163,1,0,0:0:0:0:
375,221,77255,1,0,0:0:0:0:
375,221,77348,1,0,0:0:0:0:
277,137,77532,1,0,0:0:0:0:
214,269,77717,5,0,0:0:0:0:
214,269,77809,1,0,0:0:0:0:
214,269,77902,1,0,0:0:0:0:
214,269,77994,1,0,0:0:0:0:
214,269,78086,1,0,0:0:0:0:
277,137,78271,1,0,0:0:0:0:
125,164,78455,6,0,L|105:265,3,96.2500009179115
171,217,78825,2,0,L|174:332,3,96.2500009179115
226,256,79194,2,0,L|243:355,3,96.2500009179115
286,293,79563,2,0,L|316:386,3,96.2500009179115
352,337,79932,5,0,0:0:0:0:
373,327,80024,1,0,0:0:0:0:
392,311,80116,1,0,0:0:0:0:
406,292,80208,1,0,0:0:0:0:
414,266,80302,5,0,0:0:0:0:
378,273,80394,1,0,0:0:0:0:
342,273,80486,1,0,0:0:0:0:
307,267,80578,1,0,0:0:0:0:
273,253,80671,5,0,0:0:0:0:
320,245,80763,1,0,0:0:0:0:
364,225,80855,1,0,0:0:0:0:
402,195,80947,1,0,0:0:0:0:
431,157,81040,5,0,0:0:0:0:
374,174,81132,1,0,0:0:0:0:
314,177,81224,1,0,0:0:0:0:
255,167,81316,1,0,0:0:0:0:
199,144,81409,6,0,L|187:253,1,96.2500009179115
310,132,81594,2,0,L|340:244,1,96.2500009179115
124,124,81778,2,0,L|88:240,1,96.2500009179115
386,98,81963,2,0,L|419:217,1,96.2500009179115
54,90,82148,6,0,L|15:214,1,96.2500009179115
470,68,82332,2,0,L|500:204,1,96.2500009179115
26,26,82517,1,0,0:0:0:0:
404,318,82886,6,0,B|126:377|126:377|-49:108,1,550
480,284,83625,5,0,0:0:0:0:
339,36,83809,1,0,0:0:0:0:
63,102,83994,1,0,0:0:0:0:
451,68,84363,6,0,P|408:266|320:360,1,275
288,18,84732,2,0,P|303:179|237:300,1,275
399,17,85102,5,0,0:0:0:0:
56,38,85286,2,0,P|226:158|363:149,1,275
168,366,85840,5,0,0:0:0:0:
100,84,86025,1,0,0:0:0:0:
341,339,86209,5,0,0:0:0:0:
403,57,86394,1,0,0:0:0:0:
157,260,86578,5,0,0:0:0:0:
493,117,86825,2,0,P|321:30|134:111,1,366.666666666667
485,255,87317,5,0,0:0:0:0:
239,106,87502,1,0,0:0:0:0:
391,280,87686,2,0,P|228:259|127:159,1,275
450,93,88055,5,0,0:0:0:0:
198,299,88240,1,0,0:0:0:0:
301,0,88425,1,0,0:0:0:0:
28,222,88794,6,0,P|307:284|521:120,1,550
74,44,89532,5,0,0:0:0:0:
383,146,89716,1,0,0:0:0:0:
128,342,89901,1,0,0:0:0:0:
199,28,90271,5,0,0:0:0:0:
242,302,90455,1,0,0:0:0:0:
286,8,90640,1,0,0:0:0:0:
325,345,90825,5,0,0:0:0:0:
175,76,91009,1,0,0:0:0:0:
212,368,91194,5,0,0:0:0:0:
334,64,91378,1,0,0:0:0:0:
178,275,91748,6,0,L|518:348,1,275
59,185,92117,2,0,L|421:157,1,275
140,369,92486,6,0,L|409:214,1,275
236,31,92855,2,0,L|536:201,1,275
86,264,93225,5,0,0:0:0:0:
418,161,93409,1,0,0:0:0:0:
86,264,93594,5,0,0:0:0:0:
418,161,93778,1,0,0:0:0:0:
163,129,93963,6,0,L|23:64,1,137.5
334,215,94148,2,0,L|430:380,1,137.5
79,306,94332,2,0,L|-111:371,1,137.5
410,14,94517,2,0,L|646:-9,1,137.5
442,233,94702,5,0,0:0:0:0:
264,153,94886,2,0,P|165:223|52:237,2,220
117,103,95440,5,0,0:0:0:0:
305,52,95625,2,0,P|408:113|468:213,2,220
191,183,96178,5,0,0:0:0:0:
244,368,96363,2,0,P|319:266|337:133,2,220
100,266,96917,5,0,0:0:0:0:
174,89,97102,2,0,P|244:200|380:229,1,220
451,82,97471,1,0,0:0:0:0:
281,21,97655,6,0,P|297:171|220:231,1,220
403,141,98025,2,0,P|395:295|498:363,1,220
268,318,98394,1,0,0:0:0:0:
122,200,98578,1,0,0:0:0:0:
307,122,98763,1,0,0:0:0:0:
201,285,98948,1,0,0:0:0:0:
402,325,99132,5,0,0:0:0:0:
377,129,99317,1,0,0:0:0:0:
219,276,99502,5,0,0:0:0:0:
258,87,99686,1,0,0:0:0:0:
64,138,99871,6,0,P|195:202|333:194,1,220
64,138,100240,2,0,P|195:202|333:194,1,220
109,322,100609,5,0,0:0:0:0:
305,369,100794,2,0,P|343:239|304:127,2,220
228,206,101348,5,0,0:0:0:0:
341,53,101532,2,0,P|416:148|429:274,2,220
152,37,102086,5,0,0:0:0:0:
57,202,102271,2,0,P|180:259|299:240,2,220
249,133,102825,5,0,0:0:0:0:
339,306,103009,2,0,P|213:342|64:307,2,220
163,244,103563,6,0,P|136:118|185:26,1,220
242,293,103932,2,0,P|306:169|279:58,1,220
68,278,104302,2,0,P|20:135|68:33,1,220
408,87,104671,2,0,P|420:246|350:318,1,220
206,363,105040,5,0,0:0:0:0:
84,142,105409,1,0,0:0:0:0:
305,20,105778,1,0,0:0:0:0:
427,241,106148,1,0,0:0:0:0:
84,142,106517,5,0,0:0:0:0:
130,309,112425,5,0,0:0:0:0:
290,277,112671,5,0,0:0:0:0:
290,277,112794,1,0,0:0:0:0:
216,193,113040,5,0,0:0:0:0:
216,193,113163,1,0,0:0:0:0:
292,120,113409,5,0,0:0:0:0:
292,120,113532,1,0,0:0:0:0:
159,69,113778,5,0,0:0:0:0:
159,69,113902,1,0,0:0:0:0:
178,234,114148,5,0,0:0:0:0:
178,234,114271,1,0,0:0:0:0:
334,309,114517,5,0,0:0:0:0:
334,309,114640,1,0,0:0:0:0:
185,173,114886,5,0,0:0:0:0:
185,173,115009,1,0,0:0:0:0:
393,233,115255,5,0,0:0:0:0:
393,233,115378,1,0,0:0:0:0:
427,83,115625,5,0,0:0:0:0:
427,83,115748,1,0,0:0:0:0:
323,310,115994,5,0,0:0:0:0:
323,310,116117,1,0,0:0:0:0:
311,93,116363,5,0,0:0:0:0:
311,93,116486,1,0,0:0:0:0:
68,191,116732,5,0,0:0:0:0:
68,191,116855,2,0,P|207:252|360:201,1,275
76,352,117594,2,0,P|337:319|468:95,1,440
23,17,118332,6,0,B|339:263|339:263|603:-17,1,770.000007343292
33,244,119071,5,0,0:0:0:0:
297,15,119255,1,0,0:0:0:0:
492,304,119440,1,0,0:0:0:0:
193,379,119809,6,0,P|42:169|115:13,1,385.000003671646
426,28,120178,2,0,P|339:206|145:249,1,385.000003671646
490,345,120548,2,0,P|392:128|205:77,1,385.000003671646
22,369,120917,1,0,0:0:0:0:
379,6,121286,5,0,0:0:0:0:
321,363,121471,1,0,0:0:0:0:
321,20,121655,1,0,0:0:0:0:
393,353,121840,1,0,0:0:0:0:
210,17,122025,5,0,0:0:0:0:
468,299,122271,2,0,P|165:286|-7:58,1,513.333338228862
403,273,122763,5,0,0:0:0:0:
471,22,122948,1,0,0:0:0:0:
105,137,123132,1,0,0:0:0:0:
341,327,123502,6,0,P|296:104|154:25,2,385.000003671646
94,375,124240,6,0,B|58:300|245:51|479:231|346:341|346:341|648:279,1,770.000007343292
93,184,124978,5,0,0:0:0:0:
455,162,125163,1,0,0:0:0:0:
69,104,125348,1,0,0:0:0:0:
347,369,125717,6,0,B|367:155|293:-46,1,385.000003671646
123,355,126086,2,0,B|234:151|208:-44,2,385.000003671646
474,325,126640,5,0,0:0:0:0:
59,113,126825,1,0,0:0:0:0:
458,54,127194,6,0,P|263:245|105:276,3,385.000003671646
465,304,127932,5,0,0:0:0:0:
319,11,128117,1,0,0:0:0:0:
286,372,128302,1,0,0:0:0:0:
27,21,128486,1,0,0:0:0:0:
403,20,128671,6,0,L|334:241,1,220
159,82,128855,2,0,L|317:309,1,220
464,185,129040,2,0,L|99:332,1,220
45,269,129225,2,0,L|292:322,1,220
465,352,129409,6,0,L|392:81,1,247.500009441376
32,364,129594,2,0,L|90:78,1,247.500009441376
492,5,129778,2,0,L|625:324,1,247.500009441376
0,0,129963,2,0,L|-97:282,1,247.500009441376
494,184,130148,6,0,B|401:375|401:375|292:0|292:0|-127:380,1,1100
496,371,130886,5,0,0:0:0:0:
278,0,131071,1,0,0:0:0:0:
47,384,131255,1,0,0:0:0:0:
496,68,131625,5,0,0:0:0:0:
50,284,131809,1,0,0:0:0:0:
499,163,131994,5,0,0:0:0:0:
11,113,132178,1,0,0:0:0:0:
463,367,132363,5,0,0:0:0:0:
102,9,132548,2,0,P|362:135|528:351,1,550
115,356,133102,6,0,P|381:146|241:13,1,550
94,88,133471,2,0,P|286:306|442:29,1,550
232,367,133840,5,0,0:0:0:0:
270,10,134025,1,0,0:0:0:0:
298,384,134209,5,0,0:0:0:0:
198,0,134394,1,0,0:0:0:0:
0,384,134578,5,0,0:0:0:0:
512,0,134763,1,0,0:0:0:0:
512,384,134948,5,0,0:0:0:0:
0,0,135132,1,0,0:0:0:0:
463,100,135317,6,0,P|174:254|-17:64,2,550
137,37,135871,1,0,0:0:0:0:
169,378,136055,6,0,B|40:39|40:39|696:404,1,1100
12,87,136794,2,0,L|619:35,1,550
17,360,137163,1,0,0:0:0:0:
385,381,137532,6,0,L|65:-69,3,550
230,374,138271,2,0,L|684:23,2,550
410,14,139009,5,0,0:0:0:0:
58,157,139194,1,0,0:0:0:0:
493,66,139378,5,0,0:0:0:0:
276,384,139563,1,0,0:0:0:0:
512,0,139748,6,0,L|-184:407,1,733.333333333333
491,241,140240,5,0,0:0:0:0:
0,0,140486,5,0,0:0:0:0:
512,0,140671,1,0,0:0:0:0:
