osu file format v14

[General]
AudioFilename: audio.mp3
AudioLeadIn: 0
PreviewTime: -1
Countdown: 0
SampleSet: None
StackLeniency: 0.7
Mode: 0
LetterboxInBreaks: 0
WidescreenStoryboard: 1

[Editor]
Bookmarks: 3358,41573,53573
DistanceSpacing: 4.7
BeatDivisor: 4
GridSize: 4
TimelineZoom: 1.7

[Metadata]
Title:Rockefeller Street (Nightcore Mix)
TitleUnicode:Rockefeller Street (Nightcore Mix)
Artist:Getter Jaani
ArtistUnicode:Getter Jaani
Creator:Stressed
Version:Tiny's Techno
Source:
Tags:
BeatmapID:2180860
BeatmapSetID:1041469

[Difficulty]
HPDrainRate:5.5
CircleSize:3.8
OverallDifficulty:8.5
ApproachRate:9.5
SliderMultiplier:1.6
SliderTickRate:1

[Events]
//Background and Video events
0,0,"Rockefeller_Street_bg_but_backgwwwsw.png",0,0
//Break Periods
2,65035,70771
//Storyboard Layer 0 (Background)
//Storyboard Layer 1 (Fail)
//Storyboard Layer 2 (Pass)
//Storyboard Layer 3 (Foreground)
//Storyboard Layer 4 (Overlay)
//Storyboard Sound Samples

[TimingPoints]
220,369.230769230769,4,2,22,50,1,0
220,-100,4,2,22,50,0,0
3358,-50,4,2,22,50,0,0
7789,-100,4,2,22,50,0,0
8158,-66.6666666666667,4,2,22,50,0,0
8527,-50,4,2,22,50,0,0
8896,-100,4,2,22,50,0,0
23850,-80,4,2,22,50,0,0
29758,-66.6666666666667,4,2,22,75,0,0
40650,-66.6666666666667,4,2,22,90,0,0
41019,-50,4,2,22,90,0,0
41573,-33.3333333333333,4,2,22,100,0,1
41943,-25,4,2,22,100,0,1
42312,-33.3333333333333,4,2,22,100,0,1
43050,-50,4,2,22,100,0,1
47481,-33.3333333333333,4,2,22,100,0,1
47850,-25,4,2,22,100,0,1
48219,-33.3333333333333,4,2,22,100,0,1
48958,-50,4,2,22,100,0,1
53573,-66.6666666666667,4,2,22,75,0,0
65204,-100,4,2,22,50,0,0
77019,-33.3333333333333,4,2,22,100,0,1
77389,-25,4,2,22,100,0,1
77758,-33.3333333333333,4,2,22,100,0,1
78496,-50,4,2,22,100,0,1
82927,-33.3333333333333,4,2,22,100,0,1
83296,-25,4,2,22,100,0,1
83666,-33.3333333333333,4,2,22,100,0,1
84404,-50,4,2,22,100,0,1
87543,-50,4,2,22,7,0,1
87635,-50,4,2,22,14,0,1
87727,-50,4,2,22,21,0,1
87819,-50,4,2,22,28,0,1
87912,-50,4,2,22,35,0,1
88004,-50,4,2,22,42,0,1
88096,-50,4,2,22,49,0,1
88189,-50,4,2,22,56,0,1
88281,-50,4,2,22,63,0,1
88373,-50,4,2,22,70,0,1
88466,-50,4,2,22,77,0,1
88558,-50,4,2,22,84,0,1
88650,-50,4,2,22,91,0,1
88743,-50,4,2,22,98,0,1
88835,-33.3333333333333,4,2,22,100,0,1
89204,-25,4,2,22,100,0,1
89573,-33.3333333333333,4,2,22,100,0,1
90312,-50,4,2,22,100,0,1
94743,-33.3333333333333,4,2,22,100,0,1
95112,-25,4,2,22,100,0,1
95481,-33.3333333333333,4,2,22,100,0,1
96219,-50,4,2,22,100,0,1
99358,-100,4,2,22,50,0,0
99543,-100,4,2,22,5,0,0

[HitObjects]
95,186,220,5,0,0:0:0:0:
41,96,404,1,2,0:0:0:0:
265,297,589,1,0,0:0:0:0:
338,209,773,1,0,0:0:0:0:
108,214,958,1,2,0:0:0:0:
54,124,1142,1,0,0:0:0:0:
278,325,1327,1,0,0:0:0:0:
351,237,1511,1,2,0:0:0:0:
398,133,1696,5,0,0:0:0:0:
125,74,1881,1,0,0:0:0:0:
223,266,2066,1,2,0:0:0:0:
378,89,2250,1,0,0:0:0:0:
133,111,2435,1,0,0:0:0:0:
271,261,2619,1,2,0:0:0:0:
323,61,2804,1,0,0:0:0:0:
176,160,2989,1,0,0:0:0:0:
333,239,3173,5,2,0:0:0:0:
228,309,3358,2,0,P|137:328|97:273,1,160
284,75,3727,2,0,P|375:56|415:111,1,160,2|0,0:0|0:0,0:0:0:0:
181,286,4096,2,0,P|90:264|77:198,1,160
330,97,4466,2,2,P|421:119|434:185,1,160
148,245,4835,2,0,P|75:188|91:122,1,160
363,138,5204,2,0,P|436:195|420:261,1,160,2|0,0:0|0:0,0:0:0:0:
255,284,5573,2,0,L|86:303,1,160
255,284,5943,6,2,L|117:163,1,160
255,284,6312,2,0,L|255:109,1,160
406,78,6681,2,0,L|239:78,1,160,2|0,0:0|0:0,0:0:0:0:
406,78,7050,2,0,L|256:176,1,160
406,78,7419,2,2,L|408:255,1,160
390,302,7789,2,0,P|338:320|316:299,1,80
338,264,8158,2,0,P|261:276|232:240,1,120.000004577637,2|0,0:0|0:0,0:0:0:0:
293,217,8527,2,0,P|206:213|159:159,1,160
87,114,8896,6,0,B|186:80|186:80|68:236|260:187|337:77|337:77|452:41|425:239|425:239|345:224,1,720,2|0,0:0|0:0,0:0:0:0:
276,199,10743,1,2,0:0:0:0:
146,160,10927,2,0,L|188:248,1,80
237,307,11296,1,2,0:0:0:0:
353,323,11481,2,0,L|387:238,1,80,0|2,0:0|0:0,0:0:0:0:
428,144,11850,6,0,B|413:66|413:66|412:275|294:41|294:41|39:101|277:192,1,640,2|0,0:0|0:0,0:0:0:0:
358,221,13512,1,2,0:0:0:0:
412,273,13696,2,0,L|303:298,1,80
230,313,14066,1,2,0:0:0:0:
131,316,14250,2,0,P|91:275|120:236,1,80
136,173,14619,1,2,0:0:0:0:
127,68,14804,2,0,L|225:115,1,80,0|2,0:0|0:0,0:0:0:0:
273,130,15173,6,0,B|382:143|376:44|376:44|558:84|330:208|330:208|320:263,1,480,2|0,0:0|0:0,0:0:0:0:
316,326,16466,1,2,0:0:0:0:
226,332,16650,2,0,L|142:269,1,80
99,194,17019,1,2,0:0:0:0:
55,55,17204,2,0,L|162:101,1,80
254,159,17573,1,2,0:0:0:0:
274,67,17758,6,0,B|411:87|411:87|475:169|440:321|440:321|309:349|190:242,1,640,2|0,0:0|0:0,0:0:0:0:
142,184,19419,1,2,0:0:0:0:
160,88,19604,2,0,L|253:149,1,80
319,192,19973,1,2,0:0:0:0:
403,262,20158,2,0,P|372:312|332:325,1,80
242,321,20527,1,2,0:0:0:0:
148,258,20712,2,0,L|237:196,1,80,2|0,0:0|0:0,0:0:0:0:
378,107,21081,1,2,0:0:0:0:
433,237,21266,6,0,L|316:253,1,80
121,267,21635,1,2,0:0:0:0:
66,188,21819,2,0,L|130:118,1,80
190,84,22189,1,2,0:0:0:0:
300,204,22373,5,0,0:0:0:0:
190,84,22558,1,2,0:0:0:0:
282,119,22743,2,0,L|391:147,1,80
440,244,23112,1,2,0:0:0:0:
307,333,23296,2,0,L|225:305,1,80,2|0,0:0|0:0,0:0:0:0:
124,246,23666,1,2,0:0:0:0:
90,110,23850,6,0,L|211:76,1,100
373,169,24219,1,2,0:0:0:0:
389,324,24404,1,0,0:0:0:0:
212,285,24589,1,0,0:0:0:0:
423,255,24773,1,2,0:0:0:0:
297,88,24958,1,0,0:0:0:0:
178,231,25143,1,2,0:0:0:0:
162,84,25327,6,0,L|266:153,1,100
315,217,25696,1,2,0:0:0:0:
348,288,25881,2,0,P|314:336|253:328,1,100
273,290,26250,2,0,P|239:338|178:330,1,100,2|0,0:0|0:0,0:0:0:0:
119,278,26619,1,2,0:0:0:0:
57,199,26804,6,0,L|140:129,1,100
191,130,27173,2,0,L|277:203,1,100,2|0,0:0|0:0,0:0:0:0:
354,236,27543,2,0,P|421:208|414:168,1,100
419,84,27912,1,2,0:0:0:0:
274,58,28096,2,0,L|151:132,1,100,0|2,0:0|0:0,0:0:0:0:
77,136,28466,6,0,L|161:205,1,100
365,318,28835,1,2,0:0:0:0:
301,70,29019,1,0,0:0:0:0:
186,293,29204,1,0,0:0:0:0:
453,195,29389,1,2,0:0:0:0:
120,166,29573,1,0,0:0:0:0:
148,81,29758,5,2,0:0:0:0:
186,109,29850,1,0,0:0:0:0:
210,149,29943,1,0,0:0:0:0:
69,280,30127,1,4,0:0:0:0:
162,328,30312,6,0,L|281:257,1,120.000004577637
375,202,30681,1,2,0:0:0:0:
462,141,30866,2,0,P|425:91|341:73,1,120.000004577637
254,56,31235,2,0,L|166:165,1,120.000004577637,2|0,0:0|0:0,0:0:0:0:
103,223,31604,1,2,0:0:0:0:
113,313,31789,2,0,L|275:304,1,120.000004577637
368,289,32158,1,2,0:0:0:0:
418,132,32343,2,0,L|256:163,1,120.000004577637
88,208,32712,5,2,0:0:0:0:
121,255,32804,1,0,0:0:0:0:
172,274,32896,1,0,0:0:0:0:
245,67,33081,1,4,0:0:0:0:
371,96,33266,2,0,L|304:216,1,120.000004577637
268,275,33635,5,2,0:0:0:0:
219,291,33727,1,0,0:0:0:0:
177,264,33819,1,0,0:0:0:0:
125,159,34004,1,2,0:0:0:0:
186,58,34189,6,0,L|280:151,1,120.000004577637
352,213,34558,1,2,0:0:0:0:
452,244,34743,2,0,L|302:327,1,120.000004577637
208,283,35112,1,2,0:0:0:0:
67,175,35296,2,0,P|104:111|163:75,1,120.000004577637
276,77,35666,5,2,0:0:0:0:
325,127,35758,1,0,0:0:0:0:
354,191,35850,1,0,0:0:0:0:
138,302,36035,1,4,0:0:0:0:
69,205,36219,6,0,L|184:107,1,120.000004577637
276,84,36589,1,0,0:0:0:0:
376,127,36773,2,0,P|376:208|335:218,1,120.000004577637
399,188,37143,2,0,P|399:269|358:279,1,120.000004577637,2|0,0:0|0:0,0:0:0:0:
226,304,37512,1,2,0:0:0:0:
96,291,37696,2,0,L|148:170,1,120.000004577637
228,88,38066,1,2,0:0:0:0:
326,129,38250,2,0,P|369:167|347:239,1,120.000004577637,0|2,0:0|0:0,0:0:0:0:
250,336,38619,5,2,0:0:0:0:
176,301,38712,1,0,0:0:0:0:
133,233,38804,1,0,0:0:0:0:
344,78,38989,1,4,0:0:0:0:
451,130,39173,6,0,L|386:234,1,120.000004577637
290,325,39543,1,2,0:0:0:0:
170,274,39727,2,0,P|98:257|106:205,1,120.000004577637
208,103,40096,1,2,0:0:0:0:
336,139,40281,2,0,P|326:196|266:212,1,120.000004577637
93,251,40650,6,0,L|141:125,1,120.000004577637,2|0,0:0|0:0,0:0:0:0:
212,52,41019,2,0,L|271:215,1,160
324,333,41389,1,2,0:0:0:0:
61,152,41573,6,0,B|132:97|132:97|119:261,1,240.000009155274,8|0,0:0|0:0,0:0:0:0:
231,81,41943,2,0,B|316:34|329:108|329:108|295:128|252:195|252:195|328:198,1,320,8|0,0:0|0:0,0:0:0:0:
113,220,42312,2,0,B|202:213|202:213|119:374,1,240.000009155274,8|0,0:0|0:0,0:0:0:0:
291,181,42681,2,0,B|382:178|323:249|323:249|426:265|283:353,1,240.000009155274,8|0,0:0|0:0,0:0:0:0:
81,201,43050,5,2,0:0:0:0:
260,42,43235,1,0,0:0:0:0:
440,174,43419,1,0,0:0:0:0:
295,321,43604,1,2,0:0:0:0:
141,118,43789,1,0,0:0:0:0:
418,82,43973,1,0,0:0:0:0:
188,306,44158,1,2,0:0:0:0:
77,197,44343,6,0,P|121:111|191:75,1,160
340,109,44712,1,2,0:0:0:0:
422,306,44896,1,0,0:0:0:0:
197,234,45081,1,0,0:0:0:0:
479,177,45266,1,2,0:0:0:0:
346,293,45450,2,0,P|261:342|186:333,1,160
50,205,45819,1,2,0:0:0:0:
100,65,46004,2,0,L|267:151,1,160
396,209,46373,5,2,0:0:0:0:
345,92,46558,2,0,P|269:48|196:97,1,160
93,229,46927,1,2,0:0:0:0:
53,305,47112,2,0,L|216:291,1,160,0|2,0:0|0:0,0:0:0:0:
61,152,47481,6,0,B|132:97|132:97|119:261,1,240.000009155274,8|0,0:0|0:0,0:0:0:0:
231,81,47851,2,0,B|316:34|329:108|329:108|295:128|252:195|252:195|328:198,1,320,8|0,0:0|0:0,0:0:0:0:
113,220,48220,2,0,B|202:213|202:213|119:374,1,240.000009155274,8|0,0:0|0:0,0:0:0:0:
291,181,48589,2,0,B|382:178|323:249|323:249|426:265|283:353,1,240.000009155274,8|0,0:0|0:0,0:0:0:0:
170,323,48958,5,2,0:0:0:0:
261,54,49143,1,0,0:0:0:0:
389,304,49327,1,0,0:0:0:0:
64,177,49512,1,2,0:0:0:0:
446,121,49696,1,0,0:0:0:0:
115,301,49881,1,0,0:0:0:0:
302,60,50066,1,2,0:0:0:0:
369,335,50250,1,0,0:0:0:0:
419,229,50435,6,0,P|411:151|341:93,1,160,2|0,0:0|0:0,0:0:0:0:
190,67,50804,1,2,0:0:0:0:
59,74,50989,2,0,L|170:214,1,160
276,321,51358,1,2,0:0:0:0:
345,83,51543,1,0,0:0:0:0:
458,206,51727,1,0,0:0:0:0:
145,197,51912,1,2,0:0:0:0:
116,49,52096,6,0,L|269:139,1,160
143,124,52466,2,0,L|282:207,1,160,2|0,0:0|0:0,0:0:0:0:
321,228,52743,1,0,0:0:0:0:
362,259,52835,1,8,0:0:0:0:
402,289,52927,1,0,0:0:0:0:
365,316,53019,5,8,0:0:0:0:
314,320,53112,1,0,0:0:0:0:
259,308,53204,1,8,0:0:0:0:
207,289,53296,1,0,0:0:0:0:
158,258,53389,1,4,0:0:0:0:
59,186,53573,6,0,L|172:79,1,120.000004577637,2|2,0:0|0:0,0:0:0:0:
237,54,53943,1,2,0:0:0:0:
409,100,54312,2,0,L|342:241,1,120.000004577637,2|0,0:0|0:0,0:0:0:0:
299,314,54681,1,2,0:0:0:0:
85,83,55050,2,0,L|211:159,1,120.000004577637,2|0,0:0|0:0,0:0:0:0:
296,212,55419,1,2,0:0:0:0:
427,301,55789,2,0,L|301:225,1,120.000004577637,2|0,0:0|0:0,0:0:0:0:
216,172,56158,1,2,0:0:0:0:
277,259,56343,5,0,0:0:0:0:
143,149,56527,1,2,0:0:0:0:
352,158,56712,1,0,0:0:0:0:
150,295,56896,1,0,0:0:0:0:
258,73,57081,1,2,0:0:0:0:
369,302,57266,1,0,0:0:0:0:
85,105,57450,5,0,0:0:0:0:
425,159,57635,1,2,0:0:0:0:
131,329,57819,1,0,0:0:0:0:
256,49,58004,1,0,0:0:0:0:
411,338,58189,1,2,0:0:0:0:
462,256,58373,2,0,L|331:196,1,120.000004577637,0|2,0:0|0:0,0:0:0:0:
179,131,58927,1,2,0:0:0:0:
59,198,59481,6,0,L|172:305,1,120.000004577637,2|2,0:0|0:0,0:0:0:0:
237,330,59851,1,2,0:0:0:0:
409,284,60220,2,0,L|342:143,1,120.000004577637,2|0,0:0|0:0,0:0:0:0:
299,70,60589,1,2,0:0:0:0:
85,301,60958,2,0,L|211:225,1,120.000004577637,2|0,0:0|0:0,0:0:0:0:
296,172,61327,1,2,0:0:0:0:
427,83,61697,2,0,L|301:159,1,120.000004577637,2|0,0:0|0:0,0:0:0:0:
216,212,62066,1,2,0:0:0:0:
277,125,62251,5,0,0:0:0:0:
143,235,62435,1,2,0:0:0:0:
352,226,62620,1,0,0:0:0:0:
150,89,62804,1,0,0:0:0:0:
258,311,62989,1,2,0:0:0:0:
369,82,63174,1,0,0:0:0:0:
85,279,63358,5,0,0:0:0:0:
425,225,63543,1,2,0:0:0:0:
131,55,63727,1,0,0:0:0:0:
256,335,63912,1,0,0:0:0:0:
411,46,64097,1,2,0:0:0:0:
462,128,64281,2,0,L|331:188,1,120.000004577637,0|2,0:0|0:0,0:0:0:0:
179,253,64835,1,2,0:0:0:0:
113,151,71296,6,0,P|141:201|173:213,1,80,2|0,0:0|0:0,0:0:0:0:
257,249,71666,1,2,0:0:0:0:
399,151,72035,6,0,P|371:201|339:213,1,80,2|0,0:0|0:0,0:0:0:0:
255,249,72405,1,2,0:0:0:0:
203,300,72773,2,0,L|137:204,1,80,2|0,0:0|0:0,0:0:0:0:
113,154,73143,1,2,0:0:0:0:
309,300,73512,2,0,L|375:204,1,80,2|0,0:0|0:0,0:0:0:0:
398,154,73882,1,2,0:0:0:0:
269,50,74066,2,0,P|210:69|204:103,1,80
173,170,74435,1,2,0:0:0:0:
115,304,74619,2,0,L|195:254,1,80
265,211,74989,1,2,0:0:0:0:
289,128,75173,2,0,P|338:149|363:199,1,80
385,255,75543,1,2,0:0:0:0:
114,148,76281,1,2,0:0:0:0:
61,152,77019,6,0,B|132:97|132:97|119:261,1,240.000009155274,8|0,0:0|0:0,0:0:0:0:
231,81,77389,2,0,B|316:34|329:108|329:108|295:128|252:195|252:195|328:198,1,320,8|0,0:0|0:0,0:0:0:0:
113,220,77758,2,0,B|202:213|202:213|119:374,1,240.000009155274,8|0,0:0|0:0,0:0:0:0:
291,181,78127,2,0,B|382:178|323:249|323:249|426:265|283:353,1,240.000009155274,8|0,0:0|0:0,0:0:0:0:
75,223,78496,5,2,0:0:0:0:
211,61,78681,1,0,0:0:0:0:
421,159,78866,1,0,0:0:0:0:
296,329,79050,1,2,0:0:0:0:
63,127,79235,1,0,0:0:0:0:
356,79,79419,1,0,0:0:0:0:
164,312,79604,1,2,0:0:0:0:
79,246,79789,6,0,L|279:186,1,160
435,156,80158,1,2,0:0:0:0:
330,60,80343,2,0,P|235:53|168:101,1,160
92,201,80712,1,2,0:0:0:0:
58,343,80896,2,0,L|228:296,1,160
325,267,81266,1,2,0:0:0:0:
421,321,81450,2,0,P|456:230|436:168,1,160
350,90,81819,1,2,0:0:0:0:
88,182,82004,5,0,0:0:0:0:
320,298,82189,1,0,0:0:0:0:
158,62,82373,1,2,0:0:0:0:
186,323,82558,1,0,0:0:0:0:
411,198,82743,1,2,0:0:0:0:
61,152,82927,6,0,B|132:97|132:97|119:261,1,240.000009155274,8|0,0:0|0:0,0:0:0:0:
231,81,83297,2,0,B|316:34|329:108|329:108|295:128|252:195|252:195|328:198,1,320,8|0,0:0|0:0,0:0:0:0:
113,220,83666,2,0,B|202:213|202:213|119:374,1,240.000009155274,8|0,0:0|0:0,0:0:0:0:
291,181,84035,2,0,B|382:178|323:249|323:249|426:265|283:353,1,240.000009155274,8|0,0:0|0:0,0:0:0:0:
79,335,84404,5,2,0:0:0:0:
293,60,84589,1,0,0:0:0:0:
394,296,84773,1,0,0:0:0:0:
114,88,84958,1,2,0:0:0:0:
444,187,85143,1,0,0:0:0:0:
225,339,85327,1,0,0:0:0:0:
74,186,85512,1,2,0:0:0:0:
399,78,85696,1,0,0:0:0:0:
473,165,85881,6,0,P|416:244|346:265,1,160,2|0,0:0|0:0,0:0:0:0:
401,183,86250,2,0,P|344:262|274:283,1,160,2|0,0:0|0:0,0:0:0:0:
121,290,86619,1,2,0:0:0:0:
220,79,86804,1,0,0:0:0:0:
416,237,86989,1,0,0:0:0:0:
380,326,87173,2,0,L|196:334,1,160,2|0,0:0|0:0,0:0:0:0:
108,317,87543,5,8,0:0:0:0:
94,294,87635,1,8,0:0:0:0:
87,269,87727,1,8,0:0:0:0:
90,238,87819,1,8,0:0:0:0:
100,208,87912,1,8,0:0:0:0:
120,174,88004,1,8,0:0:0:0:
152,142,88096,1,8,0:0:0:0:
198,125,88189,5,8,0:0:0:0:
247,120,88281,1,8,0:0:0:0:
294,124,88373,1,8,0:0:0:0:
293,186,88466,1,8,0:0:0:0:
303,249,88558,1,8,0:0:0:0:
339,298,88650,1,8,0:0:0:0:
389,322,88743,1,8,0:0:0:0:
61,152,88835,6,0,B|132:97|132:97|119:261,1,240.000009155274,8|0,0:0|0:0,0:0:0:0:
231,81,89205,2,0,B|316:34|329:108|329:108|295:128|252:195|252:195|328:198,1,320,8|0,0:0|0:0,0:0:0:0:
113,220,89574,2,0,B|202:213|202:213|119:374,1,240.000009155274,8|0,0:0|0:0,0:0:0:0:
291,181,89943,2,0,B|382:178|323:249|323:249|426:265|283:353,1,240.000009155274,8|0,0:0|0:0,0:0:0:0:
93,326,90312,5,2,0:0:0:0:
287,29,90496,1,0,0:0:0:0:
450,348,90681,1,0,0:0:0:0:
40,130,90866,1,2,0:0:0:0:
474,126,91050,1,0,0:0:0:0:
248,344,91235,1,0,0:0:0:0:
152,40,91419,1,2,0:0:0:0:
461,239,91604,1,0,0:0:0:0:
368,107,91789,6,0,P|293:64|222:90,1,160,2|0,0:0|0:0,0:0:0:0:
126,190,92158,1,2,0:0:0:0:
89,335,92343,2,0,L|279:261,1,160
441,220,92712,1,2,0:0:0:0:
261,53,92896,1,0,0:0:0:0:
224,341,93081,1,2,0:0:0:0:
101,287,93266,6,0,P|146:201|219:166,1,160
385,115,93635,1,2,0:0:0:0:
448,206,93819,2,0,L|285:338,1,160
191,336,94189,1,2,0:0:0:0:
355,232,94373,1,0,0:0:0:0:
248,101,94558,1,2,0:0:0:0:
61,152,94743,6,0,B|132:97|132:97|119:261,1,240.000009155274,8|0,0:0|0:0,0:0:0:0:
231,81,95113,2,0,B|316:34|329:108|329:108|295:128|252:195|252:195|328:198,1,320,8|0,0:0|0:0,0:0:0:0:
113,220,95482,2,0,B|202:213|202:213|119:374,1,240.000009155274,8|0,0:0|0:0,0:0:0:0:
291,181,95851,2,0,B|382:178|323:249|323:249|426:265|283:353,1,240.000009155274,8|0,0:0|0:0,0:0:0:0:
104,323,96219,5,2,0:0:0:0:
380,79,96404,1,0,0:0:0:0:
465,336,96589,1,0,0:0:0:0:
106,147,96773,1,2,0:0:0:0:
474,197,96958,1,0,0:0:0:0:
282,332,97143,1,0,0:0:0:0:
284,44,97327,1,2,0:0:0:0:
86,99,97512,6,0,P|99:187|163:242,1,160
274,298,97881,1,2,0:0:0:0:
418,330,98066,2,0,L|334:169,1,160
304,79,98435,1,2,0:0:0:0:
78,203,98619,1,0,0:0:0:0:
342,210,98804,1,2,0:0:0:0:
437,280,98989,2,0,P|355:340|289:327,1,160
257,260,99358,2,0,B|168:339|168:339|188:225|188:225|97:175|97:175|207:140|207:140|260:46|260:46|306:136|306:136|420:171|420:171|333:217|333:217|348:340|348:340|257:257,1,1120,2|0,0:0|0:0,0:0:0:0:
