osu file format v14

[General]
AudioFilename: audio.mp3
AudioLeadIn: 0
PreviewTime: -1
Countdown: 0
SampleSet: None
StackLeniency: 0.7
Mode: 0
LetterboxInBreaks: 0
WidescreenStoryboard: 0

[Editor]
Bookmarks: 41573
DistanceSpacing: 5
BeatDivisor: 4
GridSize: 4
TimelineZoom: 1.7

[Metadata]
Title:Rockefeller Street (Nightcore Mix)
TitleUnicode:Rockefeller Street (Nightcore Mix)
Artist:Getter Jaani
ArtistUnicode:Getter Jaani
Creator:Stressed
Version:Positrone131's Momento Giocatore epico (epic gamer moment)
Source:minorities
Tags:gamer
BeatmapID:2177089
BeatmapSetID:1041469

[Difficulty]
HPDrainRate:1
CircleSize:4
OverallDifficulty:9
ApproachRate:8
SliderMultiplier:1.6
SliderTickRate:1

[Events]
//Background and Video events
0,0,"Rockefeller_Street_bg_but_backgwwwsw.png",0,0
//Break Periods
2,29496,31223
//Storyboard Layer 0 (Background)
//Storyboard Layer 1 (Fail)
//Storyboard Layer 2 (Pass)
//Storyboard Layer 3 (Foreground)
//Storyboard Layer 4 (Overlay)
//Storyboard Sound Samples

[TimingPoints]
220,369.230769230769,4,2,22,100,1,0

[HitObjects]
94,105,7512,5,0,0:0:0:0:
266,122,7973,1,0,0:0:0:0:
179,227,8343,1,0,0:0:0:0:
147,217,10558,1,0,0:0:0:0:
177,160,13419,1,0,0:0:0:0:
342,162,13881,1,0,0:0:0:0:
190,182,14619,1,0,0:0:0:0:
289,114,15358,1,0,0:0:0:0:
164,263,16466,1,0,0:0:0:0:
335,220,16835,1,0,0:0:0:0:
181,191,17204,1,0,0:0:0:0:
367,131,17573,1,0,0:0:0:0:
387,129,17758,1,0,0:0:0:0:
146,260,19419,1,0,0:0:0:0:
355,156,19604,1,0,0:0:0:0:
113,125,19789,1,0,0:0:0:0:
313,224,19973,1,0,0:0:0:0:
273,240,20158,1,0,0:0:0:0:
231,83,20250,1,0,0:0:0:0:
176,261,20435,1,0,0:0:0:0:
195,172,20712,1,0,0:0:0:0:
347,125,21081,1,0,0:0:0:0:
216,293,22373,1,0,0:0:0:0:
100,97,22558,1,0,0:0:0:0:
460,129,22743,1,0,0:0:0:0:
198,281,22927,1,0,0:0:0:0:
219,143,23112,1,0,0:0:0:0:
293,284,23296,1,0,0:0:0:0:
115,94,23481,1,0,0:0:0:0:
214,256,25327,1,0,0:0:0:0:
237,115,25696,1,0,0:0:0:0:
434,164,25881,1,0,0:0:0:0:
172,179,26066,1,0,0:0:0:0:
201,278,26250,1,0,0:0:0:0:
351,114,26435,1,0,0:0:0:0:
239,156,26619,1,0,0:0:0:0:
125,110,26989,1,0,0:0:0:0:
121,145,27173,1,0,0:0:0:0:
161,256,28373,1,0,0:0:0:0:
399,198,28650,1,0,0:0:0:0:
158,101,28835,1,0,0:0:0:0:
324,239,29019,1,0,0:0:0:0:
319,76,29296,1,0,0:0:0:0:
101,139,31973,6,0,P|391:237|86:189,3,880
131,129,41573,5,0,0:0:0:0:
405,137,41943,1,0,0:0:0:0:
259,252,42312,1,0,0:0:0:0:
68,190,42681,1,0,0:0:0:0:
264,133,43050,1,0,0:0:0:0:
246,240,43419,1,0,0:0:0:0:
144,197,43789,1,0,0:0:0:0:
104,196,45912,1,0,0:0:0:0:
252,174,46281,1,0,0:0:0:0:
45,149,47481,6,0,P|134:327|142:341,3,200
210,239,50435,5,0,0:0:0:0:
150,134,51819,2,0,B|268:80|461:185|394:261|596:179|454:27|628:165|621:170,1,480
392,232,53758,2,0,P|118:239|120:235,4,600
69,163,60035,1,0,0:0:0:0:
327,160,60773,1,0,0:0:0:0:
105,236,61512,1,0,0:0:0:0:
377,148,62250,1,0,0:0:0:0:
151,152,62619,1,0,0:0:0:0:
264,262,62989,1,0,0:0:0:0:
251,116,63358,1,0,0:0:0:0:
138,235,63727,1,0,0:0:0:0:
426,221,64466,1,0,0:0:0:0:
166,178,65573,1,0,0:0:0:0:
292,165,65850,1,0,0:0:0:0:
305,230,66127,1,0,0:0:0:0:
298,230,66312,1,0,0:0:0:0:
200,250,66589,1,0,0:0:0:0:
138,203,66958,1,0,0:0:0:0:
138,203,67050,1,0,0:0:0:0:
149,127,67327,1,0,0:0:0:0:
253,106,67604,1,0,0:0:0:0:
273,108,67789,1,0,0:0:0:0:
330,135,67973,1,0,0:0:0:0:
336,139,68158,1,0,0:0:0:0:
279,214,68343,1,0,0:0:0:0:
279,214,68527,1,0,0:0:0:0:
155,224,68804,1,0,0:0:0:0:
149,222,68896,1,0,0:0:0:0:
95,137,69266,1,0,0:0:0:0:
242,116,69635,1,0,0:0:0:0:
303,137,70281,1,0,0:0:0:0:
307,141,70373,1,0,0:0:0:0:
217,216,70743,1,0,0:0:0:0:
153,247,71112,1,0,0:0:0:0:
102,259,71389,1,0,0:0:0:0:
102,259,71573,1,0,0:0:0:0:
105,143,72035,1,0,0:0:0:0:
105,143,72127,1,0,0:0:0:0:
130,145,72404,1,0,0:0:0:0:
320,146,72773,1,0,0:0:0:0:
320,146,72866,1,0,0:0:0:0:
345,157,73143,1,0,0:0:0:0:
340,273,73512,1,0,0:0:0:0:
339,283,73696,1,0,0:0:0:0:
181,324,73881,1,0,0:0:0:0:
169,324,74066,1,0,0:0:0:0:
105,248,74250,1,0,0:0:0:0:
103,236,74435,1,0,0:0:0:0:
133,156,74619,1,0,0:0:0:0:
156,145,74804,1,0,0:0:0:0:
262,131,74989,1,0,0:0:0:0:
298,134,75173,1,0,0:0:0:0:
356,152,75358,1,0,0:0:0:0:
381,160,75543,1,0,0:0:0:0:
200,196,76281,1,0,0:0:0:0:
112,92,76927,1,0,0:0:0:0:
393,141,77389,1,0,0:0:0:0:
166,258,77758,1,0,0:0:0:0:
184,116,78035,1,0,0:0:0:0:
224,103,78127,1,0,0:0:0:0:
351,255,78496,1,0,0:0:0:0:
103,277,78681,1,0,0:0:0:0:
187,193,78866,1,0,0:0:0:0:
268,154,79050,1,0,0:0:0:0:
155,82,79235,1,0,0:0:0:0:
284,116,79419,1,0,0:0:0:0:
442,208,79604,1,0,0:0:0:0:
105,308,79973,1,0,0:0:0:0:
117,222,80158,1,0,0:0:0:0:
235,157,80343,1,0,0:0:0:0:
310,186,80619,1,0,0:0:0:0:
294,291,80804,1,0,0:0:0:0:
175,276,80896,1,0,0:0:0:0:
149,125,81266,1,0,0:0:0:0:
253,149,81450,1,0,0:0:0:0:
253,242,81819,1,0,0:0:0:0:
120,272,82189,1,0,0:0:0:0:
469,242,82558,1,0,0:0:0:0:
116,231,82927,1,0,0:0:0:0:
380,181,83296,1,0,0:0:0:0:
102,181,83666,1,0,0:0:0:0:
418,154,83850,1,0,0:0:0:0:
135,167,84035,1,0,0:0:0:0:
393,134,84404,1,0,0:0:0:0:
120,164,84589,1,0,0:0:0:0:
397,141,84773,1,0,0:0:0:0:
108,177,85327,1,0,0:0:0:0:
303,147,85512,1,0,0:0:0:0:
233,48,85973,1,0,0:0:0:0:
281,228,86250,1,0,0:0:0:0:
127,80,86619,1,0,0:0:0:0:
408,99,86989,1,0,0:0:0:0:
204,224,87358,1,0,0:0:0:0:
229,81,87727,1,0,0:0:0:0:
348,202,88096,1,0,0:0:0:0:
163,217,88466,1,0,0:0:0:0:
309,80,88835,1,0,0:0:0:0:
276,196,89204,1,0,0:0:0:0:
164,109,89573,1,0,0:0:0:0:
370,147,89758,1,0,0:0:0:0:
267,134,90035,1,0,0:0:0:0:
250,142,90312,1,0,0:0:0:0:
221,261,90496,1,0,0:0:0:0:
164,85,90681,1,0,0:0:0:0:
237,257,90866,1,0,0:0:0:0:
73,120,91050,1,0,0:0:0:0:
