osu file format v14

[General]
AudioFilename: audio.mp3
AudioLeadIn: 0
PreviewTime: -1
Countdown: 0
SampleSet: Soft
StackLeniency: 0.7
Mode: 3
LetterboxInBreaks: 0
SpecialStyle: 0
WidescreenStoryboard: 1

[Editor]
Bookmarks: 41573
DistanceSpacing: 0.5
BeatDivisor: 8
GridSize: 4
TimelineZoom: 1.7

[Metadata]
Title:Rockefeller Street (Nightcore Mix)
TitleUnicode:Rockefeller Street (Nightcore Mix)
Artist:Getter Jaani
ArtistUnicode:Getter Jaani
Creator:Stressed
Version:Pinkanenome's Awful weeb song be ashamed
Source:
Tags:
BeatmapID:2182839
BeatmapSetID:1041469

[Difficulty]
HPDrainRate:8.5
CircleSize:4
OverallDifficulty:9
ApproachRate:10
SliderMultiplier:2
SliderTickRate:1

[Events]
//Background and Video events
0,0,"Rockefeller_Street_bg_but_backgwwwsw.png",0,0
//Break Periods
//Storyboard Layer 0 (Background)
//Storyboard Layer 1 (Fail)
//Storyboard Layer 2 (Pass)
//Storyboard Layer 3 (Foreground)
//Storyboard Layer 4 (Overlay)
//Storyboard Sound Samples

[TimingPoints]
220,369.230769230769,4,2,22,100,1,0

[HitObjects]
192,192,358,5,0,0:0:0:0:
64,192,358,1,0,0:0:0:0:
320,192,404,1,0,0:0:0:0:
448,192,450,1,0,0:0:0:0:
448,192,543,1,0,0:0:0:0:
64,192,681,1,0,0:0:0:0:
192,192,727,1,0,0:0:0:0:
320,192,866,1,0,0:0:0:0:
448,192,912,1,0,0:0:0:0:
64,192,958,1,0,0:0:0:0:
320,192,958,1,0,0:0:0:0:
192,192,1143,1,0,0:0:0:0:
320,192,1143,1,0,0:0:0:0:
192,192,1281,1,0,0:0:0:0:
320,192,1281,1,0,0:0:0:0:
64,192,1419,1,0,0:0:0:0:
192,192,1466,1,0,0:0:0:0:
320,192,1604,1,0,0:0:0:0:
192,192,1604,1,0,0:0:0:0:
448,192,1696,1,0,0:0:0:0:
320,192,1696,1,0,0:0:0:0:
448,192,1789,1,0,0:0:0:0:
320,192,1789,1,0,0:0:0:0:
448,192,1881,1,0,0:0:0:0:
320,192,1881,1,0,0:0:0:0:
192,192,1973,1,0,0:0:0:0:
320,192,2112,1,0,0:0:0:0:
192,192,2204,1,0,0:0:0:0:
320,192,2296,1,0,0:0:0:0:
64,192,2389,1,0,0:0:0:0:
448,192,2389,1,0,0:0:0:0:
320,192,2389,1,0,0:0:0:0:
192,192,2389,1,0,0:0:0:0:
192,192,2527,1,0,0:0:0:0:
320,192,2619,1,0,0:0:0:0:
64,192,2712,1,0,0:0:0:0:
320,192,2850,1,0,0:0:0:0:
448,192,2989,1,0,0:0:0:0:
192,192,3035,1,0,0:0:0:0:
64,192,3219,1,0,0:0:0:0:
320,192,3266,1,0,0:0:0:0:
192,192,3358,1,0,0:0:0:0:
448,192,3404,1,0,0:0:0:0:
64,192,3450,1,0,0:0:0:0:
320,192,3589,1,0,0:0:0:0:
64,192,3681,1,0,0:0:0:0:
192,192,3681,1,0,0:0:0:0:
448,192,3819,1,0,0:0:0:0:
64,192,3912,1,0,0:0:0:0:
320,192,3912,1,0,0:0:0:0:
320,192,4004,1,0,0:0:0:0:
64,192,4004,1,0,0:0:0:0:
64,192,4143,1,0,0:0:0:0:
448,192,4281,1,0,0:0:0:0:
448,192,4419,1,0,0:0:0:0:
192,192,4558,1,0,0:0:0:0:
448,192,4743,1,0,0:0:0:0:
320,192,4789,1,0,0:0:0:0:
192,192,4835,1,0,0:0:0:0:
64,192,4881,1,0,0:0:0:0:
448,192,4973,1,0,0:0:0:0:
320,192,5019,1,0,0:0:0:0:
64,192,5112,1,0,0:0:0:0:
192,192,5158,1,0,0:0:0:0:
320,192,5204,1,0,0:0:0:0:
448,192,5389,1,0,0:0:0:0:
320,192,5389,1,0,0:0:0:0:
320,192,5481,1,0,0:0:0:0:
448,192,5527,1,0,0:0:0:0:
320,192,5619,1,0,0:0:0:0:
448,192,5619,1,0,0:0:0:0:
64,192,5666,1,0,0:0:0:0:
192,192,5666,1,0,0:0:0:0:
192,192,5758,1,0,0:0:0:0:
64,192,5804,1,0,0:0:0:0:
64,192,5896,1,0,0:0:0:0:
192,192,5896,1,0,0:0:0:0:
64,192,6173,1,0,0:0:0:0:
192,192,6173,1,0,0:0:0:0:
64,192,6266,1,0,0:0:0:0:
320,192,6266,1,0,0:0:0:0:
448,192,6266,1,0,0:0:0:0:
448,192,6358,1,0,0:0:0:0:
64,192,6404,1,0,0:0:0:0:
192,192,6404,1,0,0:0:0:0:
64,192,6496,1,0,0:0:0:0:
448,192,6543,1,0,0:0:0:0:
448,192,6635,1,0,0:0:0:0:
448,192,6727,1,0,0:0:0:0:
64,192,6819,1,0,0:0:0:0:
192,192,6819,1,0,0:0:0:0:
192,192,6912,1,0,0:0:0:0:
320,192,6912,1,0,0:0:0:0:
320,192,7004,1,0,0:0:0:0:
448,192,7004,1,0,0:0:0:0:
64,192,7096,1,0,0:0:0:0:
192,192,7096,1,0,0:0:0:0:
320,192,7143,1,0,0:0:0:0:
448,192,7143,1,0,0:0:0:0:
64,192,7189,1,0,0:0:0:0:
192,192,7189,1,0,0:0:0:0:
448,192,7327,1,0,0:0:0:0:
192,192,7327,1,0,0:0:0:0:
64,192,7373,1,0,0:0:0:0:
320,192,7373,1,0,0:0:0:0:
192,192,7419,1,0,0:0:0:0:
448,192,7419,1,0,0:0:0:0:
64,192,7466,1,0,0:0:0:0:
192,192,7512,1,0,0:0:0:0:
64,192,7558,1,0,0:0:0:0:
192,192,7604,1,0,0:0:0:0:
320,192,7650,1,0,0:0:0:0:
448,192,7696,1,0,0:0:0:0:
320,192,7743,1,0,0:0:0:0:
192,192,7789,1,0,0:0:0:0:
64,192,7835,1,0,0:0:0:0:
192,192,7881,1,0,0:0:0:0:
320,192,7927,1,0,0:0:0:0:
448,192,7973,1,0,0:0:0:0:
64,192,8019,1,0,0:0:0:0:
192,192,8019,1,0,0:0:0:0:
320,192,8112,1,0,0:0:0:0:
448,192,8112,1,0,0:0:0:0:
448,192,8250,1,0,0:0:0:0:
64,192,8343,1,0,0:0:0:0:
192,192,8389,1,0,0:0:0:0:
320,192,8481,1,0,0:0:0:0:
448,192,8527,1,0,0:0:0:0:
64,192,8527,1,0,0:0:0:0:
192,192,8619,1,0,0:0:0:0:
448,192,8666,1,0,0:0:0:0:
320,192,8712,1,0,0:0:0:0:
64,192,8804,1,0,0:0:0:0:
192,192,8804,1,0,0:0:0:0:
448,192,8804,1,0,0:0:0:0:
320,192,8804,1,0,0:0:0:0:
64,192,8896,1,0,0:0:0:0:
192,192,8896,1,0,0:0:0:0:
448,192,8896,1,0,0:0:0:0:
320,192,8896,1,0,0:0:0:0:
64,192,8989,1,0,0:0:0:0:
448,192,8989,1,0,0:0:0:0:
192,192,8989,1,0,0:0:0:0:
320,192,8989,1,0,0:0:0:0:
64,192,9173,1,0,0:0:0:0:
192,192,9173,1,0,0:0:0:0:
64,192,9266,1,0,0:0:0:0:
320,192,9312,1,0,0:0:0:0:
448,192,9312,1,0,0:0:0:0:
448,192,9404,1,0,0:0:0:0:
64,192,9496,1,0,0:0:0:0:
192,192,9496,1,0,0:0:0:0:
64,192,9589,1,0,0:0:0:0:
192,192,9681,1,0,0:0:0:0:
320,192,9681,1,0,0:0:0:0:
320,192,9773,1,0,0:0:0:0:
192,192,9866,1,0,0:0:0:0:
320,192,9866,1,0,0:0:0:0:
448,192,9866,1,0,0:0:0:0:
192,192,10050,1,0,0:0:0:0:
320,192,10050,1,0,0:0:0:0:
448,192,10050,1,0,0:0:0:0:
64,192,10143,1,0,0:0:0:0:
192,192,10143,1,0,0:0:0:0:
320,192,10235,1,0,0:0:0:0:
64,192,10235,1,0,0:0:0:0:
192,192,10235,1,0,0:0:0:0:
448,192,10235,1,0,0:0:0:0:
192,192,10373,1,0,0:0:0:0:
320,192,10466,1,0,0:0:0:0:
448,192,10466,1,0,0:0:0:0:
448,192,10604,1,0,0:0:0:0:
64,192,10696,1,0,0:0:0:0:
192,192,10696,1,0,0:0:0:0:
320,192,10696,1,0,0:0:0:0:
448,192,10696,1,0,0:0:0:0:
64,192,10789,1,0,0:0:0:0:
320,192,10881,1,0,0:0:0:0:
448,192,10881,1,0,0:0:0:0:
64,192,10881,1,0,0:0:0:0:
192,192,10881,1,0,0:0:0:0:
448,192,10973,1,0,0:0:0:0:
64,192,11066,1,0,0:0:0:0:
192,192,11066,1,0,0:0:0:0:
448,192,11066,1,0,0:0:0:0:
320,192,11066,1,0,0:0:0:0:
64,192,11158,1,0,0:0:0:0:
64,192,11250,1,0,0:0:0:0:
192,192,11250,1,0,0:0:0:0:
320,192,11250,1,0,0:0:0:0:
448,192,11250,1,0,0:0:0:0:
320,192,11343,1,0,0:0:0:0:
320,192,11435,1,0,0:0:0:0:
320,192,11527,1,0,0:0:0:0:
320,192,11619,1,0,0:0:0:0:
320,192,11712,1,0,0:0:0:0:
64,192,11712,1,0,0:0:0:0:
192,192,11712,1,0,0:0:0:0:
448,192,11712,1,0,0:0:0:0:
192,192,11804,1,0,0:0:0:0:
192,192,11896,1,0,0:0:0:0:
192,192,11989,1,0,0:0:0:0:
192,192,12081,1,0,0:0:0:0:
192,192,12173,1,0,0:0:0:0:
192,192,12266,1,0,0:0:0:0:
192,192,12358,1,0,0:0:0:0:
64,192,12450,1,0,0:0:0:0:
192,192,12450,1,0,0:0:0:0:
320,192,12450,1,0,0:0:0:0:
448,192,12450,1,0,0:0:0:0:
320,192,12543,1,0,0:0:0:0:
320,192,12635,1,0,0:0:0:0:
320,192,12727,1,0,0:0:0:0:
64,192,12773,1,0,0:0:0:0:
192,192,12773,1,0,0:0:0:0:
448,192,12773,1,0,0:0:0:0:
192,192,12866,1,0,0:0:0:0:
192,192,12958,1,0,0:0:0:0:
192,192,13050,1,0,0:0:0:0:
64,192,13050,1,0,0:0:0:0:
320,192,13050,1,0,0:0:0:0:
448,192,13050,1,0,0:0:0:0:
320,192,13143,1,0,0:0:0:0:
320,192,13235,1,0,0:0:0:0:
320,192,13327,1,0,0:0:0:0:
64,192,13327,1,0,0:0:0:0:
192,192,13327,1,0,0:0:0:0:
448,192,13327,1,0,0:0:0:0:
64,192,13512,1,0,0:0:0:0:
192,192,13604,1,0,0:0:0:0:
320,192,13696,1,0,0:0:0:0:
192,192,13696,1,0,0:0:0:0:
64,192,13743,1,0,0:0:0:0:
448,192,13789,1,0,0:0:0:0:
64,192,13927,1,0,0:0:0:0:
320,192,14066,1,0,0:0:0:0:
448,192,14112,1,0,0:0:0:0:
192,192,14158,1,0,0:0:0:0:
64,192,14250,1,0,0:0:0:0:
320,192,14296,1,0,0:0:0:0:
192,192,14435,1,0,0:0:0:0:
320,192,14435,1,0,0:0:0:0:
64,192,14481,1,0,0:0:0:0:
320,192,14527,1,0,0:0:0:0:
448,192,14527,1,0,0:0:0:0:
192,192,14573,1,0,0:0:0:0:
448,192,14619,1,0,0:0:0:0:
64,192,14666,1,0,0:0:0:0:
320,192,14943,1,0,0:0:0:0:
64,192,14943,1,0,0:0:0:0:
192,192,14943,1,0,0:0:0:0:
448,192,14943,1,0,0:0:0:0:
64,192,15081,1,0,0:0:0:0:
192,192,15127,1,0,0:0:0:0:
320,192,15173,1,0,0:0:0:0:
448,192,15219,1,0,0:0:0:0:
320,192,15266,1,0,0:0:0:0:
192,192,15312,1,0,0:0:0:0:
64,192,15358,1,0,0:0:0:0:
192,192,15404,1,0,0:0:0:0:
320,192,15450,1,0,0:0:0:0:
448,192,15496,1,0,0:0:0:0:
64,192,15773,1,0,0:0:0:0:
192,192,15819,1,0,0:0:0:0:
320,192,15866,1,0,0:0:0:0:
448,192,15958,1,0,0:0:0:0:
64,192,16050,1,0,0:0:0:0:
192,192,16050,1,0,0:0:0:0:
448,192,16143,1,0,0:0:0:0:
192,192,16189,1,0,0:0:0:0:
64,192,16327,1,0,0:0:0:0:
192,192,16327,1,0,0:0:0:0:
448,192,16327,1,0,0:0:0:0:
320,192,16327,1,0,0:0:0:0:
64,192,16419,1,0,0:0:0:0:
448,192,16419,1,0,0:0:0:0:
192,192,16419,1,0,0:0:0:0:
320,192,16419,1,0,0:0:0:0:
64,192,16512,1,0,0:0:0:0:
192,192,16512,1,0,0:0:0:0:
448,192,16512,1,0,0:0:0:0:
320,192,16512,1,0,0:0:0:0:
64,192,16696,1,0,0:0:0:0:
192,192,16743,1,0,0:0:0:0:
320,192,16835,1,0,0:0:0:0:
448,192,16973,1,0,0:0:0:0:
64,192,16973,1,0,0:0:0:0:
192,192,17019,1,0,0:0:0:0:
320,192,17066,1,0,0:0:0:0:
448,192,17112,1,0,0:0:0:0:
320,192,17158,1,0,0:0:0:0:
64,192,17158,1,0,0:0:0:0:
192,192,17204,1,0,0:0:0:0:
320,192,17250,1,0,0:0:0:0:
448,192,17250,1,0,0:0:0:0:
64,192,17296,1,0,0:0:0:0:
192,192,17343,1,0,0:0:0:0:
320,192,17389,1,0,0:0:0:0:
192,192,17435,1,0,0:0:0:0:
448,192,17435,1,0,0:0:0:0:
64,192,17481,1,0,0:0:0:0:
320,192,17481,1,0,0:0:0:0:
64,192,17619,1,0,0:0:0:0:
192,192,17619,1,0,0:0:0:0:
64,192,17712,1,0,0:0:0:0:
320,192,17758,1,0,0:0:0:0:
448,192,17758,1,0,0:0:0:0:
448,192,17850,1,0,0:0:0:0:
64,192,17943,1,0,0:0:0:0:
192,192,17943,1,0,0:0:0:0:
64,192,18035,1,0,0:0:0:0:
320,192,18081,1,0,0:0:0:0:
448,192,18081,1,0,0:0:0:0:
448,192,18173,1,0,0:0:0:0:
64,192,18219,1,0,0:0:0:0:
192,192,18219,1,0,0:0:0:0:
64,192,18312,1,0,0:0:0:0:
320,192,18358,1,0,0:0:0:0:
448,192,18358,1,0,0:0:0:0:
448,192,18450,1,0,0:0:0:0:
192,192,18543,1,0,0:0:0:0:
64,192,18543,1,0,0:0:0:0:
64,192,18635,1,0,0:0:0:0:
320,192,18727,1,0,0:0:0:0:
448,192,18727,1,0,0:0:0:0:
448,192,18819,1,0,0:0:0:0:
64,192,18958,1,0,0:0:0:0:
192,192,18958,1,0,0:0:0:0:
64,192,19050,1,0,0:0:0:0:
192,192,19050,1,0,0:0:0:0:
64,192,19143,1,0,0:0:0:0:
192,192,19143,1,0,0:0:0:0:
320,192,19327,1,0,0:0:0:0:
448,192,19327,1,0,0:0:0:0:
320,192,19419,1,0,0:0:0:0:
448,192,19419,1,0,0:0:0:0:
320,192,19512,1,0,0:0:0:0:
448,192,19512,1,0,0:0:0:0:
64,192,19650,1,0,0:0:0:0:
192,192,19650,1,0,0:0:0:0:
64,192,19743,1,0,0:0:0:0:
192,192,19743,1,0,0:0:0:0:
64,192,19835,1,0,0:0:0:0:
192,192,19835,1,0,0:0:0:0:
320,192,19927,1,0,0:0:0:0:
448,192,19927,1,0,0:0:0:0:
320,192,20019,1,0,0:0:0:0:
448,192,20019,1,0,0:0:0:0:
64,192,20066,1,0,0:0:0:0:
192,192,20066,1,0,0:0:0:0:
320,192,20112,1,0,0:0:0:0:
448,192,20112,1,0,0:0:0:0:
64,192,20296,1,0,0:0:0:0:
192,192,20296,1,0,0:0:0:0:
320,192,20343,1,0,0:0:0:0:
448,192,20343,1,0,0:0:0:0:
192,192,20389,1,0,0:0:0:0:
64,192,20389,1,0,0:0:0:0:
320,192,20527,1,0,0:0:0:0:
448,192,20573,1,0,0:0:0:0:
192,192,20666,1,0,0:0:0:0:
64,192,20712,1,0,0:0:0:0:
320,192,20804,1,0,0:0:0:0:
448,192,20850,1,0,0:0:0:0:
192,192,20943,1,0,0:0:0:0:
64,192,21035,1,0,0:0:0:0:
320,192,21035,1,0,0:0:0:0:
448,192,21081,1,0,0:0:0:0:
192,192,21173,1,0,0:0:0:0:
320,192,21219,1,0,0:0:0:0:
64,192,21266,1,0,0:0:0:0:
448,192,21266,1,0,0:0:0:0:
192,192,21404,1,0,0:0:0:0:
64,192,21450,1,0,0:0:0:0:
320,192,21450,1,0,0:0:0:0:
448,192,21543,1,0,0:0:0:0:
192,192,21589,1,0,0:0:0:0:
64,192,21635,1,0,0:0:0:0:
320,192,21635,1,0,0:0:0:0:
448,192,21727,1,0,0:0:0:0:
192,192,21773,1,0,0:0:0:0:
64,192,21819,1,0,0:0:0:0:
320,192,21819,1,0,0:0:0:0:
448,192,21866,1,0,0:0:0:0:
64,192,22004,1,0,0:0:0:0:
192,192,22004,1,0,0:0:0:0:
64,192,22096,1,0,0:0:0:0:
320,192,22143,1,0,0:0:0:0:
448,192,22143,1,0,0:0:0:0:
448,192,22235,1,0,0:0:0:0:
64,192,22327,1,0,0:0:0:0:
192,192,22327,1,0,0:0:0:0:
64,192,22419,1,0,0:0:0:0:
320,192,22558,1,0,0:0:0:0:
448,192,22558,1,0,0:0:0:0:
64,192,22604,1,0,0:0:0:0:
192,192,22604,1,0,0:0:0:0:
448,192,22650,1,0,0:0:0:0:
64,192,22696,1,0,0:0:0:0:
192,192,22696,1,0,0:0:0:0:
64,192,22835,1,0,0:0:0:0:
192,192,22835,1,0,0:0:0:0:
64,192,22927,1,0,0:0:0:0:
192,192,22927,1,0,0:0:0:0:
320,192,23158,1,0,0:0:0:0:
192,192,23158,1,0,0:0:0:0:
448,192,23158,1,0,0:0:0:0:
192,192,23204,1,0,0:0:0:0:
448,192,23204,1,0,0:0:0:0:
320,192,23204,1,0,0:0:0:0:
64,192,23343,1,0,0:0:0:0:
192,192,23481,1,0,0:0:0:0:
320,192,23481,1,0,0:0:0:0:
448,192,23527,1,0,0:0:0:0:
320,192,23573,1,0,0:0:0:0:
64,192,23758,1,0,0:0:0:0:
320,192,23758,1,0,0:0:0:0:
448,192,23850,1,0,0:0:0:0:
192,192,23896,1,0,0:0:0:0:
64,192,23989,1,0,0:0:0:0:
320,192,23989,1,0,0:0:0:0:
448,192,24081,1,0,0:0:0:0:
192,192,24081,1,0,0:0:0:0:
64,192,24127,1,0,0:0:0:0:
320,192,24219,1,0,0:0:0:0:
64,192,24266,1,0,0:0:0:0:
320,192,24312,1,0,0:0:0:0:
192,192,24312,1,0,0:0:0:0:
448,192,24312,1,0,0:0:0:0:
448,192,24404,1,0,0:0:0:0:
320,192,24450,1,0,0:0:0:0:
64,192,24543,1,0,0:0:0:0:
192,192,24635,1,0,0:0:0:0:
320,192,24681,1,0,0:0:0:0:
448,192,24727,1,0,0:0:0:0:
192,192,24773,1,0,0:0:0:0:
320,192,24773,1,0,0:0:0:0:
448,192,24866,1,0,0:0:0:0:
64,192,25050,1,0,0:0:0:0:
320,192,25096,1,0,0:0:0:0:
448,192,25143,1,0,0:0:0:0:
192,192,25281,1,0,0:0:0:0:
320,192,25373,1,0,0:0:0:0:
448,192,25373,1,0,0:0:0:0:
448,192,25466,1,0,0:0:0:0:
64,192,25466,1,0,0:0:0:0:
192,192,25466,1,0,0:0:0:0:
64,192,25558,1,0,0:0:0:0:
320,192,25696,1,0,0:0:0:0:
448,192,25696,1,0,0:0:0:0:
448,192,25789,1,0,0:0:0:0:
64,192,25881,1,0,0:0:0:0:
192,192,25881,1,0,0:0:0:0:
64,192,25973,1,0,0:0:0:0:
320,192,26019,1,0,0:0:0:0:
448,192,26066,1,0,0:0:0:0:
320,192,26112,1,0,0:0:0:0:
192,192,26158,1,0,0:0:0:0:
64,192,26250,1,0,0:0:0:0:
192,192,26296,1,0,0:0:0:0:
320,192,26343,1,0,0:0:0:0:
448,192,26389,1,0,0:0:0:0:
320,192,26435,1,0,0:0:0:0:
448,192,26527,1,0,0:0:0:0:
320,192,26527,1,0,0:0:0:0:
448,192,26619,1,0,0:0:0:0:
320,192,26619,1,0,0:0:0:0:
192,192,26619,1,0,0:0:0:0:
64,192,26619,1,0,0:0:0:0:
320,192,26712,1,0,0:0:0:0:
448,192,26712,1,0,0:0:0:0:
64,192,26804,1,0,0:0:0:0:
192,192,26804,1,0,0:0:0:0:
320,192,26896,1,0,0:0:0:0:
448,192,26896,1,0,0:0:0:0:
64,192,26989,1,0,0:0:0:0:
320,192,26989,1,0,0:0:0:0:
448,192,26989,1,0,0:0:0:0:
192,192,26989,1,0,0:0:0:0:
64,192,29758,1,0,0:0:0:0:
192,192,29758,1,0,0:0:0:0:
320,192,29758,1,0,0:0:0:0:
448,192,29758,1,0,0:0:0:0:
64,192,29850,1,0,0:0:0:0:
192,192,29850,1,0,0:0:0:0:
320,192,29850,1,0,0:0:0:0:
448,192,29850,1,0,0:0:0:0:
64,192,29943,1,0,0:0:0:0:
192,192,29943,1,0,0:0:0:0:
320,192,29943,1,0,0:0:0:0:
448,192,29943,1,0,0:0:0:0:
64,192,30035,1,0,0:0:0:0:
192,192,30035,1,0,0:0:0:0:
320,192,30035,1,0,0:0:0:0:
448,192,30035,1,0,0:0:0:0:
64,192,30312,1,0,0:0:0:0:
448,192,30404,1,0,0:0:0:0:
320,192,30404,1,0,0:0:0:0:
320,192,30496,1,0,0:0:0:0:
448,192,30496,1,0,0:0:0:0:
320,192,30589,1,0,0:0:0:0:
448,192,30589,1,0,0:0:0:0:
320,192,30681,1,0,0:0:0:0:
448,192,30681,1,0,0:0:0:0:
320,192,30773,1,0,0:0:0:0:
448,192,30773,1,0,0:0:0:0:
64,192,30866,1,0,0:0:0:0:
192,192,30866,1,0,0:0:0:0:
64,192,30958,1,0,0:0:0:0:
192,192,30958,1,0,0:0:0:0:
64,192,31050,1,0,0:0:0:0:
192,192,31050,1,0,0:0:0:0:
64,192,31143,1,0,0:0:0:0:
192,192,31143,1,0,0:0:0:0:
320,192,31327,1,0,0:0:0:0:
448,192,31327,1,0,0:0:0:0:
192,192,31373,1,0,0:0:0:0:
64,192,31373,1,0,0:0:0:0:
320,192,31419,1,0,0:0:0:0:
448,192,31419,1,0,0:0:0:0:
192,192,31466,1,0,0:0:0:0:
64,192,31466,1,0,0:0:0:0:
320,192,31512,1,0,0:0:0:0:
448,192,31512,1,0,0:0:0:0:
192,192,31558,1,0,0:0:0:0:
64,192,31558,1,0,0:0:0:0:
320,192,31604,1,0,0:0:0:0:
448,192,31604,1,0,0:0:0:0:
192,192,31743,1,0,0:0:0:0:
64,192,31743,1,0,0:0:0:0:
320,192,31835,1,0,0:0:0:0:
448,192,32019,1,0,0:0:0:0:
64,192,32066,1,0,0:0:0:0:
320,192,32112,1,0,0:0:0:0:
64,192,32204,1,0,0:0:0:0:
320,192,32250,1,0,0:0:0:0:
448,192,32250,1,0,0:0:0:0:
320,192,32343,1,0,0:0:0:0:
448,192,32343,1,0,0:0:0:0:
320,192,32435,1,0,0:0:0:0:
448,192,32435,1,0,0:0:0:0:
320,192,32527,1,0,0:0:0:0:
448,192,32527,1,0,0:0:0:0:
64,192,32712,1,0,0:0:0:0:
192,192,32712,1,0,0:0:0:0:
320,192,32712,1,0,0:0:0:0:
448,192,32712,1,0,0:0:0:0:
64,192,32943,1,0,0:0:0:0:
192,192,32943,1,0,0:0:0:0:
320,192,32943,1,0,0:0:0:0:
448,192,32943,1,0,0:0:0:0:
64,192,33219,1,0,0:0:0:0:
192,192,33219,1,0,0:0:0:0:
192,192,33312,1,0,0:0:0:0:
320,192,33312,1,0,0:0:0:0:
448,192,33312,1,0,0:0:0:0:
192,192,33404,1,0,0:0:0:0:
64,192,33404,1,0,0:0:0:0:
320,192,33450,1,0,0:0:0:0:
448,192,33450,1,0,0:0:0:0:
320,192,33543,1,0,0:0:0:0:
448,192,33543,1,0,0:0:0:0:
192,192,33589,1,0,0:0:0:0:
64,192,33589,1,0,0:0:0:0:
320,192,33727,1,0,0:0:0:0:
448,192,33727,1,0,0:0:0:0:
192,192,33773,1,0,0:0:0:0:
64,192,33773,1,0,0:0:0:0:
320,192,33819,1,0,0:0:0:0:
448,192,33819,1,0,0:0:0:0:
192,192,33866,1,0,0:0:0:0:
64,192,33866,1,0,0:0:0:0:
320,192,33912,1,0,0:0:0:0:
448,192,33912,1,0,0:0:0:0:
64,192,33958,1,0,0:0:0:0:
192,192,33958,1,0,0:0:0:0:
320,192,34004,1,0,0:0:0:0:
448,192,34004,1,0,0:0:0:0:
192,192,34050,1,0,0:0:0:0:
64,192,34050,1,0,0:0:0:0:
320,192,34096,1,0,0:0:0:0:
448,192,34096,1,0,0:0:0:0:
320,192,34281,1,0,0:0:0:0:
448,192,34281,1,0,0:0:0:0:
320,192,34373,1,0,0:0:0:0:
448,192,34373,1,0,0:0:0:0:
320,192,34466,1,0,0:0:0:0:
448,192,34466,1,0,0:0:0:0:
320,192,34558,1,0,0:0:0:0:
448,192,34558,1,0,0:0:0:0:
64,192,34743,1,0,0:0:0:0:
192,192,34743,1,0,0:0:0:0:
320,192,34789,1,0,0:0:0:0:
448,192,34789,1,0,0:0:0:0:
192,192,34835,1,0,0:0:0:0:
64,192,34835,1,0,0:0:0:0:
320,192,34973,1,0,0:0:0:0:
192,192,35019,1,0,0:0:0:0:
64,192,35066,1,0,0:0:0:0:
448,192,35066,1,0,0:0:0:0:
320,192,35158,1,0,0:0:0:0:
64,192,35250,1,0,0:0:0:0:
192,192,35250,1,0,0:0:0:0:
320,192,35296,1,0,0:0:0:0:
448,192,35296,1,0,0:0:0:0:
192,192,35343,1,0,0:0:0:0:
64,192,35343,1,0,0:0:0:0:
320,192,35389,1,0,0:0:0:0:
448,192,35389,1,0,0:0:0:0:
192,192,35435,1,0,0:0:0:0:
64,192,35435,1,0,0:0:0:0:
448,192,35666,1,0,0:0:0:0:
320,192,35666,1,0,0:0:0:0:
192,192,35666,1,0,0:0:0:0:
64,192,35666,1,0,0:0:0:0:
64,192,35804,1,0,0:0:0:0:
192,192,35804,1,0,0:0:0:0:
320,192,35804,1,0,0:0:0:0:
448,192,35804,1,0,0:0:0:0:
320,192,35989,1,0,0:0:0:0:
448,192,35989,1,0,0:0:0:0:
192,192,36035,1,0,0:0:0:0:
64,192,36035,1,0,0:0:0:0:
320,192,36081,1,0,0:0:0:0:
448,192,36081,1,0,0:0:0:0:
192,192,36127,1,0,0:0:0:0:
64,192,36127,1,0,0:0:0:0:
320,192,36173,1,0,0:0:0:0:
448,192,36173,1,0,0:0:0:0:
192,192,36219,1,0,0:0:0:0:
64,192,36219,1,0,0:0:0:0:
320,192,36266,1,0,0:0:0:0:
448,192,36266,1,0,0:0:0:0:
192,192,36312,1,0,0:0:0:0:
64,192,36312,1,0,0:0:0:0:
320,192,36358,1,0,0:0:0:0:
448,192,36358,1,0,0:0:0:0:
192,192,36589,1,0,0:0:0:0:
64,192,36589,1,0,0:0:0:0:
320,192,36635,1,0,0:0:0:0:
448,192,36635,1,0,0:0:0:0:
64,192,36681,1,0,0:0:0:0:
192,192,36681,1,0,0:0:0:0:
448,192,36727,1,0,0:0:0:0:
320,192,36727,1,0,0:0:0:0:
192,192,36773,1,0,0:0:0:0:
64,192,36773,1,0,0:0:0:0:
320,192,36912,1,0,0:0:0:0:
448,192,36912,1,0,0:0:0:0:
192,192,36958,1,0,0:0:0:0:
64,192,36958,1,0,0:0:0:0:
320,192,37004,1,0,0:0:0:0:
448,192,37004,1,0,0:0:0:0:
192,192,37050,1,0,0:0:0:0:
64,192,37050,1,0,0:0:0:0:
320,192,37096,1,0,0:0:0:0:
448,192,37096,1,0,0:0:0:0:
448,192,37235,1,0,0:0:0:0:
448,192,37327,1,0,0:0:0:0:
448,192,37419,1,0,0:0:0:0:
448,192,37512,1,0,0:0:0:0:
448,192,37604,1,0,0:0:0:0:
64,192,37696,1,0,0:0:0:0:
64,192,37789,1,0,0:0:0:0:
64,192,37881,1,0,0:0:0:0:
64,192,37973,1,0,0:0:0:0:
64,192,38066,1,0,0:0:0:0:
64,192,38158,1,0,0:0:0:0:
64,192,38250,1,0,0:0:0:0:
448,192,38343,1,0,0:0:0:0:
448,192,38435,1,0,0:0:0:0:
448,192,38527,1,0,0:0:0:0:
448,192,38619,1,0,0:0:0:0:
64,192,38758,1,0,0:0:0:0:
448,192,38758,1,0,0:0:0:0:
192,192,38758,1,0,0:0:0:0:
320,192,38758,1,0,0:0:0:0:
320,192,38896,1,0,0:0:0:0:
192,192,38896,1,0,0:0:0:0:
64,192,38896,1,0,0:0:0:0:
448,192,38896,1,0,0:0:0:0:
320,192,39035,1,0,0:0:0:0:
448,192,39035,1,0,0:0:0:0:
192,192,39081,1,0,0:0:0:0:
64,192,39081,1,0,0:0:0:0:
320,192,39127,1,0,0:0:0:0:
448,192,39127,1,0,0:0:0:0:
64,192,39173,1,0,0:0:0:0:
192,192,39173,1,0,0:0:0:0:
320,192,39219,1,0,0:0:0:0:
448,192,39219,1,0,0:0:0:0:
448,192,39404,1,0,0:0:0:0:
448,192,39496,1,0,0:0:0:0:
448,192,39589,1,0,0:0:0:0:
448,192,39681,1,0,0:0:0:0:
64,192,41666,1,0,0:0:0:0:
192,192,41666,1,0,0:0:0:0:
64,192,41758,1,0,0:0:0:0:
320,192,41804,1,0,0:0:0:0:
448,192,41804,1,0,0:0:0:0:
448,192,41896,1,0,0:0:0:0:
320,192,41896,1,0,0:0:0:0:
64,192,42035,1,0,0:0:0:0:
192,192,42035,1,0,0:0:0:0:
64,192,42173,1,0,0:0:0:0:
192,192,42173,1,0,0:0:0:0:
64,192,42266,1,0,0:0:0:0:
192,192,42266,1,0,0:0:0:0:
64,192,42358,1,0,0:0:0:0:
192,192,42358,1,0,0:0:0:0:
320,192,42450,1,0,0:0:0:0:
448,192,42450,1,0,0:0:0:0:
320,192,42543,1,0,0:0:0:0:
448,192,42543,1,0,0:0:0:0:
448,192,42635,1,0,0:0:0:0:
320,192,42635,1,0,0:0:0:0:
320,192,42727,1,0,0:0:0:0:
448,192,42727,1,0,0:0:0:0:
320,192,42819,1,0,0:0:0:0:
448,192,42819,1,0,0:0:0:0:
64,192,42912,1,0,0:0:0:0:
192,192,42912,1,0,0:0:0:0:
64,192,43004,1,0,0:0:0:0:
192,192,43004,1,0,0:0:0:0:
320,192,43096,1,0,0:0:0:0:
448,192,43096,1,0,0:0:0:0:
448,192,43189,1,0,0:0:0:0:
320,192,43189,1,0,0:0:0:0:
64,192,43281,1,0,0:0:0:0:
192,192,43281,1,0,0:0:0:0:
64,192,43373,1,0,0:0:0:0:
320,192,43419,1,0,0:0:0:0:
448,192,43419,1,0,0:0:0:0:
320,192,43512,1,0,0:0:0:0:
64,192,43604,1,0,0:0:0:0:
192,192,43604,1,0,0:0:0:0:
192,192,43696,1,0,0:0:0:0:
320,192,43789,1,0,0:0:0:0:
448,192,43789,1,0,0:0:0:0:
320,192,43881,1,0,0:0:0:0:
64,192,44019,1,0,0:0:0:0:
192,192,44019,1,0,0:0:0:0:
192,192,44112,1,0,0:0:0:0:
192,192,44296,1,0,0:0:0:0:
320,192,44296,1,0,0:0:0:0:
320,192,44389,1,0,0:0:0:0:
64,192,44527,1,0,0:0:0:0:
192,192,44527,1,0,0:0:0:0:
320,192,44619,1,0,0:0:0:0:
448,192,44619,1,0,0:0:0:0:
320,192,44712,1,0,0:0:0:0:
448,192,44712,1,0,0:0:0:0:
64,192,44850,1,0,0:0:0:0:
192,192,44850,1,0,0:0:0:0:
64,192,44943,1,0,0:0:0:0:
192,192,44943,1,0,0:0:0:0:
320,192,44989,1,0,0:0:0:0:
448,192,44989,1,0,0:0:0:0:
320,192,45127,1,0,0:0:0:0:
448,192,45127,1,0,0:0:0:0:
192,192,45173,1,0,0:0:0:0:
64,192,45173,1,0,0:0:0:0:
320,192,45219,1,0,0:0:0:0:
448,192,45219,1,0,0:0:0:0:
192,192,45266,1,0,0:0:0:0:
64,192,45266,1,0,0:0:0:0:
320,192,45312,1,0,0:0:0:0:
448,192,45312,1,0,0:0:0:0:
64,192,45543,1,0,0:0:0:0:
192,192,45543,1,0,0:0:0:0:
320,192,45543,1,0,0:0:0:0:
448,192,45543,1,0,0:0:0:0:
448,192,45635,1,0,0:0:0:0:
64,192,45635,1,0,0:0:0:0:
320,192,45635,1,0,0:0:0:0:
192,192,45635,1,0,0:0:0:0:
64,192,45727,1,0,0:0:0:0:
192,192,45727,1,0,0:0:0:0:
320,192,45727,1,0,0:0:0:0:
448,192,45727,1,0,0:0:0:0:
64,192,45819,1,0,0:0:0:0:
192,192,45819,1,0,0:0:0:0:
320,192,45819,1,0,0:0:0:0:
448,192,45819,1,0,0:0:0:0:
448,192,45912,1,0,0:0:0:0:
64,192,45912,1,0,0:0:0:0:
320,192,45912,1,0,0:0:0:0:
192,192,45912,1,0,0:0:0:0:
64,192,46004,1,0,0:0:0:0:
192,192,46004,1,0,0:0:0:0:
320,192,46004,1,0,0:0:0:0:
448,192,46004,1,0,0:0:0:0:
320,192,46281,1,0,0:0:0:0:
448,192,46281,1,0,0:0:0:0:
448,192,46373,1,0,0:0:0:0:
320,192,46466,1,0,0:0:0:0:
448,192,46466,1,0,0:0:0:0:
64,192,46558,1,0,0:0:0:0:
192,192,46558,1,0,0:0:0:0:
64,192,46650,1,0,0:0:0:0:
192,192,46650,1,0,0:0:0:0:
320,192,46743,1,0,0:0:0:0:
448,192,46743,1,0,0:0:0:0:
448,192,46835,1,0,0:0:0:0:
64,192,46927,1,0,0:0:0:0:
192,192,46927,1,0,0:0:0:0:
64,192,47019,1,0,0:0:0:0:
192,192,47019,1,0,0:0:0:0:
320,192,47158,1,0,0:0:0:0:
448,192,47158,1,0,0:0:0:0:
320,192,47250,1,0,0:0:0:0:
448,192,47250,1,0,0:0:0:0:
64,192,47343,1,0,0:0:0:0:
192,192,47343,1,0,0:0:0:0:
64,192,47435,1,0,0:0:0:0:
192,192,47435,1,0,0:0:0:0:
320,192,47573,1,0,0:0:0:0:
448,192,47573,1,0,0:0:0:0:
320,192,47666,1,0,0:0:0:0:
448,192,47666,1,0,0:0:0:0:
320,192,47758,1,0,0:0:0:0:
448,192,47758,1,0,0:0:0:0:
64,192,47850,1,0,0:0:0:0:
192,192,47850,1,0,0:0:0:0:
64,192,47943,1,0,0:0:0:0:
192,192,47943,1,0,0:0:0:0:
64,192,48035,1,0,0:0:0:0:
192,192,48035,1,0,0:0:0:0:
448,192,48127,1,0,0:0:0:0:
320,192,48127,1,0,0:0:0:0:
448,192,48219,1,0,0:0:0:0:
320,192,48266,1,0,0:0:0:0:
320,192,48358,1,0,0:0:0:0:
448,192,48358,1,0,0:0:0:0:
320,192,48450,1,0,0:0:0:0:
448,192,48450,1,0,0:0:0:0:
320,192,48543,1,0,0:0:0:0:
448,192,48543,1,0,0:0:0:0:
64,192,48635,1,0,0:0:0:0:
192,192,48635,1,0,0:0:0:0:
64,192,48727,1,0,0:0:0:0:
320,192,48866,1,0,0:0:0:0:
448,192,48866,1,0,0:0:0:0:
448,192,48958,1,0,0:0:0:0:
320,192,48958,1,0,0:0:0:0:
320,192,49050,1,0,0:0:0:0:
448,192,49050,1,0,0:0:0:0:
320,192,49143,1,0,0:0:0:0:
448,192,49143,1,0,0:0:0:0:
64,192,49235,1,0,0:0:0:0:
192,192,49235,1,0,0:0:0:0:
64,192,49327,1,0,0:0:0:0:
192,192,49327,1,0,0:0:0:0:
64,192,49419,1,0,0:0:0:0:
192,192,49419,1,0,0:0:0:0:
64,192,49512,1,0,0:0:0:0:
192,192,49512,1,0,0:0:0:0:
320,192,49604,1,0,0:0:0:0:
448,192,49604,1,0,0:0:0:0:
64,192,49696,1,0,0:0:0:0:
192,192,49696,1,0,0:0:0:0:
320,192,49789,1,0,0:0:0:0:
448,192,49789,1,0,0:0:0:0:
192,192,49881,1,0,0:0:0:0:
192,192,49973,1,0,0:0:0:0:
192,192,50066,1,0,0:0:0:0:
192,192,50158,1,0,0:0:0:0:
192,192,50250,1,0,0:0:0:0:
448,192,50389,1,0,0:0:0:0:
320,192,50389,1,0,0:0:0:0:
64,192,50435,1,0,0:0:0:0:
192,192,50435,1,0,0:0:0:0:
320,192,50481,1,0,0:0:0:0:
448,192,50481,1,0,0:0:0:0:
192,192,50619,1,0,0:0:0:0:
64,192,50619,1,0,0:0:0:0:
192,192,50712,1,0,0:0:0:0:
64,192,50712,1,0,0:0:0:0:
448,192,50850,1,0,0:0:0:0:
448,192,50943,1,0,0:0:0:0:
448,192,51035,1,0,0:0:0:0:
448,192,51127,1,0,0:0:0:0:
448,192,51219,1,0,0:0:0:0:
64,192,51358,1,0,0:0:0:0:
64,192,51450,1,0,0:0:0:0:
64,192,51543,1,0,0:0:0:0:
64,192,51635,1,0,0:0:0:0:
64,192,51727,1,0,0:0:0:0:
64,192,51912,1,0,0:0:0:0:
192,192,51912,1,0,0:0:0:0:
320,192,51912,1,0,0:0:0:0:
448,192,51912,1,0,0:0:0:0:
448,192,52143,1,0,0:0:0:0:
320,192,52143,1,0,0:0:0:0:
192,192,52143,1,0,0:0:0:0:
64,192,52143,1,0,0:0:0:0:
64,192,52235,1,0,0:0:0:0:
192,192,52235,1,0,0:0:0:0:
320,192,52235,1,0,0:0:0:0:
448,192,52235,1,0,0:0:0:0:
448,192,52327,1,0,0:0:0:0:
320,192,52327,1,0,0:0:0:0:
192,192,52327,1,0,0:0:0:0:
64,192,52327,1,0,0:0:0:0:
448,192,52419,1,0,0:0:0:0:
320,192,52419,1,0,0:0:0:0:
192,192,52419,1,0,0:0:0:0:
64,192,52419,1,0,0:0:0:0:
320,192,52512,1,0,0:0:0:0:
448,192,52512,1,0,0:0:0:0:
320,192,52604,1,0,0:0:0:0:
448,192,52604,1,0,0:0:0:0:
320,192,52696,1,0,0:0:0:0:
448,192,52696,1,0,0:0:0:0:
192,192,52743,1,0,0:0:0:0:
64,192,52743,1,0,0:0:0:0:
320,192,52789,1,0,0:0:0:0:
448,192,52789,1,0,0:0:0:0:
192,192,52835,1,0,0:0:0:0:
64,192,52835,1,0,0:0:0:0:
320,192,52881,1,0,0:0:0:0:
448,192,52881,1,0,0:0:0:0:
192,192,52927,1,0,0:0:0:0:
64,192,52927,1,0,0:0:0:0:
320,192,52973,1,0,0:0:0:0:
448,192,52973,1,0,0:0:0:0:
192,192,53019,1,0,0:0:0:0:
64,192,53019,1,0,0:0:0:0:
320,192,53066,1,0,0:0:0:0:
448,192,53066,1,0,0:0:0:0:
192,192,53112,1,0,0:0:0:0:
64,192,53112,1,0,0:0:0:0:
320,192,53158,1,0,0:0:0:0:
448,192,53158,1,0,0:0:0:0:
192,192,53204,1,0,0:0:0:0:
64,192,53204,1,0,0:0:0:0:
320,192,53250,1,0,0:0:0:0:
448,192,53250,1,0,0:0:0:0:
192,192,53296,1,0,0:0:0:0:
64,192,53296,1,0,0:0:0:0:
320,192,53343,1,0,0:0:0:0:
448,192,53343,1,0,0:0:0:0:
320,192,53481,1,0,0:0:0:0:
448,192,53481,1,0,0:0:0:0:
320,192,53573,1,0,0:0:0:0:
448,192,53573,1,0,0:0:0:0:
320,192,53666,1,0,0:0:0:0:
448,192,53666,1,0,0:0:0:0:
320,192,53758,1,0,0:0:0:0:
448,192,53758,1,0,0:0:0:0:
64,192,54266,1,0,0:0:0:0:
192,192,54266,1,0,0:0:0:0:
64,192,54358,1,0,0:0:0:0:
192,192,54358,1,0,0:0:0:0:
64,192,54450,1,0,0:0:0:0:
192,192,54450,1,0,0:0:0:0:
64,192,54543,1,0,0:0:0:0:
192,192,54543,1,0,0:0:0:0:
64,192,54635,1,0,0:0:0:0:
192,192,54635,1,0,0:0:0:0:
320,192,54819,1,0,0:0:0:0:
448,192,54819,1,0,0:0:0:0:
192,192,54819,1,0,0:0:0:0:
64,192,54819,1,0,0:0:0:0:
320,192,54958,1,0,0:0:0:0:
448,192,54958,1,0,0:0:0:0:
192,192,55050,1,0,0:0:0:0:
64,192,55050,1,0,0:0:0:0:
192,192,55143,1,0,0:0:0:0:
64,192,55143,1,0,0:0:0:0:
64,192,55235,1,0,0:0:0:0:
192,192,55235,1,0,0:0:0:0:
64,192,55327,1,0,0:0:0:0:
192,192,55327,1,0,0:0:0:0:
448,192,55466,1,0,0:0:0:0:
320,192,55466,1,0,0:0:0:0:
320,192,55558,1,0,0:0:0:0:
448,192,55558,1,0,0:0:0:0:
320,192,55650,1,0,0:0:0:0:
448,192,55650,1,0,0:0:0:0:
320,192,55743,1,0,0:0:0:0:
448,192,55743,1,0,0:0:0:0:
64,192,55881,1,0,0:0:0:0:
192,192,55881,1,0,0:0:0:0:
320,192,55927,1,0,0:0:0:0:
448,192,55927,1,0,0:0:0:0:
192,192,55973,1,0,0:0:0:0:
64,192,55973,1,0,0:0:0:0:
320,192,56019,1,0,0:0:0:0:
448,192,56019,1,0,0:0:0:0:
320,192,56343,1,0,0:0:0:0:
448,192,56343,1,0,0:0:0:0:
320,192,56435,1,0,0:0:0:0:
448,192,56435,1,0,0:0:0:0:
320,192,56527,1,0,0:0:0:0:
448,192,56527,1,0,0:0:0:0:
192,192,56573,1,0,0:0:0:0:
64,192,56573,1,0,0:0:0:0:
320,192,56619,1,0,0:0:0:0:
448,192,56619,1,0,0:0:0:0:
320,192,56712,1,0,0:0:0:0:
448,192,56712,1,0,0:0:0:0:
320,192,56804,1,0,0:0:0:0:
448,192,56804,1,0,0:0:0:0:
192,192,56943,1,0,0:0:0:0:
64,192,56943,1,0,0:0:0:0:
64,192,57081,1,0,0:0:0:0:
192,192,57081,1,0,0:0:0:0:
320,192,57219,1,0,0:0:0:0:
448,192,57219,1,0,0:0:0:0:
320,192,57358,1,0,0:0:0:0:
448,192,57358,1,0,0:0:0:0:
192,192,57404,1,0,0:0:0:0:
64,192,57404,1,0,0:0:0:0:
320,192,57496,1,0,0:0:0:0:
448,192,57496,1,0,0:0:0:0:
320,192,57589,1,0,0:0:0:0:
448,192,57589,1,0,0:0:0:0:
192,192,57773,1,0,0:0:0:0:
320,192,57773,1,0,0:0:0:0:
192,192,57866,1,0,0:0:0:0:
320,192,57866,1,0,0:0:0:0:
320,192,57958,1,0,0:0:0:0:
192,192,57958,1,0,0:0:0:0:
320,192,58050,1,0,0:0:0:0:
192,192,58050,1,0,0:0:0:0:
320,192,58143,1,0,0:0:0:0:
192,192,58143,1,0,0:0:0:0:
320,192,58235,1,0,0:0:0:0:
192,192,58235,1,0,0:0:0:0:
192,192,58327,1,0,0:0:0:0:
320,192,58327,1,0,0:0:0:0:
192,192,58419,1,0,0:0:0:0:
320,192,58419,1,0,0:0:0:0:
320,192,58512,1,0,0:0:0:0:
192,192,58512,1,0,0:0:0:0:
320,192,58604,1,0,0:0:0:0:
192,192,58604,1,0,0:0:0:0:
320,192,58696,1,0,0:0:0:0:
192,192,58696,1,0,0:0:0:0:
192,192,58789,1,0,0:0:0:0:
320,192,58789,1,0,0:0:0:0:
192,192,58881,1,0,0:0:0:0:
320,192,58881,1,0,0:0:0:0:
192,192,58973,1,0,0:0:0:0:
320,192,58973,1,0,0:0:0:0:
64,192,58973,1,0,0:0:0:0:
448,192,58973,1,0,0:0:0:0:
64,192,59435,1,0,0:0:0:0:
192,192,59435,1,0,0:0:0:0:
448,192,59435,1,0,0:0:0:0:
320,192,59435,1,0,0:0:0:0:
64,192,59527,1,0,0:0:0:0:
192,192,59527,1,0,0:0:0:0:
448,192,59527,1,0,0:0:0:0:
320,192,59527,1,0,0:0:0:0:
64,192,59619,1,0,0:0:0:0:
192,192,59619,1,0,0:0:0:0:
448,192,59619,1,0,0:0:0:0:
320,192,59619,1,0,0:0:0:0:
64,192,59712,1,0,0:0:0:0:
192,192,59712,1,0,0:0:0:0:
320,192,59712,1,0,0:0:0:0:
448,192,59712,1,0,0:0:0:0:
192,192,59804,1,0,0:0:0:0:
64,192,59804,1,0,0:0:0:0:
320,192,59804,1,0,0:0:0:0:
448,192,59804,1,0,0:0:0:0:
64,192,60266,1,0,0:0:0:0:
192,192,60266,1,0,0:0:0:0:
448,192,60266,1,0,0:0:0:0:
320,192,60266,1,0,0:0:0:0:
64,192,60358,1,0,0:0:0:0:
192,192,60358,1,0,0:0:0:0:
320,192,60358,1,0,0:0:0:0:
448,192,60358,1,0,0:0:0:0:
448,192,60450,1,0,0:0:0:0:
320,192,60450,1,0,0:0:0:0:
192,192,60450,1,0,0:0:0:0:
64,192,60450,1,0,0:0:0:0:
64,192,60543,1,0,0:0:0:0:
192,192,60543,1,0,0:0:0:0:
320,192,60543,1,0,0:0:0:0:
448,192,60543,1,0,0:0:0:0:
448,192,60635,1,0,0:0:0:0:
320,192,60635,1,0,0:0:0:0:
192,192,60635,1,0,0:0:0:0:
64,192,60635,1,0,0:0:0:0:
64,192,61004,1,0,0:0:0:0:
192,192,61004,1,0,0:0:0:0:
320,192,61004,1,0,0:0:0:0:
448,192,61004,1,0,0:0:0:0:
192,192,61096,1,0,0:0:0:0:
320,192,61096,1,0,0:0:0:0:
192,192,61189,1,0,0:0:0:0:
320,192,61189,1,0,0:0:0:0:
320,192,61281,1,0,0:0:0:0:
448,192,61281,1,0,0:0:0:0:
320,192,61696,1,0,0:0:0:0:
64,192,61696,1,0,0:0:0:0:
448,192,61743,1,0,0:0:0:0:
192,192,61743,1,0,0:0:0:0:
64,192,61789,1,0,0:0:0:0:
320,192,61789,1,0,0:0:0:0:
448,192,61835,1,0,0:0:0:0:
192,192,61835,1,0,0:0:0:0:
320,192,61881,1,0,0:0:0:0:
64,192,61881,1,0,0:0:0:0:
64,192,62019,1,0,0:0:0:0:
192,192,62019,1,0,0:0:0:0:
320,192,62019,1,0,0:0:0:0:
448,192,62019,1,0,0:0:0:0:
64,192,62250,1,0,0:0:0:0:
192,192,62250,1,0,0:0:0:0:
320,192,62250,1,0,0:0:0:0:
448,192,62250,1,0,0:0:0:0:
64,192,62481,1,0,0:0:0:0:
192,192,62481,1,0,0:0:0:0:
320,192,62481,1,0,0:0:0:0:
448,192,62481,1,0,0:0:0:0:
320,192,62619,1,0,0:0:0:0:
448,192,62619,1,0,0:0:0:0:
192,192,62758,1,0,0:0:0:0:
64,192,62758,1,0,0:0:0:0:
320,192,62943,1,0,0:0:0:0:
448,192,62943,1,0,0:0:0:0:
64,192,63081,1,0,0:0:0:0:
192,192,63081,1,0,0:0:0:0:
320,192,63219,1,0,0:0:0:0:
448,192,63219,1,0,0:0:0:0:
64,192,63543,1,0,0:0:0:0:
320,192,63543,1,0,0:0:0:0:
448,192,63543,1,0,0:0:0:0:
192,192,63543,1,0,0:0:0:0:
64,192,63958,1,0,0:0:0:0:
192,192,63958,1,0,0:0:0:0:
320,192,63958,1,0,0:0:0:0:
448,192,63958,1,0,0:0:0:0:
64,192,64466,1,0,0:0:0:0:
192,192,64466,1,0,0:0:0:0:
448,192,64466,1,0,0:0:0:0:
320,192,64466,1,0,0:0:0:0:
64,192,64604,1,0,0:0:0:0:
192,192,64604,1,0,0:0:0:0:
320,192,64604,1,0,0:0:0:0:
448,192,64604,1,0,0:0:0:0:
448,192,64835,1,0,0:0:0:0:
320,192,64881,1,0,0:0:0:0:
192,192,64927,1,0,0:0:0:0:
64,192,64973,1,0,0:0:0:0:
192,192,65019,1,0,0:0:0:0:
320,192,65066,1,0,0:0:0:0:
448,192,65112,1,0,0:0:0:0:
320,192,65158,1,0,0:0:0:0:
