osu file format v14

[General]
AudioFilename: audio.mp3
AudioLeadIn: 0
PreviewTime: 41481
Countdown: 0
SampleSet: Soft
StackLeniency: 0.5
Mode: 0
LetterboxInBreaks: 0
WidescreenStoryboard: 0

[Editor]
Bookmarks: 6127,29758,41573,53389,65204,71112,84404,88835,99173,102127
DistanceSpacing: 1
BeatDivisor: 3
GridSize: 8
TimelineZoom: 2.5

[Metadata]
Title:Rockefeller Street (Nightcore Mix)
TitleUnicode:Rockefeller Street (Nightcore Mix)
Artist:Getter Jaani
ArtistUnicode:Getter Jaani
Creator:Sotarks
Version:Taeyang's Extra
Source:
Tags:english speed up version akitoshi corinn -laura- lasse snownino_ miraclee dakinibrave rolniczy mir reform kujinn pentori ggf gottagof4st smokelind lami intoon yukiyo taeyang kyuukai yaleufeu fieryrage ren derandom otaku ayyri eiri- realazy nikakis
BeatmapID:1969637
BeatmapSetID:942866

[Difficulty]
HPDrainRate:5.2
CircleSize:3.8
OverallDifficulty:9
ApproachRate:9
SliderMultiplier:1.72
SliderTickRate:1

[Events]
//Background and Video events
0,0,"bg.jpg",0,0
//Break Periods
2,65404,70512
//Storyboard Layer 0 (Background)
//Storyboard Layer 1 (Fail)
//Storyboard Layer 2 (Pass)
//Storyboard Layer 3 (Foreground)
//Storyboard Sound Samples

[TimingPoints]
220,369.230769230769,4,2,22,42,1,0
220,-133.333333333333,4,2,22,42,0,0
6127,-133.333333333333,4,2,22,52,0,0
29758,-100,4,2,22,62,0,0
41573,-83.3333333333333,4,2,22,72,0,0
46281,-83.3333333333333,4,2,22,72,0,0
46373,-83.3333333333333,4,2,22,72,0,0
47019,-83.3333333333333,4,2,22,72,0,0
47112,-83.3333333333333,4,2,22,72,0,0
53389,-83.3333333333333,4,2,22,82,0,0
63635,-83.3333333333333,4,2,22,82,0,0
63727,-83.3333333333333,4,2,22,82,0,0
65204,-133.333333333333,4,2,22,82,0,0
71112,-111.111111111111,4,2,22,52,0,0
75543,-200,4,2,22,52,0,0
76281,-200,4,2,22,52,0,0
77019,-83.3333333333333,4,2,22,72,0,0
88835,-71.4285714285714,4,2,22,82,0,0
99266,-71.4285714285714,4,2,22,12,0,0
102127,-71.4285714285714,4,2,22,12,0,0

[Colours]
Combo1 : 209,137,137
Combo2 : 72,230,206
Combo3 : 251,155,108

[HitObjects]
208,224,220,5,2,0:2:0:0:
208,224,404,1,0,0:0:0:0:
208,224,589,2,0,P|235:239|271:237,1,64.5000024604798,2|0,0:2|0:0,0:0:0:0:
392,140,958,1,2,0:2:0:0:
392,140,1143,1,0,0:0:0:0:
346,272,1327,1,2,0:2:0:0:
346,272,1512,1,0,0:0:0:0:
353,126,1696,5,2,0:2:0:0:
353,126,1881,1,0,0:0:0:0:
353,126,2066,2,0,L|356:61,1,64.5000024604798,2|0,0:2|0:0,0:0:0:0:
222,28,2435,1,2,0:2:0:0:
222,28,2619,1,0,0:0:0:0:
254,165,2804,1,2,0:2:0:0:
254,165,2989,1,0,0:0:0:0:
356,61,3173,5,2,0:2:0:0:
356,61,3358,1,0,0:0:0:0:
432,138,3543,2,0,P|442:168|434:202,1,64.5000024604798,2|0,3:2|0:0,0:0:0:0:
309,309,3912,1,2,0:2:0:0:
309,309,4096,1,0,0:0:0:0:
361,172,4281,1,2,3:2:0:0:
361,172,4465,1,0,0:0:0:0:
453,285,4650,5,2,0:2:0:0:
453,285,4835,1,0,0:0:0:0:
360,329,5019,2,0,P|329:333|298:324,1,64.5000024604798,2|0,3:2|0:0,0:0:0:0:
157,214,5389,1,2,0:2:0:0:
157,214,5574,1,0,0:0:0:0:
207,351,5758,1,2,3:2:0:0:
207,351,5943,1,0,0:0:0:0:
301,240,6127,5,0,1:2:0:0:
301,240,6311,1,0,0:0:0:0:
301,240,6496,2,0,P|270:231|239:238,1,64.5000024604798,8|0,0:2|0:0,0:0:0:0:
96,273,6866,1,0,1:2:0:0:
96,273,7050,1,0,0:0:0:0:
232,207,7235,1,8,0:2:0:0:
232,207,7419,1,0,0:0:0:0:
126,106,7604,6,0,P|118:136|126:167,1,64.5000024604798,2|0,1:2|0:0,0:0:0:0:
246,293,7973,1,10,0:2:0:0:
246,293,8158,1,0,0:0:0:0:
198,135,8343,1,2,1:2:0:0:
162,288,8527,1,2,0:0:0:0:
313,243,8712,1,10,0:2:0:0:
198,135,8896,1,2,0:0:0:0:
246,293,9081,5,0,1:2:0:0:
246,293,9266,1,0,0:0:0:0:
381,285,9450,2,0,P|391:255|389:223,1,64.5000024604798,8|0,0:2|0:0,0:0:0:0:
268,143,9819,1,0,1:2:0:0:
268,143,10004,1,0,0:0:0:0:
246,293,10188,1,8,0:2:0:0:
346,160,10373,1,0,0:0:0:0:
198,100,10558,6,0,P|187:130|189:162,1,64.5000024604798,2|0,1:2|0:0,0:0:0:0:
246,293,10927,1,10,0:2:0:0:
246,293,11112,1,0,0:0:0:0:
111,248,11296,1,2,1:2:0:0:
272,212,11481,1,2,0:0:0:0:
223,369,11666,1,10,0:2:0:0:
111,248,11850,1,2,0:0:0:0:
246,293,12035,5,0,1:2:0:0:
246,293,12219,1,0,0:0:0:0:
355,220,12404,2,0,L|360:152,1,64.5000024604798,8|0,0:2|0:0,0:0:0:0:
433,263,12773,1,0,1:2:0:0:
433,263,12958,1,0,0:0:0:0:
272,212,13143,1,8,0:2:0:0:
272,212,13327,1,0,0:0:0:0:
364,91,13512,6,0,L|359:155,1,64.5000024604798,2|0,1:2|0:0,0:0:0:0:
348,299,13881,1,10,0:2:0:0:
348,299,14066,1,2,0:0:0:0:
198,238,14250,1,2,1:2:0:0:
355,199,14435,1,2,0:0:0:0:
251,323,14619,1,10,0:2:0:0:
262,161,14804,1,2,0:0:0:0:
348,299,14989,5,0,1:2:0:0:
348,299,15173,1,2,0:0:0:0:
427,235,15358,2,0,P|436:204|432:172,1,64.5000024604798,8|0,0:2|0:0,0:0:0:0:
292,92,15727,1,0,1:2:0:0:
292,92,15912,1,0,0:0:0:0:
143,173,16096,1,8,0:2:0:0:
143,173,16281,1,2,0:0:0:0:
198,36,16466,6,0,L|196:100,1,64.5000024604798,2|0,1:2|0:0,0:0:0:0:
190,243,16835,1,10,0:2:0:0:
190,243,17019,1,2,0:0:0:0:
89,104,17204,1,2,1:2:0:0:
226,169,17389,1,2,0:0:0:0:
156,325,17573,1,10,0:2:0:0:
143,173,17758,1,2,0:0:0:0:
314,157,17943,5,0,1:2:0:0:
314,157,18127,1,0,0:0:0:0:
250,248,18312,2,0,P|219:252|188:242,1,64.5000024604798,8|0,0:2|0:0,0:0:0:0:
89,104,18681,1,0,1:2:0:0:
89,104,18866,1,0,3:2:0:0:
226,169,19050,1,8,0:2:0:0:
226,169,19235,1,0,0:0:0:0:
114,276,19419,6,0,P|105:245|112:213,1,64.5000024604798,2|0,1:2|0:0,0:0:0:0:
181,92,19789,1,10,0:2:0:0:
181,92,19973,1,2,0:0:0:0:
315,161,20158,1,2,1:2:0:0:
188,242,20343,1,2,0:0:0:0:
263,96,20527,1,10,0:2:0:0:
351,233,20712,1,2,0:0:0:0:
188,150,20896,5,0,1:2:0:0:
188,150,21081,1,2,0:0:0:0:
324,97,21266,2,0,P|293:88|262:95,1,64.5000024604798,8|0,0:2|0:0,0:0:0:0:
188,242,21635,1,0,1:2:0:0:
188,242,21819,1,0,3:2:0:0:
306,295,22004,1,10,0:2:0:0:
257,128,22189,1,0,0:0:0:0:
120,194,22373,6,0,P|107:222|107:254,1,64.5000024604798,2|2,1:2|0:0,0:0:0:0:
232,318,22743,1,10,0:2:0:0:
232,318,22927,1,2,0:0:0:0:
295,143,23112,1,2,1:2:0:0:
188,242,23296,1,2,0:0:0:0:
343,288,23481,1,10,0:2:0:0:
289,128,23666,1,2,0:0:0:0:
258,292,23850,5,0,1:2:0:0:
258,292,24035,1,0,0:0:0:0:
383,217,24219,2,0,P|354:206|322:209,1,64.5000024604798,8|0,0:2|0:0,0:0:0:0:
438,286,24589,1,0,1:2:0:0:
438,286,24773,1,0,3:2:0:0:
362,126,24958,1,8,0:2:0:0:
362,126,25142,1,0,0:0:0:0:
254,175,25327,6,0,P|244:205|249:237,1,64.5000024604798,2|2,1:2|0:0,0:0:0:0:
343,288,25697,1,10,0:2:0:0:
343,288,25881,1,2,0:0:0:0:
362,126,26066,1,2,1:2:0:0:
434,289,26250,1,2,0:0:0:0:
249,237,26435,1,10,0:2:0:0:
371,116,26619,1,2,0:0:0:0:
343,288,26804,5,0,1:2:0:0:
343,288,26989,1,2,0:0:0:0:
180,274,27173,2,0,P|170:243|174:212,1,64.5000024604798,8|0,0:2|0:0,0:0:0:0:
252,93,27543,1,0,1:2:0:0:
252,93,27727,1,0,3:2:0:0:
355,199,27912,1,8,0:2:0:0:
355,199,28096,1,0,0:0:0:0:
153,127,28281,5,0,1:2:0:0:
374,53,28466,2,0,P|381:84|375:117,1,64.5000024604798,2|10,0:0|0:2,0:0:0:0:
178,40,28835,1,2,0:0:0:0:
241,243,29019,1,2,1:2:0:0:
292,16,29204,1,2,0:0:0:0:
237,262,29389,1,10,0:2:0:0:
159,32,29573,1,2,0:0:0:0:
381,43,29758,6,0,P|392:85|381:126,1,86,6|0,1:2|1:2,0:0:0:0:
334,184,30035,1,0,1:2:0:0:
334,184,30127,1,10,0:2:0:0:
109,155,30312,1,0,1:2:0:0:
181,116,30496,5,0,1:2:0:0:
189,135,30588,1,0,1:2:0:0:
192,156,30680,1,0,1:2:0:0:
188,178,30772,1,0,1:2:0:0:
179,197,30865,1,8,0:2:0:0:
109,155,31050,1,0,1:2:0:0:
217,96,31234,5,0,1:2:0:0:
229,124,31326,1,0,1:2:0:0:
233,156,31418,1,0,1:0:0:0:
227,189,31512,1,0,1:2:0:0:
214,218,31603,1,10,0:2:0:0:
109,155,31789,1,2,1:2:0:0:
253,77,31973,5,2,1:2:0:0:
269,115,32065,1,0,1:2:0:0:
275,157,32157,1,2,1:2:0:0:
267,201,32249,1,0,1:2:0:0:
249,239,32342,1,10,0:2:0:0:
109,155,32527,1,2,1:2:0:0:
272,49,32712,6,0,P|316:39|361:49,1,86,2|0,1:2|1:2,0:0:0:0:
422,80,32989,1,0,1:2:0:0:
422,80,33081,1,10,0:2:0:0:
348,263,33266,1,0,1:2:0:0:
195,168,33450,5,0,1:2:0:0:
216,169,33542,1,0,1:2:0:0:
237,170,33634,1,0,1:2:0:0:
259,171,33727,1,0,1:2:0:0:
281,172,33820,1,8,0:2:0:0:
348,263,34004,1,0,1:2:0:0:
175,153,34190,5,0,1:2:0:0:
208,155,34282,1,0,1:2:0:0:
239,157,34374,1,0,1:2:0:0:
272,159,34466,1,0,1:2:0:0:
304,159,34559,1,10,0:2:0:0:
267,281,34743,1,2,1:2:0:0:
155,139,34928,5,2,1:2:0:0:
199,142,35020,1,0,1:2:0:0:
241,144,35112,1,2,1:2:0:0:
285,147,35204,1,0,1:2:0:0:
327,147,35297,1,10,0:2:0:0:
186,299,35481,1,2,1:2:0:0:
135,125,35666,6,0,L|226:128,1,86,2|0,1:2|1:2,0:0:0:0:
296,134,35943,1,0,1:2:0:0:
296,134,36035,1,10,0:2:0:0:
186,299,36219,1,0,1:2:0:0:
147,227,36404,5,0,1:2:0:0:
166,219,36496,1,0,1:2:0:0:
187,216,36588,1,0,1:2:0:0:
209,220,36680,1,0,1:2:0:0:
228,229,36773,1,8,0:2:0:0:
186,299,36958,1,0,1:2:0:0:
249,194,37142,5,0,1:2:0:0:
220,181,37235,1,0,1:2:0:0:
187,175,37327,1,2,1:2:0:0:
155,179,37419,1,0,1:2:0:0:
127,191,37511,1,10,0:2:0:0:
186,299,37697,1,2,1:2:0:0:
108,155,37881,5,2,1:2:0:0:
146,139,37973,1,0,1:2:0:0:
188,133,38065,1,2,1:2:0:0:
232,141,38157,1,0,1:2:0:0:
270,159,38250,1,10,0:2:0:0:
186,299,38435,1,2,1:2:0:0:
290,142,38619,6,0,P|331:157|373:147,1,86,2|0,1:2|1:2,0:0:0:0:
434,101,38896,1,0,1:2:0:0:
434,101,38989,1,10,0:2:0:0:
248,60,39173,1,0,1:2:0:0:
280,228,39358,5,0,1:2:0:0:
282,207,39450,1,0,1:2:0:0:
285,186,39542,1,0,1:2:0:0:
287,164,39635,1,0,1:2:0:0:
290,142,39728,1,8,0:2:0:0:
147,106,39912,1,0,1:2:0:0:
291,250,40096,5,0,1:2:0:0:
295,217,40190,1,0,1:0:0:0:
298,186,40282,1,0,1:2:0:0:
302,153,40374,1,0,1:2:0:0:
308,121,40466,1,8,0:0:0:0:
153,188,40651,1,2,1:2:0:0:
301,272,40836,5,2,1:2:0:0:
306,228,40928,1,0,1:2:0:0:
311,187,41020,1,2,1:2:0:0:
316,143,41112,1,0,1:2:0:0:
323,101,41205,1,10,0:2:0:0:
159,270,41389,1,0,1:2:0:0:
378,362,41573,6,0,L|389:249,1,103.199996850586,2|0,1:2|0:0,0:0:0:0:
193,91,41943,2,0,L|203:194,1,103.199996850586,10|0,1:2|0:0,0:0:0:0:
313,10,42312,1,2,1:2:0:0:
89,57,42496,1,2,0:2:0:0:
148,246,42681,2,0,P|193:270|242:258,1,103.199996850586,10|0,1:2|0:0,0:0:0:0:
75,163,43050,5,2,1:2:0:0:
101,339,43235,1,2,0:0:0:0:
301,146,43419,1,10,1:2:0:0:
272,345,43604,1,2,0:0:0:0:
180,94,43789,1,2,1:2:0:0:
190,362,43973,1,2,0:0:0:0:
407,242,44158,2,0,P|362:218|313:230,1,103.199996850586,10|0,1:2|0:0,0:0:0:0:
420,371,44527,5,2,1:2:0:0:
420,371,44712,1,2,0:0:0:0:
473,146,44896,1,10,1:2:0:0:
473,146,45081,1,2,0:0:0:0:
267,167,45266,2,0,P|249:237|290:287,1,137.599995800781,2|2,1:2|0:0,0:0:0:0:
261,294,45635,2,0,B|213:278|213:278|169:294,1,68.7999979003907,8|2,1:2|0:0,0:0:0:0:
287,285,46004,6,0,B|217:260|217:260|139:285,1,154.799995275879,2|2,1:2|0:0,0:0:0:0:
77,243,46373,2,0,P|65:292|87:338,1,103.199996850586,8|0,1:2|0:0,0:0:0:0:
69,355,46743,2,0,P|45:284|74:213,1,154.799995275879,0|0,1:2|0:0,0:0:0:0:
131,164,47112,2,0,P|80:172|34:151,1,103.199996850586,8|0,1:2|0:0,0:0:0:0:
215,17,47481,6,0,L|206:119,1,103.199996850586,2|0,1:2|0:0,0:0:0:0:
341,306,47850,2,0,L|349:203,1,103.199996850586,10|0,1:2|0:0,0:0:0:0:
131,164,48219,1,2,1:2:0:0:
255,362,48404,1,2,0:0:0:0:
405,149,48589,2,0,P|360:125|310:135,1,103.199996850586,10|0,1:2|0:0,0:0:0:0:
156,323,48958,5,2,1:2:0:0:
139,120,49143,1,2,0:0:0:0:
287,337,49327,1,10,1:2:0:0:
313,101,49512,1,2,0:0:0:0:
104,227,49696,1,2,1:2:0:0:
371,290,49881,1,2,0:0:0:0:
244,59,50066,2,0,P|231:108|251:155,1,103.199996850586,10|0,1:2|0:0,0:0:0:0:
382,71,50435,5,2,1:2:0:0:
382,71,50619,1,2,0:0:0:0:
153,11,50804,1,10,1:2:0:0:
153,11,50988,1,2,0:0:0:0:
182,191,51173,2,0,P|245:231|314:202,1,154.799995275879,2|2,1:2|0:0,0:0:0:0:
333,193,51543,2,0,B|317:242|317:242|333:292,1,103.199996850586,8|2,1:2|0:0,0:0:0:0:
390,136,51912,6,0,P|345:112|295:123,1,103.199996850586,2|0,1:2|0:0,0:0:0:0:
187,301,52281,1,8,1:2:0:0:
333,193,52466,1,0,0:0:0:0:
152,64,52650,2,0,L|148:133,3,51.599998425293,8|8|8|8,1:2|3:0|3:0|3:0,0:0:0:0:
85,170,53019,2,0,L|89:239,3,51.599998425293,4|4|4|4,3:0|3:0|3:0|3:0,0:0:0:0:
33,275,53389,5,4,1:2:0:0:
32,274,53573,2,0,P|77:298|129:286,1,103.199996850586,2|10,0:2|1:2,0:0:0:0:
210,215,53943,1,2,0:2:0:0:
294,334,54127,5,0,1:2:0:0:
294,334,54312,2,0,L|303:222,1,103.199996850586,2|10,0:2|1:2,0:0:0:0:
314,98,54681,1,2,0:2:0:0:
378,364,54866,5,0,1:2:0:0:
378,364,55050,2,0,L|387:252,1,103.199996850586,2|10,0:2|1:2,0:0:0:0:
404,67,55419,1,2,0:2:0:0:
143,115,55604,5,0,1:2:0:0:
143,115,55789,2,0,P|126:162|146:208,1,103.199996850586,2|10,0:2|1:2,0:0:0:0:
386,261,56158,1,2,0:2:0:0:
261,59,56343,5,2,1:2:0:0:
193,285,56527,1,2,0:2:0:0:
265,41,56712,1,10,1:2:0:0:
317,315,56896,1,2,0:2:0:0:
157,85,57081,2,0,L|149:187,1,103.199996850586,2|0,1:2|0:2,0:0:0:0:
317,315,57450,2,0,L|309:212,1,103.199996850586,10|0,1:2|0:2,0:0:0:0:
106,258,57819,5,2,1:2:0:0:
343,324,58004,1,2,0:2:0:0:
82,254,58189,1,10,1:2:0:0:
379,196,58373,1,2,0:2:0:0:
194,354,58558,2,0,L|201:251,1,103.199996850586,2|0,1:2|0:2,0:0:0:0:
386,93,58927,2,0,L|379:196,1,103.199996850586,10|0,1:2|0:2,0:0:0:0:
264,24,59296,5,4,1:2:0:0:
264,24,59481,2,0,L|257:127,1,103.199996850586,2|10,0:2|1:2,0:0:0:0:
314,271,59850,1,2,0:2:0:0:
175,46,60035,5,0,1:2:0:0:
175,46,60220,2,0,L|168:149,1,103.199996850586,2|8,0:2|0:0,0:0:0:0:
241,324,60589,1,2,0:2:0:0:
86,68,60773,5,0,1:2:0:0:
86,68,60958,2,0,L|79:171,1,103.199996850586,2|10,0:2|1:2,0:0:0:0:
168,378,61328,1,2,0:2:0:0:
448,275,61512,5,0,1:2:0:0:
448,274,61696,2,0,P|401:248|351:255,1,103.199996850586,2|10,0:2|1:2,0:0:0:0:
105,323,62066,1,2,0:2:0:0:
347,112,62250,5,2,1:2:0:0:
179,348,62435,1,2,0:2:0:0:
275,88,62619,5,10,1:2:0:0:
251,371,62804,1,2,0:2:0:0:
201,99,62989,5,2,1:2:0:0:
325,361,63173,1,2,0:2:0:0:
493,255,63358,2,0,P|424:227|353:254,1,154.799995275879,10|0,1:2|0:0,0:0:0:0:
422,198,63727,6,0,P|441:150|430:101,1,103.199996850586,2|0,1:2|0:2,0:0:0:0:
140,188,64096,2,0,P|129:237|148:284,1,103.199996850586,8|0,1:2|0:2,0:0:0:0:
350,88,64466,2,0,L|247:80,1,103.199996850586,2|0,1:2|0:2,0:0:0:0:
229,308,64835,2,0,L|331:300,1,103.199996850586,8|0,1:2|0:2,0:0:0:0:
168,114,65204,5,0,0:0:0:0:
471,268,71112,5,2,0:0:0:0:
338,206,71358,1,0,0:0:0:0:
338,206,71481,2,0,L|345:66,1,103.199996850586,0|0,3:0|0:0,0:0:0:0:
401,51,71850,1,2,0:0:0:0:
262,147,72096,1,0,0:0:0:0:
261,147,72219,2,0,P|208:166|158:141,1,103.199996850586,0|0,3:0|0:0,0:0:0:0:
109,97,72589,5,2,0:0:0:0:
29,251,72835,1,0,0:0:0:0:
30,251,72958,2,0,L|153:246,1,103.199996850586,0|0,3:0|0:0,0:0:0:0:
209,240,73328,1,2,0:0:0:0:
365,295,73573,1,0,0:0:0:0:
365,295,73696,2,0,P|310:311|263:291,1,103.199996850586,0|0,3:0|0:0,0:0:0:0:
209,240,74066,6,0,L|216:119,1,103.199996850586,2|0,0:0|0:0,0:0:0:0:
278,89,74435,1,0,3:0:0:0:
114,70,74681,1,0,0:0:0:0:
114,70,74804,2,0,L|119:173,1,103.199996850586,2|0,0:0|0:0,0:0:0:0:
78,238,75173,2,0,B|127:217|127:217|180:229,1,103.199996850586,0|0,3:0|0:0,0:0:0:0:
206,298,75543,6,0,P|138:344|61:314,1,172,2|2,0:0|0:0,0:0:0:0:
74,160,77019,6,0,P|123:145|174:149,1,103.199996850586,2|0,1:2|0:0,0:0:0:0:
409,220,77389,2,0,P|358:224|309:210,1,103.199996850586,10|0,1:2|0:0,0:0:0:0:
132,47,77758,1,2,1:2:0:0:
250,336,77943,1,2,0:2:0:0:
363,91,78127,2,0,P|412:76|463:80,1,103.199996850586,10|0,1:2|0:0,0:0:0:0:
331,322,78496,5,2,1:2:0:0:
200,60,78681,1,2,0:0:0:0:
250,336,78866,5,10,1:2:0:0:
281,46,79051,1,2,0:0:0:0:
175,305,79235,5,2,1:2:0:0:
356,77,79420,1,2,0:0:0:0:
489,269,79604,2,0,P|441:286|393:270,1,103.199996850586,10|0,1:2|0:0,0:0:0:0:
162,127,79973,5,2,1:2:0:0:
184,371,80158,1,2,0:0:0:0:
314,111,80343,1,10,1:2:0:0:
289,380,80527,1,2,0:0:0:0:
98,263,80712,2,0,P|78:223|90:166,1,103.199996850586,2|0,1:2|0:0,0:0:0:0:
162,127,80958,2,0,L|239:126,1,68.7999979003907,2|8,0:0|1:2,0:0:0:0:
351,267,81204,1,2,0:0:0:0:
204,262,81450,6,0,P|283:245|353:269,1,154.799995275879,2|2,1:2|0:0,0:0:0:0:
326,279,81819,2,0,P|278:264|228:274,1,103.199996850586,8|0,1:2|0:0,0:0:0:0:
88,335,82189,2,0,B|112:262|112:262|89:185,1,154.799995275879,0|0,1:2|0:0,0:0:0:0:
48,125,82558,2,0,P|95:146|145:134,1,103.199996850586,8|0,1:2|0:0,0:0:0:0:
392,47,82927,6,0,P|342:35|296:56,1,103.199996850586,2|0,1:2|0:0,0:0:0:0:
132,264,83296,2,0,P|178:285|228:274,1,103.199996850586,10|0,1:2|0:0,0:0:0:0:
103,71,83666,1,2,1:2:0:0:
147,369,83850,1,2,0:0:0:0:
403,284,84035,2,0,B|422:237|422:237|406:183,1,103.199996850586,10|0,1:2|0:0,0:0:0:0:
197,68,84404,5,2,1:2:0:0:
166,358,84589,1,2,0:0:0:0:
116,82,84773,5,10,1:2:0:0:
247,344,84958,1,2,0:0:0:0:
272,99,85143,5,2,1:2:0:0:
91,327,85328,1,2,0:0:0:0:
4,72,85512,2,0,P|53:57|102:70,1,103.199996850586,10|0,1:2|0:0,0:0:0:0:
357,219,85881,5,2,1:2:0:0:
91,327,86066,1,2,0:0:0:0:
272,99,86250,1,10,1:2:0:0:
291,344,86435,1,2,0:0:0:0:
148,83,86619,2,0,P|131:130|146:182,1,103.199996850586,2|0,1:2|0:0,0:0:0:0:
200,239,86896,2,0,L|265:236,1,51.599998425293,2|8,0:0|1:2,0:0:0:0:
313,70,87173,1,2,0:0:0:0:
393,168,87358,6,0,L|388:219,3,51.599998425293,8|8|8|8,1:2|3:0|3:0|3:0,0:0:0:0:
329,277,87727,2,0,P|304:284|278:280,3,51.599998425293,8|8|8|8,1:2|3:0|3:0|3:0,0:0:0:0:
212,238,88096,1,4,3:0:0:0:
185,210,88188,1,4,3:0:0:0:
148,200,88280,1,4,3:0:0:0:
111,212,88372,1,4,3:0:0:0:
86,240,88465,1,4,3:0:0:0:
80,278,88557,1,4,3:0:0:0:
94,313,88649,1,4,3:0:0:0:
124,336,88742,1,4,3:0:0:0:
160,339,88835,6,0,P|212:344|287:341,1,120.399996325684,6|0,1:2|3:0,0:0:0:0:
387,38,89204,2,0,P|335:33|260:36,1,120.399996325684,10|0,1:2|3:0,0:0:0:0:
401,368,89573,1,2,1:2:0:0:
475,21,89758,1,2,3:2:0:0:
128,113,89943,2,0,P|106:167|129:220,1,120.399996325684,10|0,1:2|3:2,0:0:0:0:
474,285,90312,5,2,1:2:0:0:
148,119,90496,1,2,3:2:0:0:
491,183,90682,5,10,1:2:0:0:
130,221,90866,1,2,3:2:0:0:
452,89,91051,5,2,1:2:0:0:
170,316,91235,1,2,3:2:0:0:
266,26,91419,2,0,P|324:12|381:28,1,120.399996325684,10|0,1:2|3:0,0:0:0:0:
484,302,91789,5,2,1:2:0:0:
147,321,91973,1,2,3:2:0:0:
381,52,92158,1,10,1:2:0:0:
294,357,92343,1,2,3:2:0:0:
172,75,92527,2,0,B|203:52|203:52|284:63,1,120.399996325684,2|0,1:2|3:0,0:0:0:0:
341,124,92804,2,0,L|336:199,1,60.1999981628419,2|8,0:0|1:2,0:0:0:0:
147,321,93081,1,2,3:2:0:0:
265,49,93266,6,0,P|323:35|381:52,1,120.399996325684,2|0,1:2|3:2,0:0:0:0:
428,357,93635,2,0,P|370:371|312:354,1,120.399996325684,8|0,1:2|3:0,0:0:0:0:
109,132,94004,1,0,1:2:0:0:
379,229,94189,1,0,3:0:0:0:
57,342,94373,1,8,1:2:0:0:
135,28,94558,1,0,3:0:0:0:
439,168,94743,6,0,P|465:220|449:277,1,120.399996325684,2|0,1:2|3:0,0:0:0:0:
125,384,95112,2,0,L|118:242,1,120.399996325684,10|0,1:2|3:0,0:0:0:0:
431,65,95481,1,2,1:2:0:0:
272,362,95666,1,2,3:2:0:0:
75,93,95850,2,0,B|133:75|133:75|189:95,1,120.399996325684,10|0,1:2|3:2,0:0:0:0:
360,362,96219,5,2,1:2:0:0:
406,66,96404,1,2,3:2:0:0:
189,344,96589,5,10,1:2:0:0:
208,45,96774,1,2,3:2:0:0:
273,368,96958,5,2,1:2:0:0:
310,36,97143,1,2,3:2:0:0:
382,358,97327,2,0,P|323:371|267:352,1,120.399996325684,10|0,1:2|3:0,0:0:0:0:
51,153,97696,5,2,1:2:0:0:
357,174,97881,1,2,3:2:0:0:
155,344,98066,1,10,1:2:0:0:
241,44,98250,1,2,3:2:0:0:
412,238,98435,2,0,P|352:258|291:225,1,120.399996325684,2|0,1:2|3:2,0:0:0:0:
233,190,98712,2,0,L|236:128,1,60.1999981628419,2|8,0:0|1:2,0:0:0:0:
374,48,98989,1,2,0:0:0:0:
337,345,99173,5,6,1:2:0:0:
256,192,99266,12,0,102127,0:0:0:0:
