osu file format v14

[General]
AudioFilename: ripndip.mp3
AudioLeadIn: 0
PreviewTime: 64000
Countdown: 0
SampleSet: Soft
StackLeniency: 0.4
Mode: 3
LetterboxInBreaks: 0
SpecialStyle: 0
WidescreenStoryboard: 1

[Editor]
Bookmarks: 102400
DistanceSpacing: 1
BeatDivisor: 6
GridSize: 32
TimelineZoom: 0.8999999

[Metadata]
Title:Rip N Dip
TitleUnicode:Rip N Dip
Artist:Getter
ArtistUnicode:Getter
Creator:snexe
Version:Hope
Source:
Tags:
BeatmapID:1533530
BeatmapSetID:726352

[Difficulty]
HPDrainRate:7
CircleSize:4
OverallDifficulty:7
ApproachRate:9.7
SliderMultiplier:1.4
SliderTickRate:1

[Events]
//Background and Video events
0,0,"maxresdefault.jpg",0,0
//Break Periods
//Storyboard Layer 0 (Background)
//Storyboard Layer 1 (Fail)
//Storyboard Layer 2 (Pass)
//Storyboard Layer 3 (Foreground)
//Storyboard Sound Samples

[TimingPoints]
0,400,4,2,0,40,1,0
12800,-200,4,2,0,40,0,0
22400,-125,4,2,0,40,0,0
25600,-200,4,2,0,40,0,0
36266,-166.666666666667,4,2,0,40,0,0
36400,-142.857142857143,4,2,0,40,0,0
36533,-125,4,2,0,40,0,0
36666,-111.111111111111,4,2,0,40,0,0
36800,-100,4,2,0,40,0,0
44800,-66.6666666666667,4,2,0,40,0,0
44933,-200,4,2,0,40,0,0
45066,-100,4,2,0,40,0,0
51200,-66.6666666666667,4,2,0,40,0,0
51333,-200,4,2,0,40,0,0
51466,-100,4,2,0,40,0,0
57600,-66.6666666666667,4,2,0,40,0,0
57733,-200,4,2,0,40,0,0
57866,-66.6666666666667,4,2,0,40,0,0
58000,-200,4,2,0,40,0,0
58133,-66.6666666666667,4,2,0,40,0,0
58266,-200,4,2,0,40,0,0
58400,-66.6666666666667,4,2,0,40,0,0
58533,-200,4,2,0,40,0,0
58666,-66.6666666666667,4,2,0,40,0,0
58800,-200,4,2,0,40,0,0
58933,-66.6666666666667,4,2,0,40,0,0
59066,-200,4,2,0,40,0,0
59200,-66.6666666666667,4,2,0,40,0,0
59333,-200,4,2,0,40,0,0
59466,-66.6666666666667,4,2,0,40,0,0
59600,-200,4,2,0,40,0,0
59733,-66.6666666666667,4,2,0,40,0,0
59866,-200,4,2,0,40,0,0
60000,-66.6666666666667,4,2,0,40,0,0
60133,-200,4,2,0,40,0,0
60266,-66.6666666666667,4,2,0,40,0,0
60400,-200,4,2,0,40,0,0
60533,-66.6666666666667,4,2,0,40,0,0
60666,-200,4,2,0,40,0,0
60800,-90.9090909090909,4,2,0,40,0,0
61200,-83.3333333333333,4,2,0,40,0,0
61600,-76.9230769230769,4,2,0,40,0,0
62000,-71.4285714285714,4,2,0,40,0,0
62400,-83.3333333333333,4,2,0,40,0,0
62466,-500,4,2,0,40,0,0
62533,-76.9230769230769,4,2,0,40,0,0
62600,-500,4,2,0,40,0,0
62666,-71.4285714285714,4,2,0,40,0,0
62733,-500,4,2,0,40,0,0
62800,-66.6666666666667,4,2,0,40,0,0
62866,-500,4,2,0,40,0,0
62933,-62.5,4,2,0,40,0,0
63000,-500,4,2,0,40,0,0
63066,-58.8235294117647,4,2,0,40,0,0
63133,-500,4,2,0,40,0,0
63200,-55.5555555555556,4,2,0,40,0,0
63266,-500,4,2,0,40,0,0
63333,-52.6315789473684,4,2,0,40,0,0
63400,-500,4,2,0,40,0,0
63466,-50,4,2,0,40,0,0
63533,-500,4,2,0,40,0,0
63600,-47.6190476190476,4,2,0,40,0,0
63666,-500,4,2,0,40,0,0
63733,-45.4545454545455,4,2,0,40,0,0
63800,-500,4,2,0,40,0,0
63866,-43.4782608695652,4,2,0,40,0,0
63933,-500,4,2,0,40,0,0
64000,-55.5555555555556,4,2,0,40,0,0
64266,-500,4,2,0,40,0,0
64400,-100,4,2,0,40,0,0
65200,-500,4,2,0,40,0,0
65466,-100,4,2,0,40,0,0
66800,-55.5555555555556,4,2,0,40,0,0
66866,-500,4,2,0,40,0,0
66933,-55.5555555555556,4,2,0,40,0,0
67000,-500,4,2,0,40,0,0
67066,-55.5555555555556,4,2,0,40,0,0
67133,-500,4,2,0,40,0,0
67200,-55.5555555555556,4,2,0,40,0,0
67333,-500,4,2,0,40,0,0
67600,-100,4,2,0,40,0,0
69333,-52.6315789473684,4,2,0,40,0,0
69366,-1000,4,2,0,40,0,0
69400,-52.6315789473684,4,2,0,40,0,0
69433,-1000,4,2,0,40,0,0
69466,-100,4,2,0,40,0,0
70000,-66.6666666666667,4,2,0,40,0,0
70133,-62.5,4,2,0,40,0,0
70266,-58.8235294117647,4,2,0,40,0,0
70400,-55.5555555555556,4,2,0,40,0,0
70533,-500,4,2,0,40,0,0
70933,-100,4,2,0,40,0,0
71600,-500,4,2,0,40,0,0
71866,-100,4,2,0,40,0,0
73200,-55.5555555555556,4,2,0,40,0,0
73266,-500,4,2,0,40,0,0
73333,-55.5555555555556,4,2,0,40,0,0
73400,-500,4,2,0,40,0,0
73466,-55.5555555555556,4,2,0,40,0,0
73533,-500,4,2,0,40,0,0
73600,-55.5555555555556,4,2,0,40,0,0
73733,-500,4,2,0,40,0,0
74000,-100,4,2,0,40,0,0
76400,-111.111111111111,4,2,0,40,0,0
76533,-125,4,2,0,40,0,0
76666,-142.857142857143,4,2,0,40,0,0
76800,-55.5555555555556,4,2,0,40,0,0
76933,-500,4,2,0,40,0,0
77066,-100,4,2,0,40,0,0
78000,-500,4,2,0,40,0,0
78266,-100,4,2,0,40,0,0
78800,-66.6666666666667,4,2,0,40,0,0
78866,-76.9230769230769,4,2,0,40,0,0
78933,-100,4,2,0,40,0,0
79600,-55.5555555555556,4,2,0,40,0,0
79666,-500,4,2,0,40,0,0
79733,-55.5555555555556,4,2,0,40,0,0
79800,-500,4,2,0,40,0,0
79866,-55.5555555555556,4,2,0,40,0,0
79933,-500,4,2,0,40,0,0
80000,-55.5555555555556,4,2,0,40,0,0
80133,-500,4,2,0,40,0,0
80400,-100,4,2,0,40,0,0
80400,-66.6666666666667,4,2,0,40,0,0
80466,-76.9230769230769,4,2,0,40,0,0
80533,-100,4,2,0,40,0,0
81200,-66.6666666666667,4,2,0,40,0,0
81266,-76.9230769230769,4,2,0,40,0,0
81333,-100,4,2,0,40,0,0
82133,-52.6315789473684,4,2,0,40,0,0
82166,-1000,4,2,0,40,0,0
82200,-52.6315789473684,4,2,0,40,0,0
82233,-1000,4,2,0,40,0,0
82266,-52.6315789473684,4,2,0,40,0,0
82300,-1000,4,2,0,40,0,0
82333,-52.6315789473684,4,2,0,40,0,0
82366,-1000,4,2,0,40,0,0
82400,-100,4,2,0,40,0,0
82800,6,4,2,0,40,1,0
82801,100000,4,2,0,40,1,0
82933,4,4,2,0,40,1,0
82934,100000,4,2,0,40,1,0
83066,2,4,2,0,40,1,0
83067,100000,4,2,0,40,1,0
83200,400,4,2,0,40,1,0
83200,-55.5555555555556,4,2,0,40,0,0
83333,-500,4,2,0,40,0,0
83600,-100,4,2,0,40,0,0
84400,-500,4,2,0,40,0,0
84666,-100,4,2,0,40,0,0
85200,-66.6666666666667,4,2,0,40,0,0
85266,-76.9230769230769,4,2,0,40,0,0
85333,-100,4,2,0,40,0,0
86000,-55.5555555555556,4,2,0,40,0,0
86066,-500,4,2,0,40,0,0
86133,-55.5555555555556,4,2,0,40,0,0
86200,-500,4,2,0,40,0,0
86266,-55.5555555555556,4,2,0,40,0,0
86333,-500,4,2,0,40,0,0
86400,-55.5555555555556,4,2,0,40,0,0
86533,-500,4,2,0,40,0,0
86800,-66.6666666666667,4,2,0,40,0,0
86866,-76.9230769230769,4,2,0,40,0,0
86933,-100,4,2,0,40,0,0
87600,-66.6666666666667,4,2,0,40,0,0
87666,-76.9230769230769,4,2,0,40,0,0
87733,-100,4,2,0,40,0,0
88400,-66.6666666666667,4,2,0,40,0,0
88466,-76.9230769230769,4,2,0,40,0,0
88533,-100,4,2,0,40,0,0
89600,-55.5555555555556,4,2,0,40,0,0
89733,-500,4,2,0,40,0,0
90000,-55.5555555555556,4,2,0,40,0,0
90133,-500,4,2,0,40,0,0
90266,-55.5555555555556,4,2,0,40,0,0
90400,-500,4,2,0,40,0,0
90533,-100,4,2,0,40,0,0
90800,-500,4,2,0,40,0,0
91066,-100,4,2,0,40,0,0
91200,-52.6315789473684,4,2,0,40,0,0
91233,-1000,4,2,0,40,0,0
91266,-52.6315789473684,4,2,0,40,0,0
91300,-1000,4,2,0,40,0,0
91333,-100,4,2,0,40,0,0
91600,-500,4,2,0,40,0,0
91866,-100,4,2,0,40,0,0
92400,-55.5555555555556,4,2,0,40,0,0
92466,-500,4,2,0,40,0,0
92533,-55.5555555555556,4,2,0,40,0,0
92600,-500,4,2,0,40,0,0
92666,-55.5555555555556,4,2,0,40,0,0
92733,-500,4,2,0,40,0,0
92800,-55.5555555555556,4,2,0,40,0,0
92866,-500,4,2,0,40,0,0
92933,-55.5555555555556,4,2,0,40,0,0
93000,-500,4,2,0,40,0,0
93066,-55.5555555555556,4,2,0,40,0,0
93133,-500,4,2,0,40,0,0
93200,-55.5555555555556,4,2,0,40,0,0
93266,-500,4,2,0,40,0,0
93333,-55.5555555555556,4,2,0,40,0,0
93400,-500,4,2,0,40,0,0
93466,-55.5555555555556,4,2,0,40,0,0
93533,-500,4,2,0,40,0,0
93600,-55.5555555555556,4,2,0,40,0,0
93666,-500,4,2,0,40,0,0
93733,-55.5555555555556,4,2,0,40,0,0
93800,-500,4,2,0,40,0,0
93866,-55.5555555555556,4,2,0,40,0,0
93933,-500,4,2,0,40,0,0
94000,-66.6666666666667,4,2,0,40,0,0
94133,-62.5,4,2,0,40,0,0
94266,-58.8235294117647,4,2,0,40,0,0
94400,-55.5555555555556,4,2,0,40,0,0
94466,-500,4,2,0,40,0,0
94533,-55.5555555555556,4,2,0,40,0,0
94600,-500,4,2,0,40,0,0
94666,-55.5555555555556,4,2,0,40,0,0
94733,-500,4,2,0,40,0,0
94800,-55.5555555555556,4,2,0,40,0,0
94866,-500,4,2,0,40,0,0
94933,-55.5555555555556,4,2,0,40,0,0
95000,-500,4,2,0,40,0,0
95066,-55.5555555555556,4,2,0,40,0,0
95133,-500,4,2,0,40,0,0
95200,-55.5555555555556,4,2,0,40,0,0
95266,-500,4,2,0,40,0,0
95333,-55.5555555555556,4,2,0,40,0,0
95400,-500,4,2,0,40,0,0
95466,-55.5555555555556,4,2,0,40,0,0
95533,-500,4,2,0,40,0,0
95600,-52.6315789473684,4,2,0,40,0,0
95633,-1000,4,2,0,40,0,0
95666,-52.6315789473684,4,2,0,40,0,0
95700,-1000,4,2,0,40,0,0
95733,-52.6315789473684,4,2,0,40,0,0
95766,-1000,4,2,0,40,0,0
95800,-52.6315789473684,4,2,0,40,0,0
95833,-1000,4,2,0,40,0,0
95866,-52.6315789473684,4,2,0,40,0,0
95900,-1000,4,2,0,40,0,0
95933,-52.6315789473684,4,2,0,40,0,0
95966,-1000,4,2,0,40,0,0
96000,-55.5555555555556,4,2,0,40,0,0
96133,-500,4,2,0,40,0,0
96400,-55.5555555555556,4,2,0,40,0,0
96533,-500,4,2,0,40,0,0
96666,-55.5555555555556,4,2,0,40,0,0
96800,-500,4,2,0,40,0,0
96933,-100,4,2,0,40,0,0
97200,-500,4,2,0,40,0,0
97466,-100,4,2,0,40,0,0
97600,-52.6315789473684,4,2,0,40,0,0
97633,-1000,4,2,0,40,0,0
97666,-52.6315789473684,4,2,0,40,0,0
97700,-1000,4,2,0,40,0,0
97733,-100,4,2,0,40,0,0
98000,-500,4,2,0,40,0,0
98266,-100,4,2,0,40,0,0
98533,-55.5555555555556,4,2,0,40,0,0
98566,-1000,4,2,0,40,0,0
98600,-52.6315789473684,4,2,0,40,0,0
98633,-1000,4,2,0,40,0,0
98666,-50,4,2,0,40,0,0
98700,-1000,4,2,0,40,0,0
98733,-47.6190476190476,4,2,0,40,0,0
98766,-1000,4,2,0,40,0,0
98800,-50,4,2,0,40,0,0
98833,-1000,4,2,0,40,0,0
98866,-52.6315789473684,4,2,0,40,0,0
98900,-1000,4,2,0,40,0,0
98933,-55.5555555555556,4,2,0,40,0,0
99000,-500,4,2,0,40,0,0
99066,-55.5555555555556,4,2,0,40,0,0
99133,-500,4,2,0,40,0,0
99200,-55.5555555555556,4,2,0,40,0,0
99333,-500,4,2,0,40,0,0
99600,-66.6666666666667,4,2,0,40,0,0
99666,-500,4,2,0,40,0,0
99733,-66.6666666666667,4,2,0,40,0,0
99800,-500,4,2,0,40,0,0
99866,-66.6666666666667,4,2,0,40,0,0
99933,-500,4,2,0,40,0,0
100000,-66.6666666666667,4,2,0,40,0,0
100066,-500,4,2,0,40,0,0
100133,-62.5,4,2,0,40,0,0
100200,-500,4,2,0,40,0,0
100266,-58.8235294117647,4,2,0,40,0,0
100333,-500,4,2,0,40,0,0
100400,-55.5555555555556,4,2,0,40,0,0
100466,-500,4,2,0,40,0,0
100533,-55.5555555555556,4,2,0,40,0,0
100600,-500,4,2,0,40,0,0
100666,-55.5555555555556,4,2,0,40,0,0
100733,-500,4,2,0,40,0,0
100800,-50,4,2,0,40,0,0
100866,-500,4,2,0,40,0,0
100933,-52.6315789473684,4,2,0,40,0,0
101000,-500,4,2,0,40,0,0
101066,-55.5555555555556,4,2,0,40,0,0
101133,-500,4,2,0,40,0,0
101200,-50,4,2,0,40,0,0
101266,-500,4,2,0,40,0,0
101333,-52.6315789473684,4,2,0,40,0,0
101400,-500,4,2,0,40,0,0
101466,-55.5555555555556,4,2,0,40,0,0
101533,-500,4,2,0,40,0,0
101600,-50,4,2,0,40,0,0
101666,-500,4,2,0,40,0,0
101733,-100,4,2,0,40,0,0

[Colours]
Combo1 : 234,95,11
Combo2 : 146,75,216
Combo3 : 219,43,215
Combo4 : 0,179,58
Combo5 : 62,153,253

[HitObjects]
192,192,12266,5,0,0:0:0:0:
320,192,12333,1,0,0:0:0:0:
192,192,12400,1,0,0:0:0:0:
448,192,12533,1,0,0:0:0:0:
64,192,12666,1,0,0:0:0:0:
192,192,12800,1,0,0:0:0:0:
320,192,12800,1,0,0:0:0:0:
448,192,12800,128,0,15200:0:0:0:0:
64,192,15200,128,0,15600:0:0:0:0:
320,192,15600,128,0,16000:0:0:0:0:
192,192,16000,128,0,16800:0:0:0:0:
64,192,16800,128,0,17200:0:0:0:0:
448,192,17200,128,0,17600:0:0:0:0:
320,192,17600,128,0,18400:0:0:0:0:
192,192,18400,128,0,19200:0:0:0:0:
64,192,19200,128,0,21600:0:0:0:0:
320,192,21600,128,0,22400:0:0:0:0:
448,192,22400,128,0,24000:0:0:0:0:
64,192,24000,128,0,24133:0:0:0:0:
192,192,24133,128,0,24266:0:0:0:0:
320,192,24266,128,0,24400:0:0:0:0:
64,192,24400,128,0,24800:0:0:0:0:
192,192,24533,128,0,24800:0:0:0:0:
320,192,24666,128,0,24800:0:0:0:0:
448,192,24800,128,0,24933:0:0:0:0:
320,192,24933,128,0,25066:0:0:0:0:
192,192,25066,128,0,25200:0:0:0:0:
448,192,25200,128,0,25466:0:0:0:0:
320,192,25333,128,0,25466:0:0:0:0:
64,192,25466,128,0,25600:0:0:0:0:
192,192,25600,1,0,0:0:0:0:
320,192,25600,1,0,0:0:0:0:
448,192,25600,128,0,28000:0:0:0:0:
192,192,28000,128,0,28400:0:0:0:0:
320,192,28400,128,0,28800:0:0:0:0:
64,192,28800,128,0,29600:0:0:0:0:
448,192,29600,128,0,30000:0:0:0:0:
192,192,30000,128,0,30400:0:0:0:0:
320,192,30400,128,0,30933:0:0:0:0:
64,192,30933,128,0,31066:0:0:0:0:
448,192,31066,128,0,31200:0:0:0:0:
64,192,31200,128,0,31466:0:0:0:0:
320,192,31466,128,0,31600:0:0:0:0:
192,192,31600,128,0,31733:0:0:0:0:
448,192,31733,128,0,31866:0:0:0:0:
64,192,31866,128,0,32000:0:0:0:0:
192,192,32000,128,0,33600:0:0:0:0:
320,192,33600,128,0,34400:0:0:0:0:
64,192,34400,128,0,35200:0:0:0:0:
448,192,35200,128,0,36800:0:0:0:0:
320,192,36800,128,0,36933:0:0:0:0:
64,192,36933,128,0,37066:0:0:0:0:
192,192,37066,128,0,37200:0:0:0:0:
448,192,37200,128,0,37333:0:0:0:0:
320,192,37333,128,0,37466:0:0:0:0:
192,192,37466,128,0,37600:0:0:0:0:
448,192,37600,128,0,37733:0:0:0:0:
64,192,37733,128,0,37866:0:0:0:0:
320,192,37866,128,0,38000:0:0:0:0:
448,192,38000,128,0,38133:0:0:0:0:
192,192,38133,128,0,38266:0:0:0:0:
448,192,38266,128,0,38400:0:0:0:0:
64,192,38400,1,0,0:0:0:0:
192,192,38400,1,0,0:0:0:0:
64,192,38800,1,0,0:0:0:0:
64,192,39200,1,0,0:0:0:0:
64,192,39600,1,0,0:0:0:0:
448,192,40000,1,0,0:0:0:0:
448,192,40400,1,0,0:0:0:0:
448,192,40800,1,0,0:0:0:0:
448,192,41200,1,0,0:0:0:0:
192,192,41600,1,0,0:0:0:0:
192,192,42000,1,0,0:0:0:0:
192,192,42400,1,0,0:0:0:0:
192,192,42800,1,0,0:0:0:0:
320,192,43200,1,0,0:0:0:0:
320,192,43600,1,0,0:0:0:0:
320,192,44000,1,0,0:0:0:0:
192,192,44266,1,0,0:0:0:0:
448,192,44333,1,0,0:0:0:0:
192,192,44400,1,0,0:0:0:0:
64,192,44533,1,0,0:0:0:0:
320,192,44666,1,0,0:0:0:0:
192,192,44800,1,0,0:0:0:0:
64,192,44800,1,0,0:0:0:0:
448,192,44800,1,0,0:0:0:0:
320,192,45066,1,0,0:0:0:0:
320,192,45200,1,0,0:0:0:0:
64,192,45466,1,0,0:0:0:0:
448,192,45600,1,0,0:0:0:0:
448,192,45733,1,0,0:0:0:0:
448,192,45866,1,0,0:0:0:0:
64,192,46000,1,0,0:0:0:0:
64,192,46266,1,0,0:0:0:0:
192,192,46400,1,0,0:0:0:0:
192,192,46666,1,0,0:0:0:0:
192,192,46800,1,0,0:0:0:0:
448,192,47066,1,0,0:0:0:0:
320,192,47200,1,0,0:0:0:0:
320,192,47333,1,0,0:0:0:0:
320,192,47466,1,0,0:0:0:0:
448,192,47600,1,0,0:0:0:0:
192,192,47866,1,0,0:0:0:0:
448,192,48000,1,0,0:0:0:0:
64,192,48266,1,0,0:0:0:0:
64,192,48400,1,0,0:0:0:0:
192,192,48666,1,0,0:0:0:0:
448,192,48800,1,0,0:0:0:0:
448,192,48933,1,0,0:0:0:0:
448,192,49066,1,0,0:0:0:0:
192,192,49200,1,0,0:0:0:0:
320,192,49466,1,0,0:0:0:0:
64,192,49600,1,0,0:0:0:0:
448,192,49600,1,0,0:0:0:0:
448,192,49866,1,0,0:0:0:0:
448,192,50000,1,0,0:0:0:0:
64,192,50000,1,0,0:0:0:0:
192,192,50200,1,0,0:0:0:0:
320,192,50266,1,0,0:0:0:0:
448,192,50333,1,0,0:0:0:0:
192,192,50400,1,0,0:0:0:0:
64,192,50400,1,0,0:0:0:0:
320,192,50666,1,0,0:0:0:0:
192,192,50733,1,0,0:0:0:0:
320,192,50800,1,0,0:0:0:0:
448,192,50933,1,0,0:0:0:0:
64,192,51066,1,0,0:0:0:0:
192,192,51200,1,0,0:0:0:0:
320,192,51200,1,0,0:0:0:0:
448,192,51200,1,0,0:0:0:0:
64,192,51466,1,0,0:0:0:0:
192,192,51600,1,0,0:0:0:0:
448,192,51600,1,0,0:0:0:0:
320,192,51866,1,0,0:0:0:0:
192,192,52000,1,0,0:0:0:0:
64,192,52000,1,0,0:0:0:0:
64,192,52133,1,0,0:0:0:0:
64,192,52266,1,0,0:0:0:0:
320,192,52400,1,0,0:0:0:0:
448,192,52400,1,0,0:0:0:0:
192,192,52666,1,0,0:0:0:0:
64,192,52800,1,0,0:0:0:0:
448,192,52800,1,0,0:0:0:0:
320,192,53066,1,0,0:0:0:0:
192,192,53200,1,0,0:0:0:0:
448,192,53200,1,0,0:0:0:0:
64,192,53466,1,0,0:0:0:0:
320,192,53600,1,0,0:0:0:0:
448,192,53600,1,0,0:0:0:0:
320,192,53733,1,0,0:0:0:0:
320,192,53866,1,0,0:0:0:0:
192,192,54000,1,0,0:0:0:0:
64,192,54000,1,0,0:0:0:0:
448,192,54266,1,0,0:0:0:0:
320,192,54400,1,0,0:0:0:0:
64,192,54400,1,0,0:0:0:0:
192,192,54666,1,0,0:0:0:0:
320,192,54800,1,0,0:0:0:0:
448,192,54800,1,0,0:0:0:0:
192,192,55066,1,0,0:0:0:0:
64,192,55200,1,0,0:0:0:0:
448,192,55200,1,0,0:0:0:0:
448,192,55333,1,0,0:0:0:0:
448,192,55466,1,0,0:0:0:0:
320,192,55600,1,0,0:0:0:0:
192,192,55600,1,0,0:0:0:0:
64,192,55866,1,0,0:0:0:0:
192,192,56000,1,0,0:0:0:0:
448,192,56000,1,0,0:0:0:0:
320,192,56266,1,0,0:0:0:0:
192,192,56400,1,0,0:0:0:0:
64,192,56400,1,0,0:0:0:0:
448,192,56600,1,0,0:0:0:0:
320,192,56666,1,0,0:0:0:0:
192,192,56733,1,0,0:0:0:0:
64,192,56800,1,0,0:0:0:0:
448,192,56800,1,0,0:0:0:0:
320,192,57066,1,0,0:0:0:0:
192,192,57133,1,0,0:0:0:0:
320,192,57200,1,0,0:0:0:0:
448,192,57333,1,0,0:0:0:0:
64,192,57466,1,0,0:0:0:0:
192,192,57600,1,0,0:0:0:0:
320,192,57600,1,0,0:0:0:0:
448,192,57600,1,0,0:0:0:0:
64,192,57866,1,0,0:0:0:0:
320,192,57866,1,0,0:0:0:0:
192,192,58133,1,0,0:0:0:0:
320,192,58133,1,0,0:0:0:0:
64,192,58400,1,0,0:0:0:0:
448,192,58400,1,0,0:0:0:0:
448,192,58666,1,0,0:0:0:0:
320,192,58666,1,0,0:0:0:0:
320,192,58933,1,0,0:0:0:0:
64,192,58933,1,0,0:0:0:0:
64,192,59200,1,0,0:0:0:0:
448,192,59200,1,0,0:0:0:0:
192,192,59466,1,0,0:0:0:0:
64,192,59466,1,0,0:0:0:0:
192,192,59733,1,0,0:0:0:0:
448,192,59733,1,0,0:0:0:0:
320,192,60000,1,0,0:0:0:0:
448,192,60000,1,0,0:0:0:0:
320,192,60266,1,0,0:0:0:0:
64,192,60266,1,0,0:0:0:0:
448,192,60533,1,0,0:0:0:0:
64,192,60533,1,0,0:0:0:0:
320,192,60800,1,0,0:0:0:0:
448,192,60800,1,0,0:0:0:0:
192,192,60933,1,0,0:0:0:0:
320,192,61066,1,0,0:0:0:0:
192,192,61200,1,0,0:0:0:0:
64,192,61200,1,0,0:0:0:0:
320,192,61333,1,0,0:0:0:0:
192,192,61466,1,0,0:0:0:0:
320,192,61600,1,0,0:0:0:0:
448,192,61600,1,0,0:0:0:0:
192,192,61733,1,0,0:0:0:0:
320,192,61866,1,0,0:0:0:0:
192,192,62000,1,0,0:0:0:0:
64,192,62000,1,0,0:0:0:0:
320,192,62133,1,0,0:0:0:0:
192,192,62266,1,0,0:0:0:0:
448,192,62400,1,0,0:0:0:0:
448,192,62533,1,0,0:0:0:0:
448,192,62666,1,0,0:0:0:0:
320,192,62800,1,0,0:0:0:0:
320,192,62933,1,0,0:0:0:0:
320,192,63066,1,0,0:0:0:0:
192,192,63200,1,0,0:0:0:0:
192,192,63333,1,0,0:0:0:0:
192,192,63466,1,0,0:0:0:0:
64,192,63600,1,0,0:0:0:0:
64,192,63733,1,0,0:0:0:0:
64,192,63866,1,0,0:0:0:0:
192,192,64000,1,0,0:0:0:0:
320,192,64000,1,0,0:0:0:0:
448,192,64000,1,0,0:0:0:0:
64,192,64400,1,0,0:0:0:0:
320,192,64533,1,0,0:0:0:0:
192,192,64666,1,0,0:0:0:0:
64,192,64800,1,0,0:0:0:0:
448,192,64800,1,0,0:0:0:0:
320,192,64933,1,0,0:0:0:0:
64,192,65066,1,0,0:0:0:0:
448,192,65200,1,0,0:0:0:0:
192,192,65466,1,0,0:0:0:0:
320,192,65600,1,0,0:0:0:0:
448,192,65600,1,0,0:0:0:0:
64,192,65733,1,0,0:0:0:0:
192,192,65866,1,0,0:0:0:0:
320,192,66000,1,0,0:0:0:0:
64,192,66133,1,0,0:0:0:0:
448,192,66266,1,0,0:0:0:0:
320,192,66400,1,0,0:0:0:0:
64,192,66400,1,0,0:0:0:0:
192,192,66533,1,0,0:0:0:0:
448,192,66666,1,0,0:0:0:0:
64,192,66800,1,0,0:0:0:0:
64,192,66933,1,0,0:0:0:0:
64,192,67066,1,0,0:0:0:0:
320,192,67200,1,0,0:0:0:0:
448,192,67200,1,0,0:0:0:0:
192,192,67600,1,0,0:0:0:0:
64,192,67733,1,0,0:0:0:0:
320,192,67866,1,0,0:0:0:0:
64,192,68000,1,0,0:0:0:0:
448,192,68000,1,0,0:0:0:0:
192,192,68133,1,0,0:0:0:0:
320,192,68266,1,0,0:0:0:0:
448,192,68400,1,0,0:0:0:0:
192,192,68533,1,0,0:0:0:0:
64,192,68666,1,0,0:0:0:0:
320,192,68800,1,0,0:0:0:0:
448,192,68800,1,0,0:0:0:0:
192,192,68933,1,0,0:0:0:0:
64,192,69066,1,0,0:0:0:0:
448,192,69200,1,0,0:0:0:0:
192,192,69333,1,0,0:0:0:0:
64,192,69400,1,0,0:0:0:0:
448,192,69466,1,0,0:0:0:0:
320,192,69533,1,0,0:0:0:0:
192,192,69600,1,0,0:0:0:0:
64,192,69600,1,0,0:0:0:0:
320,192,69733,1,0,0:0:0:0:
448,192,69866,1,0,0:0:0:0:
448,192,70000,128,0,70400:0:0:0:0:
192,192,70400,1,0,0:0:0:0:
64,192,70400,1,0,0:0:0:0:
320,192,70933,1,0,0:0:0:0:
192,192,71066,1,0,0:0:0:0:
320,192,71200,1,0,0:0:0:0:
448,192,71200,1,0,0:0:0:0:
64,192,71333,1,0,0:0:0:0:
192,192,71466,1,0,0:0:0:0:
320,192,71600,1,0,0:0:0:0:
192,192,71866,1,0,0:0:0:0:
64,192,72000,1,0,0:0:0:0:
448,192,72000,1,0,0:0:0:0:
320,192,72133,1,0,0:0:0:0:
64,192,72266,1,0,0:0:0:0:
192,192,72400,1,0,0:0:0:0:
320,192,72533,1,0,0:0:0:0:
64,192,72666,1,0,0:0:0:0:
320,192,72800,1,0,0:0:0:0:
448,192,72800,1,0,0:0:0:0:
192,192,72933,1,0,0:0:0:0:
64,192,73066,1,0,0:0:0:0:
320,192,73200,1,0,0:0:0:0:
320,192,73333,1,0,0:0:0:0:
320,192,73466,1,0,0:0:0:0:
64,192,73600,1,0,0:0:0:0:
192,192,73600,1,0,0:0:0:0:
320,192,74000,1,0,0:0:0:0:
192,192,74133,1,0,0:0:0:0:
448,192,74266,1,0,0:0:0:0:
320,192,74400,1,0,0:0:0:0:
64,192,74400,1,0,0:0:0:0:
192,192,74533,1,0,0:0:0:0:
320,192,74666,1,0,0:0:0:0:
448,192,74800,1,0,0:0:0:0:
192,192,74933,1,0,0:0:0:0:
64,192,75066,1,0,0:0:0:0:
320,192,75200,1,0,0:0:0:0:
448,192,75200,1,0,0:0:0:0:
192,192,75333,1,0,0:0:0:0:
320,192,75466,1,0,0:0:0:0:
448,192,75533,1,0,0:0:0:0:
192,192,75600,1,0,0:0:0:0:
64,192,75600,1,0,0:0:0:0:
320,192,75733,1,0,0:0:0:0:
192,192,75866,1,0,0:0:0:0:
64,192,75866,1,0,0:0:0:0:
320,192,76000,1,0,0:0:0:0:
448,192,76000,1,0,0:0:0:0:
192,192,76133,1,0,0:0:0:0:
64,192,76266,1,0,0:0:0:0:
448,192,76400,128,0,76800:0:0:0:0:
192,192,76800,1,0,0:0:0:0:
64,192,76800,1,0,0:0:0:0:
320,192,77066,1,0,0:0:0:0:
64,192,77200,128,0,77600:0:0:0:0:
448,192,77333,1,0,0:0:0:0:
320,192,77466,1,0,0:0:0:0:
192,192,77600,1,0,0:0:0:0:
448,192,77600,1,0,0:0:0:0:
64,192,77733,1,0,0:0:0:0:
192,192,77866,1,0,0:0:0:0:
320,192,78000,1,0,0:0:0:0:
192,192,78266,1,0,0:0:0:0:
64,192,78400,1,0,0:0:0:0:
448,192,78400,1,0,0:0:0:0:
320,192,78533,1,0,0:0:0:0:
64,192,78666,1,0,0:0:0:0:
192,192,78800,1,0,0:0:0:0:
320,192,78933,1,0,0:0:0:0:
64,192,79066,1,0,0:0:0:0:
320,192,79200,1,0,0:0:0:0:
448,192,79200,1,0,0:0:0:0:
192,192,79333,1,0,0:0:0:0:
64,192,79466,1,0,0:0:0:0:
448,192,79600,1,0,0:0:0:0:
448,192,79733,1,0,0:0:0:0:
448,192,79866,1,0,0:0:0:0:
192,192,80000,1,0,0:0:0:0:
64,192,80000,1,0,0:0:0:0:
320,192,80400,1,0,0:0:0:0:
192,192,80533,1,0,0:0:0:0:
448,192,80666,1,0,0:0:0:0:
192,192,80800,1,0,0:0:0:0:
64,192,80800,1,0,0:0:0:0:
320,192,80933,1,0,0:0:0:0:
448,192,81066,1,0,0:0:0:0:
192,192,81200,1,0,0:0:0:0:
448,192,81333,1,0,0:0:0:0:
64,192,81466,1,0,0:0:0:0:
320,192,81600,1,0,0:0:0:0:
448,192,81600,1,0,0:0:0:0:
192,192,81733,1,0,0:0:0:0:
448,192,81866,1,0,0:0:0:0:
64,192,82000,1,0,0:0:0:0:
320,192,82133,1,0,0:0:0:0:
192,192,82200,1,0,0:0:0:0:
448,192,82266,1,0,0:0:0:0:
320,192,82333,1,0,0:0:0:0:
192,192,82400,1,0,0:0:0:0:
64,192,82400,1,0,0:0:0:0:
448,192,82533,1,0,0:0:0:0:
192,192,82666,1,0,0:0:0:0:
320,192,82800,1,0,0:0:0:0:
448,192,82800,1,0,0:0:0:0:
448,192,82933,1,0,0:0:0:0:
320,192,82933,1,0,0:0:0:0:
320,192,83066,1,0,0:0:0:0:
448,192,83066,1,0,0:0:0:0:
192,192,83200,1,0,0:0:0:0:
64,192,83200,1,0,0:0:0:0:
320,192,83600,1,0,0:0:0:0:
192,192,83733,1,0,0:0:0:0:
448,192,83866,1,0,0:0:0:0:
192,192,84000,1,0,0:0:0:0:
64,192,84000,1,0,0:0:0:0:
320,192,84133,1,0,0:0:0:0:
448,192,84266,1,0,0:0:0:0:
192,192,84400,1,0,0:0:0:0:
448,192,84666,1,0,0:0:0:0:
64,192,84800,1,0,0:0:0:0:
320,192,84800,1,0,0:0:0:0:
192,192,84933,1,0,0:0:0:0:
448,192,85066,1,0,0:0:0:0:
192,192,85200,1,0,0:0:0:0:
320,192,85333,1,0,0:0:0:0:
448,192,85466,1,0,0:0:0:0:
64,192,85600,1,0,0:0:0:0:
192,192,85600,1,0,0:0:0:0:
448,192,85733,1,0,0:0:0:0:
320,192,85866,1,0,0:0:0:0:
64,192,86000,1,0,0:0:0:0:
64,192,86133,1,0,0:0:0:0:
64,192,86266,1,0,0:0:0:0:
320,192,86400,1,0,0:0:0:0:
448,192,86400,1,0,0:0:0:0:
192,192,86800,1,0,0:0:0:0:
320,192,86933,1,0,0:0:0:0:
448,192,87066,1,0,0:0:0:0:
64,192,87200,1,0,0:0:0:0:
192,192,87200,1,0,0:0:0:0:
320,192,87333,1,0,0:0:0:0:
192,192,87466,1,0,0:0:0:0:
448,192,87600,1,0,0:0:0:0:
64,192,87733,1,0,0:0:0:0:
192,192,87866,1,0,0:0:0:0:
320,192,88000,1,0,0:0:0:0:
448,192,88000,1,0,0:0:0:0:
192,192,88133,1,0,0:0:0:0:
448,192,88266,1,0,0:0:0:0:
320,192,88400,1,0,0:0:0:0:
192,192,88533,1,0,0:0:0:0:
64,192,88666,1,0,0:0:0:0:
320,192,88800,1,0,0:0:0:0:
448,192,88800,1,0,0:0:0:0:
192,192,88933,1,0,0:0:0:0:
64,192,89066,128,0,89200:0:0:0:0:
448,192,89200,128,0,89466:0:0:0:0:
320,192,89466,1,0,0:0:0:0:
192,192,89600,1,0,0:0:0:0:
64,192,89600,1,0,0:0:0:0:
448,192,90000,1,0,0:0:0:0:
448,192,90266,1,0,0:0:0:0:
448,192,90533,1,0,0:0:0:0:
448,192,90666,1,0,0:0:0:0:
448,192,90800,1,0,0:0:0:0:
448,192,91066,1,0,0:0:0:0:
64,192,91200,1,0,0:0:0:0:
320,192,91266,1,0,0:0:0:0:
64,192,91333,1,0,0:0:0:0:
448,192,91466,1,0,0:0:0:0:
448,192,91600,1,0,0:0:0:0:
448,192,91866,1,0,0:0:0:0:
320,192,92000,1,0,0:0:0:0:
192,192,92066,1,0,0:0:0:0:
64,192,92133,1,0,0:0:0:0:
64,192,92266,1,0,0:0:0:0:
192,192,92333,1,0,0:0:0:0:
448,192,92400,1,0,0:0:0:0:
320,192,92400,1,0,0:0:0:0:
448,192,92533,1,0,0:0:0:0:
448,192,92666,1,0,0:0:0:0:
192,192,92800,1,0,0:0:0:0:
64,192,92800,1,0,0:0:0:0:
64,192,92933,1,0,0:0:0:0:
64,192,93066,1,0,0:0:0:0:
64,192,93200,1,0,0:0:0:0:
64,192,93333,1,0,0:0:0:0:
64,192,93466,1,0,0:0:0:0:
320,192,93600,1,0,0:0:0:0:
448,192,93600,1,0,0:0:0:0:
320,192,93733,1,0,0:0:0:0:
320,192,93866,1,0,0:0:0:0:
320,192,94000,128,0,94400:0:0:0:0:
64,192,94400,1,0,0:0:0:0:
192,192,94400,1,0,0:0:0:0:
192,192,94533,1,0,0:0:0:0:
192,192,94666,1,0,0:0:0:0:
192,192,94800,1,0,0:0:0:0:
192,192,94933,1,0,0:0:0:0:
192,192,95066,1,0,0:0:0:0:
320,192,95200,1,0,0:0:0:0:
448,192,95200,1,0,0:0:0:0:
448,192,95333,1,0,0:0:0:0:
448,192,95466,1,0,0:0:0:0:
192,192,95600,1,0,0:0:0:0:
320,192,95666,1,0,0:0:0:0:
64,192,95733,1,0,0:0:0:0:
448,192,95800,1,0,0:0:0:0:
192,192,95866,1,0,0:0:0:0:
320,192,95933,1,0,0:0:0:0:
64,192,96000,1,0,0:0:0:0:
448,192,96000,1,0,0:0:0:0:
192,192,96400,1,0,0:0:0:0:
192,192,96666,1,0,0:0:0:0:
192,192,96933,1,0,0:0:0:0:
192,192,97066,1,0,0:0:0:0:
192,192,97200,1,0,0:0:0:0:
192,192,97466,1,0,0:0:0:0:
448,192,97600,1,0,0:0:0:0:
64,192,97666,1,0,0:0:0:0:
448,192,97733,1,0,0:0:0:0:
192,192,97866,1,0,0:0:0:0:
192,192,98000,1,0,0:0:0:0:
192,192,98266,1,0,0:0:0:0:
320,192,98400,1,0,0:0:0:0:
448,192,98400,1,0,0:0:0:0:
64,192,98533,1,0,0:0:0:0:
192,192,98600,1,0,0:0:0:0:
448,192,98666,1,0,0:0:0:0:
320,192,98733,1,0,0:0:0:0:
64,192,98800,1,0,0:0:0:0:
192,192,98866,1,0,0:0:0:0:
320,192,98933,1,0,0:0:0:0:
192,192,99066,1,0,0:0:0:0:
320,192,99200,1,0,0:0:0:0:
448,192,99200,1,0,0:0:0:0:
192,192,99600,1,0,0:0:0:0:
320,192,99733,1,0,0:0:0:0:
448,192,99866,1,0,0:0:0:0:
192,192,100000,1,0,0:0:0:0:
64,192,100000,1,0,0:0:0:0:
320,192,100133,1,0,0:0:0:0:
192,192,100266,1,0,0:0:0:0:
64,192,100400,1,0,0:0:0:0:
64,192,100533,1,0,0:0:0:0:
64,192,100666,1,0,0:0:0:0:
448,192,100800,1,0,0:0:0:0:
320,192,100800,1,0,0:0:0:0:
192,192,100933,1,0,0:0:0:0:
64,192,101066,1,0,0:0:0:0:
448,192,101200,1,0,0:0:0:0:
320,192,101200,1,0,0:0:0:0:
64,192,101333,1,0,0:0:0:0:
192,192,101466,1,0,0:0:0:0:
448,192,101600,1,0,0:0:0:0:
320,192,101600,1,0,0:0:0:0:
64,192,101733,1,0,0:0:0:0:
320,192,101866,1,0,0:0:0:0:
192,192,101933,1,0,0:0:0:0:
448,192,102000,1,0,0:0:0:0:
320,192,102133,1,0,0:0:0:0:
192,192,102266,1,0,0:0:0:0:
64,192,102400,1,0,0:0:0:0:
448,192,102400,1,0,0:0:0:0:
320,192,102400,1,0,0:0:0:0:
