osu file format v14

[General]
AudioFilename: audio.mp3
AudioLeadIn: 0
PreviewTime: 67782
Countdown: 0
SampleSet: Normal
StackLeniency: 0.4
Mode: 0
LetterboxInBreaks: 0
WidescreenStoryboard: 0

[Editor]
DistanceSpacing: 1
BeatDivisor: 4
GridSize: 16
TimelineZoom: 2.400001

[Metadata]
Title:Dubstep Is Dead
TitleUnicode:Dubstep Is Dead
Artist:Getter
ArtistUnicode:Getter
Creator:Begissor
Version:Dubstep is Easy
Source:
Tags:dubstep trap explosive
BeatmapID:1694178
BeatmapSetID:807190

[Difficulty]
HPDrainRate:2
CircleSize:2
OverallDifficulty:2
ApproachRate:2
SliderMultiplier:1.2
SliderTickRate:1

[Events]
//Background and Video events
0,0,"thumb-1920-570135.jpg",0,0
//Break Periods
//Storyboard Layer 0 (Background)
//Storyboard Layer 1 (Fail)
//Storyboard Layer 2 (Pass)
//Storyboard Layer 3 (Foreground)
//Storyboard Sound Samples

[TimingPoints]
925,428.571428571429,4,1,0,100,1,0
925,-100,4,1,0,50,0,0
48925,-100,4,1,0,75,0,0
69496,-100,4,1,0,100,0,1
75925,-100,4,1,0,100,0,0
76353,-100,4,1,0,100,0,1
80639,-100,4,1,0,100,0,0
83210,-100,4,1,0,100,0,1
96067,-100,4,1,0,100,0,0
96925,-100,4,1,0,100,0,1
108925,-100,4,1,0,100,0,0
110639,-100,4,1,0,100,0,1
122639,-100,4,1,0,100,0,0
124353,-100,4,1,0,100,0,1
136353,-100,4,1,0,100,0,0
138067,-100,4,1,0,100,0,0
165496,-100,4,1,0,50,0,0
179210,-100,4,1,0,75,0,0
206639,-100,4,1,0,100,0,1
213067,-100,4,1,0,100,0,0
213496,-100,4,1,0,100,0,1
217782,-100,4,1,0,100,0,0
220353,-100,4,1,0,100,0,1
233210,-100,4,1,0,100,0,0
234067,-100,4,1,0,100,0,1
246067,-100,4,1,0,100,0,0
247782,-100,4,1,0,100,0,1
259782,-100,4,1,0,100,0,0
261496,-100,4,1,0,100,0,1
273496,-100,4,1,0,100,0,0
275210,-100,4,1,0,100,0,0
302639,-100,4,1,0,50,0,0

[Colours]
Combo1 : 213,29,252
Combo2 : 0,112,223
Combo3 : 253,156,115

[HitObjects]
59,292,42067,6,0,P|159:336|293:286,1,240,4|0,0:0|0:0,0:0:0:0:
453,92,43782,2,0,P|353:48|219:98,1,240,0|0,0:0|0:0,0:0:0:0:
63,254,45496,2,0,B|126:356|126:356|245:368,1,240,0|0,0:0|0:0,0:0:0:0:
449,130,47210,2,0,B|385:27|385:27|266:15,1,240,0|0,0:0|0:0,0:0:0:0:
266,255,48925,6,0,B|344:286|344:286|423:255|423:255|500:284,1,240,4|0,0:0|0:0,0:0:0:0:
246,129,50639,6,0,B|168:98|168:98|89:129|89:129|12:100,1,240,0|0,0:0|0:0,0:0:0:0:
196,269,52353,2,0,P|287:272|390:149,3,240,4|0|0|0,0:0|0:0|0:0|0:0,0:0:0:0:
145,171,55782,5,12,0:0:0:0:
204,275,56210,1,8,0:0:0:0:
323,275,56639,1,8,0:0:0:0:
382,171,57067,1,8,0:0:0:0:
323,68,57496,6,0,P|224:66|144:175,1,240,8|8,0:0|0:0,0:0:0:0:
144,290,58782,1,8,0:0:0:0:
263,290,59210,2,0,B|383:284|383:284|473:172,1,240,8|8,0:0|0:0,0:0:0:0:
458,70,60496,1,8,0:0:0:0:
369,150,60925,6,0,B|331:198|331:198|209:205|209:205|167:272,1,240,8|8,0:0|0:0,0:0:0:0:
58,253,62210,1,8,0:0:0:0:
256,192,62639,12,4,67782,0:0:0:0:
0,346,69496,6,0,B|109:299|109:299|198:383|198:383|197:144|197:144|376:301|376:301|372:179|372:179|483:120|483:120,1,960,4|0,0:0|0:0,0:0:0:0:
392,37,73353,2,0,B|310:72|310:72|290:44|239:37|239:37|185:95|204:152|242:173|300:172|300:172,2,360,0|0|8,0:0|0:0|0:0,0:0:0:0:
392,37,76353,6,0,B|279:174|331:339|331:339|280:174|96:134|96:134|280:174|392:37,1,960,4|0,0:0|0:0,0:0:0:0:
256,192,80210,12,4,82782,0:0:0:0:
397,75,83210,6,0,P|443:142|418:299,1,240,4|8,0:0|0:0,0:0:0:0:
310,334,84496,1,2,0:0:0:0:
197,292,84925,6,0,P|168:178|169:164,1,120,0|2,0:0|0:0,0:0:0:0:
284,208,85782,2,0,P|315:95|323:82,1,120,8|2,0:0|0:0,0:0:0:0:
199,122,86639,6,0,B|135:136|84:101|84:101|99:162|86:226,1,240
204,246,87925,1,0,0:0:0:0:
283,156,88353,2,0,P|285:100|270:32,1,120
151,37,89210,2,0,P|138:95|140:155,1,120
224,240,90067,6,0,B|307:239|307:239|372:277|372:277|474:277,1,240
453,156,91353,1,0,0:0:0:0:
453,35,91782,2,0,B|389:45|389:45|342:101|342:101,1,120
345,207,92639,2,0,B|281:197|281:197|234:141|234:141,1,120
191,47,93496,6,0,P|130:108|168:247,1,240
80,329,94782,1,0,0:0:0:0:
164,244,95210,2,0,P|184:199|179:115,2,120
45,35,96925,6,0,B|159:67|159:67|302:61,1,240
400,61,98210,1,0,0:0:0:0:
317,147,98639,2,0,B|207:185|207:185|83:158,1,240
139,266,99925,1,0,0:0:0:0:
246,317,100353,6,0,B|369:325|369:325|458:250,3,240
340,226,103353,1,0,0:0:0:0:
424,310,103782,6,0,B|456:278|487:216|447:164|415:134|415:134|442:112|448:79,1,240
335,43,105067,1,0,0:0:0:0:
219,77,105496,6,0,P|147:115|114:272,1,240
184,354,106782,1,0,0:0:0:0:
277,279,107210,2,0,B|331:226|331:226|280:170|280:170|328:132|328:132|265:52|265:52|164:127|164:127|197:164|197:164,1,480
84,64,110639,6,0,B|148:96|175:141|175:141|144:213|85:240,1,240
3,161,111925,1,0,0:0:0:0:
9,280,112353,2,0,P|45:345|99:357,2,120
3,161,113639,1,0,0:0:0:0:
60,55,114067,6,0,B|106:61|131:38|131:38|143:147|257:159,1,240
349,147,115353,1,0,0:0:0:0:
460,103,115782,2,0,B|498:162|498:162|498:232,2,120
383,194,117067,1,0,0:0:0:0:
439,300,117496,6,0,B|404:327|404:327|358:313|358:313|316:329|316:329|267:310|199:329,1,240
102,283,118782,1,0,0:0:0:0:
38,181,119210,2,0,P|27:123|50:56,2,120
146,129,120496,1,0,0:0:0:0:
256,192,120925,12,0,123925,0:0:0:0:
479,346,124353,6,0,P|415:343|287:228,1,240
