osu file format v14

[General]
AudioFilename: audio.mp3
AudioLeadIn: 0
PreviewTime: 20062
Countdown: 0
SampleSet: Normal
StackLeniency: 0.2
Mode: 1
LetterboxInBreaks: 0
WidescreenStoryboard: 0

[Editor]
DistanceSpacing: 1.4
BeatDivisor: 4
GridSize: 32
TimelineZoom: 3.5

[Metadata]
Title:MOONLiGHT
TitleUnicode:MOONLiGHT
Artist:Getsuryu
ArtistUnicode:月龍
Creator:Jaye
Version:MUZUKASHii
Source:REFLEC BEAT VOLZZA 2
Tags:Grimbow Ryu
BeatmapID:973359
BeatmapSetID:453560

[Difficulty]
HPDrainRate:6
CircleSize:2
OverallDifficulty:5
ApproachRate:10
SliderMultiplier:1.4
SliderTickRate:1

[Events]
//Background and Video events
0,0,"amazing-moonlight-wallpaper-1.jpg",0,50
//Break Periods
//Storyboard Layer 0 (Background)
//Storyboard Layer 1 (Fail)
//Storyboard Layer 2 (Pass)
//Storyboard Layer 3 (Foreground)
//Storyboard Sound Samples

[TimingPoints]
766,301.507537688442,4,1,0,100,1,0
39358,-100,4,1,0,100,0,1
58655,-100,4,1,0,100,0,0
97248,-100,4,1,0,100,0,1
116243,-100,4,1,0,100,0,0

[HitObjects]
256,192,766,5,8,0:0:0:0:
256,192,1218,1,8,0:0:0:0:
256,192,1670,1,0,0:0:0:0:
256,192,1972,1,8,0:0:0:0:
256,192,2424,1,8,0:0:0:0:
256,192,2876,1,0,0:0:0:0:
256,192,3178,1,8,0:0:0:0:
256,192,3630,1,8,0:0:0:0:
256,192,4082,1,0,0:0:0:0:
256,192,4384,1,0,0:0:0:0:
256,192,4685,1,8,0:0:0:0:
256,192,4987,1,0,0:0:0:0:
256,192,5288,1,8,0:0:0:0:
256,192,5590,1,8,0:0:0:0:
256,192,6042,1,8,0:0:0:0:
256,192,6494,1,0,0:0:0:0:
256,192,6796,1,8,0:0:0:0:
256,192,7248,1,8,0:0:0:0:
256,192,7700,1,0,0:0:0:0:
256,192,8002,1,8,0:0:0:0:
256,192,8455,1,8,0:0:0:0:
256,192,8906,1,0,0:0:0:0:
256,192,9208,1,0,0:0:0:0:
256,192,9510,1,0,0:0:0:0:
256,192,9811,1,8,0:0:0:0:
256,192,10113,1,0,0:0:0:0:
256,192,10414,1,8,0:0:0:0:
256,192,10867,1,8,0:0:0:0:
256,192,11169,1,0,0:0:0:0:
256,192,11470,1,0,0:0:0:0:
256,192,11621,1,8,0:0:0:0:
256,192,12073,1,8,0:0:0:0:
256,192,12375,1,0,0:0:0:0:
256,192,12676,1,0,0:0:0:0:
256,192,12827,1,8,0:0:0:0:
256,192,13279,1,8,0:0:0:0:
256,192,13581,1,0,0:0:0:0:
256,192,13882,1,8,0:0:0:0:
256,192,14033,1,0,0:0:0:0:
256,192,14334,1,8,0:0:0:0:
256,192,14635,1,0,0:0:0:0:
256,192,14937,1,8,0:0:0:0:
256,192,15238,1,8,0:0:0:0:
256,192,15540,1,0,0:0:0:0:
256,192,15615,1,0,0:0:0:0:
256,192,15690,1,0,0:0:0:0:
256,192,15841,1,8,0:0:0:0:
256,192,16445,1,8,0:0:0:0:
256,192,16746,1,0,0:0:0:0:
256,192,16821,1,0,0:0:0:0:
256,192,16896,1,0,0:0:0:0:
256,192,17047,1,8,0:0:0:0:
256,192,17651,1,8,0:0:0:0:
256,192,17801,1,0,0:0:0:0:
256,192,17952,1,8,0:0:0:0:
256,192,18253,1,8,0:0:0:0:
256,192,18404,1,0,0:0:0:0:
256,192,18479,1,0,0:0:0:0:
256,192,18554,1,0,0:0:0:0:
256,192,18706,1,0,0:0:0:0:
256,192,18856,1,8,0:0:0:0:
256,192,19158,1,8,0:0:0:0:
256,192,19459,1,8,0:0:0:0:
256,192,19610,1,8,0:0:0:0:
256,192,19761,1,0,0:0:0:0:
256,192,20062,1,8,0:0:0:0:
256,192,20363,1,0,0:0:0:0:
256,192,20665,1,8,0:0:0:0:
256,192,20816,1,0,0:0:0:0:
256,192,21118,1,0,0:0:0:0:
256,192,21268,1,0,0:0:0:0:
256,192,21570,1,8,0:0:0:0:
256,192,21871,1,0,0:0:0:0:
256,192,22022,1,0,0:0:0:0:
256,192,22324,1,0,0:0:0:0:
256,192,22474,1,8,0:0:0:0:
256,192,22776,1,8,0:0:0:0:
256,192,23077,1,0,0:0:0:0:
256,192,23228,1,8,0:0:0:0:
256,192,23530,1,8,0:0:0:0:
256,192,23681,1,0,0:0:0:0:
256,192,23982,1,0,0:0:0:0:
256,192,24283,1,8,0:0:0:0:
256,192,24434,1,0,0:0:0:0:
256,192,24736,1,0,0:0:0:0:
256,192,24886,1,8,0:0:0:0:
256,192,25188,1,8,0:0:0:0:
256,192,25489,1,0,0:0:0:0:
256,192,25640,1,8,0:0:0:0:
256,192,25942,1,8,0:0:0:0:
256,192,26092,1,0,0:0:0:0:
256,192,26394,1,0,0:0:0:0:
256,192,26695,1,8,0:0:0:0:
256,192,26846,1,8,0:0:0:0:
256,192,27148,1,0,0:0:0:0:
256,192,27298,1,8,0:0:0:0:
256,192,27600,1,8,0:0:0:0:
256,192,27902,1,0,0:0:0:0:
256,192,28052,1,0,0:0:0:0:
256,192,28354,1,8,0:0:0:0:
256,192,28505,1,0,0:0:0:0:
256,192,28580,1,0,0:0:0:0:
256,192,28655,1,0,0:0:0:0:
256,192,28806,1,8,0:0:0:0:
256,192,28957,1,8,0:0:0:0:
256,192,29258,1,8,0:0:0:0:
256,192,29560,1,0,0:0:0:0:
256,192,29711,1,8,0:0:0:0:
256,192,30012,1,0,0:0:0:0:
256,192,30313,1,8,0:0:0:0:
256,192,30464,1,8,0:0:0:0:
256,192,30766,1,8,0:0:0:0:
256,192,30917,1,0,0:0:0:0:
256,192,31218,1,0,0:0:0:0:
256,192,31519,1,0,0:0:0:0:
256,192,31669,1,8,0:0:0:0:
256,192,31972,1,0,0:0:0:0:
256,192,32122,1,8,0:0:0:0:
256,192,32424,1,8,0:0:0:0:
256,192,32725,1,8,0:0:0:0:
256,192,32876,1,8,0:0:0:0:
256,192,33178,1,8,0:0:0:0:
256,192,33329,1,0,0:0:0:0:
256,192,33630,1,0,0:0:0:0:
256,192,33932,1,0,0:0:0:0:
256,192,34082,1,0,0:0:0:0:
256,192,34384,1,0,0:0:0:0:
256,192,34535,1,8,0:0:0:0:
256,192,34685,1,0,0:0:0:0:
256,192,34836,1,8,0:0:0:0:
256,192,35138,1,0,0:0:0:0:
256,192,35439,1,0,0:0:0:0:
256,192,35741,1,8,0:0:0:0:
256,192,36042,1,0,0:0:0:0:
256,192,36344,1,0,0:0:0:0:
256,192,36645,1,0,0:0:0:0:
256,192,36947,1,8,0:0:0:0:
256,192,37097,1,0,0:0:0:0:
256,192,37173,1,0,0:0:0:0:
256,192,37248,1,0,0:0:0:0:
256,192,37399,1,0,0:0:0:0:
256,192,37550,1,8,0:0:0:0:
256,192,37700,1,8,0:0:0:0:
256,192,37851,1,0,0:0:0:0:
256,192,38153,1,8,0:0:0:0:
256,192,38304,1,0,0:0:0:0:
256,192,38454,1,0,0:0:0:0:
256,192,38530,1,0,0:0:0:0:
256,192,38605,1,0,0:0:0:0:
256,192,38756,1,0,0:0:0:0:
256,192,39057,1,8,0:0:0:0:
256,192,39358,1,12,0:0:0:0:
256,192,39660,1,0,0:0:0:0:
256,192,39811,1,8,0:0:0:0:
256,192,40113,1,0,0:0:0:0:
256,192,40263,1,0,0:0:0:0:
256,192,40414,1,0,0:0:0:0:
256,192,40565,1,8,0:0:0:0:
256,192,40866,1,0,0:0:0:0:
256,192,41017,1,8,0:0:0:0:
256,192,41319,1,0,0:0:0:0:
256,192,41469,1,8,0:0:0:0:
256,192,41620,1,0,0:0:0:0:
256,192,41771,1,8,0:0:0:0:
256,192,42072,1,0,0:0:0:0:
256,192,42223,1,8,0:0:0:0:
256,192,42525,1,8,0:0:0:0:
256,192,42600,1,8,0:0:0:0:
256,192,42675,1,8,0:0:0:0:
256,192,42826,1,0,0:0:0:0:
256,192,42977,1,8,0:0:0:0:
256,192,43278,1,8,0:0:0:0:
256,192,43429,1,0,0:0:0:0:
256,192,43580,1,8,0:0:0:0:
256,192,43655,1,8,0:0:0:0:
256,192,43730,1,8,0:0:0:0:
256,192,43881,1,0,0:0:0:0:
256,192,44183,1,8,0:0:0:0:
256,192,44484,1,0,0:0:0:0:
256,192,44635,1,8,0:0:0:0:
256,192,44937,1,8,0:0:0:0:
256,192,45087,1,0,0:0:0:0:
256,192,45238,1,0,0:0:0:0:
256,192,45389,1,8,0:0:0:0:
256,192,45690,1,8,0:0:0:0:
256,192,45841,1,8,0:0:0:0:
256,192,46143,1,0,0:0:0:0:
256,192,46293,1,8,0:0:0:0:
256,192,46444,1,0,0:0:0:0:
256,192,46595,1,8,0:0:0:0:
256,192,46897,1,0,0:0:0:0:
256,192,47048,1,8,0:0:0:0:
256,192,47348,1,0,0:3:0:0:
256,192,47424,1,0,0:0:0:0:
256,192,47499,1,0,0:3:0:0:
256,192,47650,1,8,0:0:0:0:
256,192,47801,1,0,0:0:0:0:
256,192,48103,1,0,0:0:0:0:
256,192,48404,1,8,0:0:0:0:
256,192,48479,1,8,0:0:0:0:
256,192,48555,1,8,0:0:0:0:
256,192,48706,1,0,0:0:0:0:
256,192,49007,1,8,0:0:0:0:
256,192,49308,1,0,0:0:0:0:
256,192,49459,1,8,0:0:0:0:
256,192,49761,1,0,0:0:0:0:
256,192,49912,1,8,0:0:0:0:
256,192,50062,1,0,0:0:0:0:
256,192,50213,1,8,0:0:0:0:
256,192,50515,1,0,0:0:0:0:
256,192,50665,1,8,0:0:0:0:
256,192,50967,1,0,0:0:0:0:
256,192,51118,1,0,0:0:0:0:
256,192,51268,1,0,0:0:0:0:
256,192,51419,1,8,0:0:0:0:
256,192,51720,1,8,0:0:0:0:
256,192,51871,1,8,0:0:0:0:
256,192,52173,1,8,0:0:0:0:
256,192,52324,1,0,0:0:0:0:
256,192,52399,1,0,0:0:0:0:
256,192,52474,1,0,0:0:0:0:
256,192,52625,1,8,0:0:0:0:
256,192,52926,1,8,0:0:0:0:
256,192,53077,1,0,0:0:0:0:
256,192,53228,1,8,0:0:0:0:
256,192,53303,1,8,0:0:0:0:
256,192,53379,1,8,0:0:0:0:
256,192,53530,1,0,0:0:0:0:
256,192,53831,1,12,0:0:0:0:
256,192,54132,1,0,0:0:0:0:
256,192,54283,1,8,0:0:0:0:
256,192,54434,1,0,0:0:0:0:
256,192,54585,1,0,0:0:0:0:
256,192,54886,1,0,0:0:0:0:
256,192,55037,1,8,0:0:0:0:
256,192,55338,1,0,0:0:0:0:
256,192,55489,1,8,0:0:0:0:
256,192,55640,1,0,0:0:0:0:
256,192,55715,1,0,0:0:0:0:
256,192,55791,1,0,0:0:0:0:
256,192,56092,1,0,0:0:0:0:
256,192,56243,1,8,0:0:0:0:
256,192,56545,1,0,0:0:0:0:
256,192,56696,1,8,0:0:0:0:
256,192,56846,1,8,0:0:0:0:
256,192,56998,1,0,0:0:0:0:
256,192,57148,1,0,0:0:0:0:
256,192,57298,1,8,0:0:0:0:
256,192,57374,1,8,0:0:0:0:
256,192,57449,1,8,0:0:0:0:
256,192,57600,1,0,0:0:0:0:
256,192,57750,1,8,0:0:0:0:
256,192,58052,1,8,0:0:0:0:
256,192,58203,1,8,0:0:0:0:
256,192,58353,1,0,0:0:0:0:
256,192,58504,1,8,0:0:0:0:
256,192,58580,1,8,0:0:0:0:
256,192,58655,1,8,0:0:0:0:
256,192,58957,1,8,0:0:0:0:
256,192,59258,1,0,0:0:0:0:
256,192,59560,1,0,0:0:0:0:
256,192,60163,1,8,0:0:0:0:
256,192,60464,1,0,0:0:0:0:
256,192,60766,1,0,0:0:0:0:
256,192,61067,1,8,0:0:0:0:
256,192,61369,1,8,0:0:0:0:
256,192,61670,1,0,0:0:0:0:
256,192,61972,1,0,0:0:0:0:
256,192,62575,1,8,0:0:0:0:
256,192,62876,1,0,0:0:0:0:
256,192,63178,1,0,0:0:0:0:
256,192,63479,1,8,0:0:0:0:
256,192,64082,1,0,0:0:0:0:
256,192,64384,1,8,0:0:0:0:
256,192,64685,1,0,0:0:0:0:
256,192,65288,1,0,0:0:0:0:
256,192,65590,1,8,0:0:0:0:
256,192,65891,1,8,0:0:0:0:
256,192,66494,1,8,0:0:0:0:
256,192,66796,1,8,0:0:0:0:
256,192,67097,1,0,0:0:0:0:
256,192,68304,1,8,0:0:0:0:
256,192,68606,1,8,0:0:0:0:
256,192,68907,1,0,0:0:0:0:
256,192,69209,1,0,0:0:0:0:
256,192,69812,1,8,0:0:0:0:
256,192,70113,1,0,0:0:0:0:
256,192,70415,1,0,0:0:0:0:
256,192,70716,1,8,0:0:0:0:
256,192,71018,1,8,0:0:0:0:
256,192,71319,1,0,0:0:0:0:
256,192,71621,1,0,0:0:0:0:
256,192,72224,1,8,0:0:0:0:
256,192,72525,1,0,0:0:0:0:
256,192,72827,1,0,0:0:0:0:
256,192,73128,1,8,0:0:0:0:
256,192,73731,1,0,0:0:0:0:
256,192,74033,1,0,0:0:0:0:
256,192,74334,1,8,0:0:0:0:
256,192,74635,1,8,0:0:0:0:
256,192,74937,1,8,0:0:0:0:
256,192,75239,1,0,0:0:0:0:
256,192,75540,1,0,0:0:0:0:
256,192,77349,1,0,0:0:0:0:
256,192,77650,1,8,0:0:0:0:
256,192,77951,1,12,0:0:0:0:
256,192,78254,1,0,0:0:0:0:
256,192,78555,1,8,0:0:0:0:
256,192,78856,1,8,0:0:0:0:
256,192,79158,1,8,0:0:0:0:
256,192,79460,1,8,0:0:0:0:
256,192,79761,1,0,0:0:0:0:
256,192,80062,1,8,0:0:0:0:
256,192,80364,1,8,0:0:0:0:
256,192,80967,1,8,0:0:0:0:
256,192,81268,1,0,0:0:0:0:
256,192,81570,1,0,0:0:0:0:
256,192,82173,1,0,0:0:0:0:
256,192,82776,1,8,0:0:0:0:
256,192,83379,1,8,0:0:0:0:
256,192,83681,1,0,0:0:0:0:
256,192,83982,1,0,0:0:0:0:
256,192,84585,1,0,0:0:0:0:
256,192,84886,1,0,0:0:0:0:
256,192,85188,1,8,0:0:0:0:
256,192,86394,1,0,0:0:0:0:
256,192,86997,1,0,0:0:0:0:
256,192,87298,1,8,0:0:0:0:
256,192,87600,1,8,0:0:0:0:
256,192,87902,1,0,0:0:0:0:
256,192,88203,1,8,0:0:0:0:
256,192,88505,1,8,0:0:0:0:
256,192,88806,1,8,0:0:0:0:
256,192,89108,1,8,0:0:0:0:
256,192,89409,1,0,0:0:0:0:
256,192,89711,1,0,0:0:0:0:
256,192,90012,1,8,0:0:0:0:
256,192,90615,1,0,0:0:0:0:
256,192,90917,1,8,0:0:0:0:
256,192,91218,1,0,0:0:0:0:
256,192,91821,1,0,0:0:0:0:
256,192,92123,1,0,0:0:0:0:
256,192,92424,1,8,0:0:0:0:
256,192,93027,1,0,0:0:0:0:
256,192,93329,1,0,0:0:0:0:
256,192,93630,1,8,0:0:0:0:
256,192,93932,1,8,0:0:0:0:
256,192,94233,1,0,0:0:0:0:
256,192,94535,1,0,0:0:0:0:
256,192,94836,1,8,0:0:0:0:
256,192,94987,1,0,0:0:0:0:
256,192,95137,1,0,0:0:0:0:
256,192,95439,1,8,0:0:0:0:
256,192,95590,1,8,0:0:0:0:
256,192,95741,1,0,0:0:0:0:
256,192,95891,1,0,0:0:0:0:
256,192,95967,1,0,0:0:0:0:
256,192,96042,1,0,0:0:0:0:
256,192,96193,1,0,0:0:0:0:
256,192,96344,1,8,0:0:0:0:
256,192,96494,1,8,0:0:0:0:
256,192,96645,1,0,0:0:0:0:
256,192,96721,1,0,0:0:0:0:
256,192,96796,1,0,0:0:0:0:
256,192,96947,1,8,0:0:0:0:
256,192,97248,1,12,0:0:0:0:
256,192,97399,1,8,0:0:0:0:
256,192,97550,1,0,0:0:0:0:
256,192,97700,1,0,0:0:0:0:
256,192,97851,1,8,0:0:0:0:
256,192,98153,1,8,0:0:0:0:
256,192,98304,1,8,0:0:0:0:
256,192,98454,1,8,0:0:0:0:
256,192,98605,1,0,0:0:0:0:
256,192,98756,1,8,0:0:0:0:
256,192,98907,1,0,0:0:0:0:
256,192,99057,1,0,0:0:0:0:
256,192,99358,1,0,0:0:0:0:
256,192,99509,1,8,0:0:0:0:
256,192,99585,1,8,0:0:0:0:
256,192,99660,1,8,0:0:0:0:
256,192,99961,1,0,0:0:0:0:
256,192,100263,1,8,0:0:0:0:
256,192,100414,1,0,0:0:0:0:
256,192,100565,1,8,0:0:0:0:
256,192,100866,1,8,0:0:0:0:
256,192,101017,1,8,0:0:0:0:
256,192,101092,1,8,0:0:0:0:
256,192,101168,1,8,0:0:0:0:
256,192,101469,1,0,0:0:0:0:
256,192,101771,1,0,0:0:0:0:
256,192,102072,1,8,0:0:0:0:
256,192,102223,1,8,0:0:0:0:
256,192,102374,1,0,0:0:0:0:
256,192,102675,1,8,0:0:0:0:
256,192,102977,1,0,0:0:0:0:
256,192,103278,1,0,0:0:0:0:
256,192,103429,1,0,0:0:0:0:
256,192,103580,1,8,0:0:0:0:
256,192,103881,1,0,0:0:0:0:
256,192,104183,1,8,0:0:0:0:
256,192,104484,1,8,0:0:0:0:
256,192,104635,1,8,0:0:0:0:
256,192,104786,1,0,0:0:0:0:
256,192,104937,1,8,0:0:0:0:
256,192,105087,1,8,0:0:0:0:
256,192,105389,1,8,0:0:0:0:
256,192,105540,1,8,0:0:0:0:
256,192,105690,1,0,0:0:0:0:
256,192,105841,1,0,0:0:0:0:
256,192,105916,1,0,0:0:0:0:
256,192,105992,1,0,0:0:0:0:
256,192,106293,1,0,0:0:0:0:
256,192,106595,1,8,0:0:0:0:
256,192,106896,1,12,0:0:0:0:
256,192,107047,1,0,0:0:0:0:
256,192,107198,1,0,0:0:0:0:
256,192,107499,1,8,0:0:0:0:
256,192,107801,1,8,0:0:0:0:
256,192,107952,1,0,0:0:0:0:
256,192,108103,1,8,0:0:0:0:
256,192,108253,1,8,0:0:0:0:
256,192,108404,1,0,0:0:0:0:
256,192,108706,1,0,0:0:0:0:
256,192,109007,1,0,0:0:0:0:
256,192,109158,1,8,0:0:0:0:
256,192,109233,1,8,0:0:0:0:
256,192,109309,1,8,0:0:0:0:
256,192,109610,1,0,0:0:0:0:
256,192,109912,1,8,0:0:0:0:
256,192,110213,1,8,0:0:0:0:
256,192,110364,1,0,0:0:0:0:
256,192,110515,1,0,0:0:0:0:
256,192,110816,1,8,0:0:0:0:
256,192,111118,1,0,0:0:0:0:
256,192,111268,1,0,0:0:0:0:
256,192,111419,1,8,0:0:0:0:
256,192,111570,1,8,0:0:0:0:
256,192,111645,1,8,0:0:0:0:
256,192,111721,1,8,0:0:0:0:
256,192,112022,1,0,0:0:0:0:
256,192,112324,1,8,0:0:0:0:
256,192,112625,1,8,0:0:0:0:
256,192,112927,1,8,0:0:0:0:
256,192,113228,1,0,0:0:0:0:
256,192,113530,1,8,0:0:0:0:
256,192,113831,1,8,0:0:0:0:
256,192,113982,1,8,0:0:0:0:
256,192,114133,1,0,0:0:0:0:
256,192,114434,1,0,0:0:0:0:
256,192,114736,1,8,0:0:0:0:
256,192,114886,1,8,0:0:0:0:
256,192,115037,1,8,0:0:0:0:
256,192,115188,1,0,0:0:0:0:
256,192,115263,1,0,0:0:0:0:
256,192,115339,1,0,0:0:0:0:
256,192,115489,1,0,0:0:0:0:
256,192,115640,1,8,0:0:0:0:
256,192,115715,1,8,0:0:0:0:
256,192,115791,1,8,0:0:0:0:
256,192,115942,1,0,0:0:0:0:
256,192,116243,1,12,0:0:0:0:
