osu file format v14

[General]
AudioFilename: audio.mp3
AudioLeadIn: 0
PreviewTime: 20062
Countdown: 0
SampleSet: Normal
StackLeniency: 0.2
Mode: 1
LetterboxInBreaks: 0
WidescreenStoryboard: 0

[Editor]
DistanceSpacing: 1.4
BeatDivisor: 12
GridSize: 32
TimelineZoom: 3.1

[Metadata]
Title:MOONLiGHT
TitleUnicode:MOONLiGHT
Artist:Getsuryu
ArtistUnicode:月龍
Creator:Jaye
Version:GRiM'S URA ONi
Source:REFLEC BEAT VOLZZA 2
Tags:Grimbow Ryu
BeatmapID:972737
BeatmapSetID:453560

[Difficulty]
HPDrainRate:6
CircleSize:2
OverallDifficulty:6
ApproachRate:10
SliderMultiplier:1.4
SliderTickRate:1

[Events]
//Background and Video events
0,0,"amazing-moonlight-wallpaper-1.jpg",0,50
//Break Periods
//Storyboard Layer 0 (Background)
//Storyboard Layer 1 (Fail)
//Storyboard Layer 2 (Pass)
//Storyboard Layer 3 (Foreground)
//Storyboard Sound Samples

[TimingPoints]
766,301.507537688442,4,1,0,100,1,0
20062,-100,4,1,0,100,0,0
39358,-100,4,1,0,100,0,1
58655,-125,4,1,0,75,0,0
77348,-166.666666666667,4,1,0,75,0,0
91218,-153.846153846154,4,1,0,75,0,0
92424,-149.253731343284,4,1,0,100,0,0
92575,-144.927536231884,4,1,0,100,0,0
92725,-140.845070422535,4,1,0,100,0,0
92876,-136.986301369863,4,1,0,100,0,0
93027,-133.333333333333,4,1,0,100,0,0
93178,-129.87012987013,4,1,0,100,0,0
93328,-126.582278481013,4,1,0,100,0,0
93479,-123.456790123457,4,1,0,100,0,0
93630,-120.481927710843,4,1,0,100,0,0
93781,-117.647058823529,4,1,0,100,0,0
93931,-114.942528735632,4,1,0,100,0,0
94082,-112.359550561798,4,1,0,100,0,0
94233,-109.89010989011,4,1,0,100,0,0
94384,-107.52688172043,4,1,0,100,0,0
94534,-105.263157894737,4,1,0,100,0,0
94685,-103.092783505155,4,1,0,100,0,0
94836,-100,4,1,0,100,0,0
97248,-100,4,1,0,100,0,1
116243,-100,4,1,0,100,0,0

[HitObjects]
256,192,766,5,12,0:0:0:0:
256,192,1067,1,0,0:0:0:0:
256,192,1218,1,8,0:0:0:0:
256,192,1519,1,0,0:0:0:0:
256,192,1821,1,0,0:0:0:0:
256,192,1972,1,8,0:0:0:0:
256,192,2273,1,0,0:0:0:0:
256,192,2424,1,8,0:0:0:0:
256,192,2725,1,0,0:0:0:0:
256,192,3027,1,0,0:0:0:0:
256,192,3178,1,8,0:0:0:0:
256,192,3479,1,8,0:0:0:0:
256,192,3630,1,0,0:0:0:0:
256,192,3781,1,0,0:0:0:0:
256,192,3931,1,8,0:0:0:0:
256,192,4082,1,0,0:0:0:0:
256,192,4233,1,0,0:0:0:0:
256,192,4384,1,8,0:0:0:0:
256,192,4685,1,8,0:0:0:0:
256,192,4987,1,0,0:0:0:0:
256,192,5288,1,8,0:0:0:0:
256,192,5590,1,8,0:0:0:0:
256,192,5891,1,0,0:0:0:0:
256,192,6042,1,8,0:0:0:0:
256,192,6343,1,0,0:0:0:0:
256,192,6645,1,0,0:0:0:0:
256,192,6796,1,8,0:0:0:0:
256,192,7097,1,0,0:0:0:0:
256,192,7248,1,8,0:0:0:0:
256,192,7323,1,0,0:0:0:0:
256,192,7399,1,8,0:0:0:0:
256,192,7549,1,8,0:0:0:0:
256,192,7851,1,0,0:0:0:0:
256,192,8002,1,8,0:0:0:0:
256,192,8303,1,8,0:0:0:0:
256,192,8454,1,0,0:0:0:0:
256,192,8605,1,8,0:0:0:0:
256,192,8755,1,0,0:0:0:0:
256,192,9057,1,0,0:0:0:0:
256,192,9208,5,8,0:0:0:0:
256,192,9509,1,8,0:0:0:0:
256,192,9811,1,8,0:0:0:0:
256,192,9961,1,8,0:0:0:0:
256,192,10263,1,8,0:0:0:0:
256,192,10414,1,8,0:0:0:0:
256,192,10715,1,8,0:0:0:0:
256,192,11017,1,8,0:0:0:0:
256,192,11318,1,8,0:0:0:0:
256,192,11469,1,8,0:0:0:0:
256,192,11771,1,8,0:0:0:0:
256,192,12072,1,8,0:0:0:0:
256,192,12223,1,8,0:0:0:0:
256,192,12524,1,8,0:0:0:0:
256,192,12826,1,8,0:0:0:0:
256,192,13127,1,8,0:0:0:0:
256,192,13429,1,8,0:0:0:0:
256,192,13730,1,8,0:0:0:0:
256,192,13881,1,8,0:0:0:0:
256,192,14183,1,8,0:0:0:0:
256,192,14484,1,8,0:0:0:0:
256,192,14635,1,8,0:0:0:0:
256,192,14936,1,8,0:0:0:0:
256,192,15087,1,8,0:0:0:0:
256,192,15238,1,0,0:0:0:0:
256,192,15389,1,0,0:0:0:0:
256,192,15539,1,8,0:0:0:0:
256,192,15690,1,0,0:0:0:0:
256,192,15841,1,8,0:0:0:0:
256,192,15992,1,0,0:0:0:0:
256,192,16142,1,8,0:0:0:0:
256,192,16293,1,8,0:0:0:0:
256,192,16444,1,0,0:0:0:0:
256,192,16595,1,8,0:0:0:0:
256,192,16745,1,0,0:0:0:0:
256,192,16896,1,8,0:0:0:0:
256,192,17047,1,8,0:0:0:0:
256,192,17198,1,0,0:0:0:0:
256,192,17348,1,8,0:0:0:0:
256,192,17499,1,0,0:0:0:0:
256,192,17650,1,8,0:0:0:0:
256,192,17725,1,8,0:0:0:0:
256,192,17801,1,0,0:0:0:0:
256,192,17876,1,8,0:0:0:0:
256,192,17951,1,0,0:0:0:0:
256,192,18027,1,0,0:0:0:0:
256,192,18102,1,8,0:0:0:0:
256,192,18178,1,0,0:0:0:0:
256,192,18253,1,8,0:0:0:0:
256,192,18328,1,8,0:0:0:0:
256,192,18404,1,0,0:0:0:0:
256,192,18479,1,0,0:0:0:0:
256,192,18554,1,8,0:0:0:0:
256,192,18630,1,0,0:0:0:0:
256,192,18705,1,8,0:0:0:0:
256,192,18781,1,8,0:0:0:0:
256,192,18856,1,0,0:0:0:0:
256,192,19007,1,0,0:0:0:0:
256,192,19157,1,0,0:0:0:0:
256,192,19308,1,0,0:0:0:0:
256,192,19459,1,0,0:0:0:0:
256,192,19610,12,0,19911,0:0:0:0:
256,192,20062,5,12,0:0:0:0:
256,192,20213,1,0,0:0:0:0:
256,192,20363,1,8,0:0:0:0:
256,192,20514,1,0,0:0:0:0:
256,192,20590,1,8,0:0:0:0:
256,192,20665,1,0,0:0:0:0:
256,192,20740,1,0,0:0:0:0:
256,192,20816,1,0,0:0:0:0:
256,192,20967,1,8,0:0:0:0:
256,192,21117,1,0,0:0:0:0:
256,192,21193,1,0,0:0:0:0:
256,192,21268,1,8,0:0:0:0:
256,192,21419,1,0,0:0:0:0:
256,192,21570,1,8,0:0:0:0:
256,192,21720,1,8,0:0:0:0:
256,192,21796,1,0,0:0:0:0:
256,192,21871,1,8,0:0:0:0:
256,192,21946,1,8,0:0:0:0:
256,192,22022,1,0,0:0:0:0:
256,192,22097,1,0,0:0:0:0:
256,192,22173,1,8,0:0:0:0:
256,192,22323,1,8,0:0:0:0:
256,192,22474,1,4,0:0:0:0:
256,192,22625,1,0,0:0:0:0:
256,192,22700,1,0,0:0:0:0:
256,192,22776,1,8,0:0:0:0:
256,192,22926,1,0,0:0:0:0:
256,192,23077,1,8,0:0:0:0:
256,192,23152,1,8,0:0:0:0:
256,192,23228,1,0,0:0:0:0:
256,192,23379,1,8,0:0:0:0:
256,192,23529,1,8,0:0:0:0:
256,192,23680,1,0,0:0:0:0:
256,192,23755,1,8,0:0:0:0:
256,192,23831,1,0,0:0:0:0:
256,192,23906,1,0,0:0:0:0:
256,192,23982,1,8,0:0:0:0:
256,192,24057,1,0,0:0:0:0:
256,192,24132,1,8,0:0:0:0:
256,192,24208,1,0,0:0:0:0:
256,192,24283,1,8,0:0:0:0:
256,192,24358,1,8,0:0:0:0:
256,192,24434,1,0,0:0:0:0:
256,192,24509,1,8,0:0:0:0:
256,192,24585,1,8,0:0:0:0:
256,192,24735,1,0,0:0:0:0:
256,192,24886,1,12,0:0:0:0:
256,192,25037,1,0,0:0:0:0:
256,192,25112,1,0,0:0:0:0:
256,192,25188,1,8,0:0:0:0:
256,192,25338,1,0,0:0:0:0:
256,192,25489,1,8,0:0:0:0:
256,192,25564,1,8,0:0:0:0:
256,192,25640,1,0,0:0:0:0:
256,192,25715,1,0,0:0:0:0:
256,192,25791,1,8,0:0:0:0:
256,192,25941,1,8,0:0:0:0:
256,192,26092,1,0,0:0:0:0:
256,192,26243,1,0,0:0:0:0:
256,192,26394,1,8,0:0:0:0:
256,192,26544,1,0,0:0:0:0:
256,192,26620,1,8,0:0:0:0:
256,192,26695,1,8,0:0:0:0:
256,192,26771,1,8,0:0:0:0:
256,192,26846,1,0,0:0:0:0:
256,192,26921,1,0,0:0:0:0:
256,192,26997,1,8,0:0:0:0:
256,192,27147,1,8,0:0:0:0:
256,192,27298,1,4,0:0:0:0:
256,192,27449,1,0,0:0:0:0:
256,192,27600,1,8,0:0:0:0:
256,192,27750,1,8,0:0:0:0:
256,192,27826,1,8,0:0:0:0:
256,192,27901,1,0,0:0:0:0:
256,192,27977,1,8,0:0:0:0:
256,192,28052,1,0,0:0:0:0:
256,192,28127,1,0,0:0:0:0:
256,192,28203,1,8,0:0:0:0:
256,192,28353,1,8,0:0:0:0:
256,192,28504,1,4,0:0:0:0:
256,192,28655,1,0,0:0:0:0:
256,192,28730,1,0,0:0:0:0:
256,192,28806,1,8,0:0:0:0:
256,192,28956,1,0,0:0:0:0:
256,192,29107,1,8,0:0:0:0:
256,192,29258,1,4,0:0:0:0:
256,192,29559,1,0,0:0:0:0:
256,192,29710,1,12,0:0:0:0:
256,192,29861,1,0,0:0:0:0:
256,192,30012,1,8,0:0:0:0:
256,192,30162,1,8,0:0:0:0:
256,192,30238,1,0,0:0:0:0:
256,192,30313,1,8,0:0:0:0:
256,192,30389,1,8,0:0:0:0:
256,192,30464,1,0,0:0:0:0:
256,192,30615,1,8,0:0:0:0:
256,192,30765,1,8,0:0:0:0:
256,192,30916,1,4,0:0:0:0:
256,192,31067,1,0,0:0:0:0:
256,192,31142,1,0,0:0:0:0:
256,192,31218,1,8,0:0:0:0:
256,192,31369,1,0,0:0:0:0:
256,192,31444,1,8,0:0:0:0:
256,192,31519,1,8,0:0:0:0:
256,192,31595,1,8,0:0:0:0:
256,192,31670,1,0,0:0:0:0:
256,192,31745,1,0,0:0:0:0:
256,192,31821,1,8,0:0:0:0:
256,192,31972,1,0,0:0:0:0:
256,192,32122,1,12,0:0:0:0:
256,192,32273,1,0,0:0:0:0:
256,192,32348,1,0,0:0:0:0:
256,192,32424,1,8,0:0:0:0:
256,192,32575,1,0,0:0:0:0:
256,192,32725,1,8,0:0:0:0:
256,192,32801,1,8,0:0:0:0:
256,192,32876,1,0,0:0:0:0:
256,192,32951,1,0,0:0:0:0:
256,192,33027,1,8,0:0:0:0:
256,192,33178,1,8,0:0:0:0:
256,192,33328,1,0,0:0:0:0:
256,192,33479,1,0,0:0:0:0:
256,192,33554,1,0,0:0:0:0:
256,192,33630,1,8,0:0:0:0:
256,192,33781,1,0,0:0:0:0:
256,192,33931,1,8,0:0:0:0:
256,192,34007,1,0,0:0:0:0:
256,192,34082,1,0,0:0:0:0:
256,192,34157,1,8,0:0:0:0:
256,192,34233,1,8,0:0:0:0:
256,192,34308,1,0,0:0:0:0:
256,192,34384,1,8,0:0:0:0:
256,192,34534,1,8,0:0:0:0:
256,192,34685,1,0,0:0:0:0:
256,192,34836,1,8,0:0:0:0:
256,192,34987,1,0,0:0:0:0:
256,192,35137,1,8,0:0:0:0:
256,192,35213,1,0,0:0:0:0:
256,192,35288,1,0,0:0:0:0:
256,192,35363,1,0,0:0:0:0:
256,192,35439,1,8,0:0:0:0:
256,192,35590,1,0,0:0:0:0:
256,192,35740,1,0,0:0:0:0:
256,192,35891,1,0,0:0:0:0:
256,192,36042,1,8,0:0:0:0:
256,192,36193,1,0,0:0:0:0:
256,192,36343,1,0,0:0:0:0:
256,192,36494,1,0,0:0:0:0:
256,192,36645,1,8,0:0:0:0:
256,192,36796,1,0,0:0:0:0:
256,192,36946,1,8,0:0:0:0:
256,192,37022,1,8,0:0:0:0:
256,192,37097,1,0,0:0:0:0:
256,192,37173,1,0,0:0:0:0:
256,192,37248,1,8,0:0:0:0:
256,192,37323,1,0,0:0:0:0:
256,192,37399,1,8,0:0:0:0:
256,192,37474,1,8,0:0:0:0:
256,192,37549,1,0,0:0:0:0:
256,192,37625,1,8,0:0:0:0:
256,192,37700,1,0,0:0:0:0:
256,192,37776,1,0,0:0:0:0:
256,192,37851,1,8,0:0:0:0:
256,192,37926,1,0,0:0:0:0:
256,192,38002,1,8,0:0:0:0:
256,192,38077,1,8,0:0:0:0:
256,192,38152,1,0,0:0:0:0:
256,192,38303,1,0,0:0:0:0:
256,192,38454,1,0,0:0:0:0:
256,192,38605,1,0,0:0:0:0:
256,192,38755,1,0,0:0:0:0:
256,192,38906,12,0,39208,0:0:0:0:
256,192,39358,5,12,0:0:0:0:
256,192,39509,1,0,0:0:0:0:
256,192,39585,1,0,0:0:0:0:
256,192,39660,1,8,0:0:0:0:
256,192,39811,1,0,0:0:0:0:
256,192,39961,1,8,0:0:0:0:
256,192,40037,1,8,0:0:0:0:
256,192,40112,1,0,0:0:0:0:
256,192,40188,1,8,0:0:0:0:
256,192,40263,1,8,0:0:0:0:
256,192,40414,1,0,0:0:0:0:
256,192,40564,1,8,0:0:0:0:
256,192,40640,1,8,0:0:0:0:
256,192,40715,1,0,0:0:0:0:
256,192,40791,1,0,0:0:0:0:
256,192,40866,1,8,0:0:0:0:
256,192,41017,1,0,0:0:0:0:
256,192,41168,1,8,0:0:0:0:
256,192,41318,1,0,0:0:0:0:
256,192,41394,1,0,0:0:0:0:
256,192,41469,1,8,0:0:0:0:
256,192,41620,1,8,0:0:0:0:
256,192,41771,1,4,0:0:0:0:
256,192,41921,1,0,0:0:0:0:
256,192,41997,1,0,0:0:0:0:
256,192,42072,1,8,0:0:0:0:
256,192,42223,1,0,0:0:0:0:
256,192,42374,1,8,0:0:0:0:
256,192,42449,1,0,0:0:0:0:
256,192,42524,1,0,0:0:0:0:
256,192,42600,1,8,0:0:0:0:
256,192,42675,1,8,0:0:0:0:
256,192,42826,1,0,0:0:0:0:
256,192,42977,1,8,0:0:0:0:
256,192,43052,1,8,0:0:0:0:
256,192,43127,1,0,0:0:0:0:
256,192,43203,1,0,0:0:0:0:
256,192,43278,1,8,0:0:0:0:
256,192,43353,1,0,0:0:0:0:
256,192,43429,1,0,0:0:0:0:
256,192,43504,1,0,0:0:0:0:
256,192,43580,1,8,0:0:0:0:
256,192,43655,1,8,0:0:0:0:
256,192,43730,1,0,0:0:0:0:
256,192,43806,1,8,0:0:0:0:
256,192,43881,1,8,0:0:0:0:
256,192,43956,1,0,0:0:0:0:
256,192,44032,1,8,0:0:0:0:
256,192,44183,1,12,0:0:0:0:
256,192,44333,1,0,0:0:0:0:
256,192,44409,1,0,0:0:0:0:
256,192,44484,1,8,0:0:0:0:
256,192,44635,1,0,0:0:0:0:
256,192,44786,1,8,0:0:0:0:
256,192,44861,1,0,0:0:0:0:
256,192,44936,1,8,0:0:0:0:
256,192,45012,1,8,0:0:0:0:
256,192,45087,1,8,0:0:0:0:
256,192,45238,1,8,0:0:0:0:
256,192,45389,1,0,0:0:0:0:
256,192,45539,1,8,0:0:0:0:
256,192,45615,1,0,0:0:0:0:
256,192,45690,1,8,0:0:0:0:
256,192,45841,1,8,0:0:0:0:
256,192,45916,1,0,0:0:0:0:
256,192,45992,1,8,0:0:0:0:
256,192,46067,1,8,0:0:0:0:
256,192,46142,1,0,0:0:0:0:
256,192,46293,1,8,0:0:0:0:
256,192,46444,1,0,0:0:0:0:
256,192,46595,1,4,0:0:0:0:
256,192,46745,1,0,0:0:0:0:
256,192,46821,1,0,0:0:0:0:
256,192,46896,1,8,0:0:0:0:
256,192,47047,1,0,0:0:0:0:
256,192,47198,1,8,0:0:0:0:
256,192,47273,1,0,0:0:0:0:
256,192,47348,1,0,0:0:0:0:
256,192,47424,1,0,0:0:0:0:
256,192,47499,1,8,0:0:0:0:
256,192,47575,1,8,0:0:0:0:
256,192,47650,1,8,0:0:0:0:
256,192,47725,1,8,0:0:0:0:
256,192,47801,1,0,0:0:0:0:
256,192,47951,1,0,0:0:0:0:
256,192,48102,1,8,0:0:0:0:
256,192,48253,1,0,0:0:0:0:
256,192,48328,1,0,0:0:0:0:
256,192,48404,1,8,0:0:0:0:
256,192,48554,1,0,0:0:0:0:
256,192,48705,1,8,0:0:0:0:
256,192,48781,1,8,0:0:0:0:
256,192,48856,1,0,0:0:0:0:
256,192,49007,1,12,0:0:0:0:
256,192,49157,1,0,0:0:0:0:
256,192,49308,1,8,0:0:0:0:
256,192,49459,1,0,0:0:0:0:
256,192,49534,1,0,0:0:0:0:
256,192,49610,1,8,0:0:0:0:
256,192,49760,1,0,0:0:0:0:
256,192,49911,1,8,0:0:0:0:
256,192,49987,1,8,0:0:0:0:
256,192,50062,1,0,0:0:0:0:
256,192,50213,1,4,0:0:0:0:
256,192,50363,1,0,0:0:0:0:
256,192,50514,1,8,0:0:0:0:
256,192,50665,1,0,0:0:0:0:
256,192,50740,1,0,0:0:0:0:
256,192,50816,1,8,0:0:0:0:
256,192,50891,1,8,0:0:0:0:
256,192,50967,1,0,0:0:0:0:
256,192,51042,1,8,0:0:0:0:
256,192,51117,1,8,0:0:0:0:
256,192,51268,1,8,0:0:0:0:
256,192,51419,1,4,0:0:0:0:
256,192,51570,1,0,0:0:0:0:
256,192,51645,1,0,0:0:0:0:
256,192,51720,1,8,0:0:0:0:
256,192,51871,1,0,0:0:0:0:
256,192,52022,1,8,0:0:0:0:
256,192,52097,1,8,0:0:0:0:
256,192,52173,1,0,0:0:0:0:
256,192,52248,1,0,0:0:0:0:
256,192,52323,1,8,0:0:0:0:
256,192,52474,1,0,0:0:0:0:
256,192,52625,1,0,0:0:0:0:
256,192,52700,1,8,0:0:0:0:
256,192,52776,1,0,0:0:0:0:
256,192,52851,1,0,0:0:0:0:
256,192,52926,1,8,0:0:0:0:
256,192,53002,1,0,0:0:0:0:
256,192,53077,1,8,0:0:0:0:
256,192,53152,1,0,0:0:0:0:
256,192,53228,1,8,0:0:0:0:
256,192,53303,1,8,0:0:0:0:
256,192,53379,1,0,0:0:0:0:
256,192,53454,1,8,0:0:0:0:
256,192,53529,1,8,0:0:0:0:
256,192,53605,1,8,0:0:0:0:
256,192,53680,1,0,0:0:0:0:
256,192,53831,1,12,0:0:0:0:
256,192,54132,1,8,0:0:0:0:
256,192,54283,1,0,0:0:0:0:
256,192,54358,1,0,0:0:0:0:
256,192,54434,1,8,0:0:0:0:
256,192,54585,1,0,0:0:0:0:
256,192,54735,1,8,0:0:0:0:
256,192,54811,1,8,0:0:0:0:
256,192,54886,1,0,0:0:0:0:
256,192,55037,1,8,0:0:0:0:
256,192,55188,1,0,0:0:0:0:
256,192,55338,1,8,0:0:0:0:
256,192,55489,1,8,0:0:0:0:
256,192,55564,1,0,0:0:0:0:
256,192,55640,1,8,0:0:0:0:
256,192,55791,1,0,0:0:0:0:
256,192,55941,1,8,0:0:0:0:
256,192,56243,1,4,0:0:0:0:
256,192,56544,1,8,0:0:0:0:
256,192,56695,1,0,0:0:0:0:
256,192,56846,1,8,0:0:0:0:
256,192,56921,1,0,0:0:0:0:
256,192,56997,1,0,0:0:0:0:
256,192,57072,1,0,0:0:0:0:
256,192,57147,1,8,0:0:0:0:
256,192,57298,1,8,0:0:0:0:
256,192,57449,1,0,0:0:0:0:
256,192,57600,1,8,0:0:0:0:
256,192,57750,1,0,0:0:0:0:
256,192,57901,1,8,0:0:0:0:
256,192,58052,1,0,0:0:0:0:
256,192,58203,1,8,0:0:0:0:
256,192,58278,1,8,0:0:0:0:
256,192,58353,1,8,0:0:0:0:
256,192,58655,1,12,0:0:0:0:
256,192,58956,1,8,0:0:0:0:
256,192,59258,1,0,0:0:0:0:
256,192,59559,1,0,0:0:0:0:
256,192,60162,1,8,0:0:0:0:
256,192,60464,1,0,0:0:0:0:
256,192,60765,1,8,0:0:0:0:
256,192,61067,1,8,0:0:0:0:
256,192,61369,1,8,0:0:0:0:
256,192,61670,1,0,0:0:0:0:
256,192,61972,1,0,0:0:0:0:
256,192,62575,1,8,0:0:0:0:
256,192,62876,1,0,0:0:0:0:
256,192,63178,1,0,0:0:0:0:
256,192,63479,1,8,0:0:0:0:
256,192,64082,1,0,0:0:0:0:
256,192,64384,1,8,0:0:0:0:
256,192,64685,1,0,0:0:0:0:
256,192,65288,1,0,0:0:0:0:
256,192,65590,1,8,0:0:0:0:
256,192,65891,1,8,0:0:0:0:
256,192,66494,1,8,0:0:0:0:
256,192,66796,1,0,0:0:0:0:
256,192,67097,1,8,0:0:0:0:
256,192,68303,1,12,0:0:0:0:
256,192,68605,1,8,0:0:0:0:
256,192,68906,1,0,0:0:0:0:
256,192,69208,1,0,0:0:0:0:
256,192,69811,1,8,0:0:0:0:
256,192,70112,1,0,0:0:0:0:
256,192,70414,1,0,0:0:0:0:
256,192,70715,1,12,0:0:0:0:
256,192,71017,1,8,0:0:0:0:
256,192,71318,1,0,0:0:0:0:
256,192,71620,1,0,0:0:0:0:
256,192,72223,1,8,0:0:0:0:
256,192,72524,1,0,0:0:0:0:
256,192,72826,1,0,0:0:0:0:
256,192,73127,1,12,0:0:0:0:
256,192,73730,1,0,0:0:0:0:
256,192,74032,1,8,0:0:0:0:
256,192,74333,1,12,0:0:0:0:
256,192,74635,1,8,0:0:0:0:
256,192,74936,1,8,0:0:0:0:
256,192,75238,1,0,0:0:0:0:
256,192,75539,1,4,0:0:0:0:
256,192,77348,1,0,0:0:0:0:
256,192,77650,1,8,0:0:0:0:
256,192,77951,1,12,0:0:0:0:
256,192,78253,1,8,0:0:0:0:
256,192,78554,1,0,0:0:0:0:
256,192,78856,1,8,0:0:0:0:
256,192,79157,1,8,0:0:0:0:
256,192,79459,1,0,0:0:0:0:
256,192,79760,1,0,0:0:0:0:
256,192,80062,1,0,0:0:0:0:
256,192,80363,1,8,0:0:0:0:
256,192,80967,1,8,0:0:0:0:
256,192,81268,1,0,0:0:0:0:
256,192,81570,1,0,0:0:0:0:
256,192,82173,1,0,0:0:0:0:
256,192,82776,1,8,0:0:0:0:
256,192,83379,1,8,0:0:0:0:
256,192,83680,1,0,0:0:0:0:
256,192,83982,1,0,0:0:0:0:
256,192,84585,1,0,0:0:0:0:
256,192,84886,1,0,0:0:0:0:
256,192,85188,2,0,L|416:192,2,146.999995513916
256,192,86394,1,0,0:0:0:0:
256,192,86997,1,0,0:0:0:0:
256,192,87298,1,0,0:0:0:0:
256,192,87600,1,8,0:0:0:0:
256,192,87901,1,8,0:0:0:0:
256,192,88203,1,0,0:0:0:0:
256,192,88504,1,8,0:0:0:0:
256,192,88806,1,8,0:0:0:0:
256,192,89107,1,0,0:0:0:0:
256,192,89409,1,0,0:0:0:0:
256,192,89710,1,8,0:0:0:0:
256,192,90012,1,0,0:0:0:0:
256,192,90615,1,0,0:0:0:0:
256,192,90916,1,0,0:0:0:0:
256,192,91218,1,8,0:0:0:0:
256,192,91369,1,0,0:0:0:0:
256,192,91519,1,8,0:0:0:0:
256,192,91670,1,0,0:0:0:0:
256,192,91821,1,8,0:0:0:0:
256,192,91972,1,0,0:0:0:0:
256,192,92122,1,8,0:0:0:0:
256,192,92273,1,0,0:0:0:0:
256,192,92424,1,0,0:0:0:0:
256,192,92575,1,0,0:0:0:0:
256,192,92725,1,0,0:0:0:0:
256,192,92876,1,0,0:0:0:0:
256,192,93027,1,0,0:0:0:0:
256,192,93178,1,0,0:0:0:0:
256,192,93328,1,0,0:0:0:0:
256,192,93479,1,0,0:0:0:0:
256,192,93630,1,0,0:0:0:0:
256,192,93781,1,0,0:0:0:0:
256,192,93931,1,0,0:0:0:0:
256,192,94082,1,0,0:0:0:0:
256,192,94233,1,0,0:0:0:0:
256,192,94384,1,0,0:0:0:0:
256,192,94534,1,0,0:0:0:0:
256,192,94685,1,0,0:0:0:0:
256,192,94836,1,0,0:0:0:0:
256,192,94886,1,0,0:0:0:0:
256,192,94936,1,0,0:0:0:0:
256,192,94987,1,0,0:0:0:0:
256,192,95062,1,0,0:0:0:0:
256,192,95137,1,0,0:0:0:0:
256,192,95213,1,0,0:0:0:0:
256,192,95288,1,0,0:0:0:0:
256,192,95363,1,0,0:0:0:0:
256,192,95439,1,8,0:0:0:0:
256,192,95514,1,0,0:0:0:0:
256,192,95590,1,8,0:0:0:0:
256,192,95665,1,0,0:0:0:0:
256,192,95740,1,8,0:0:0:0:
256,192,95816,1,0,0:0:0:0:
256,192,95891,1,8,0:0:0:0:
256,192,95941,1,0,0:0:0:0:
256,192,95992,1,0,0:0:0:0:
256,192,96042,1,0,0:0:0:0:
256,192,96193,1,0,0:0:0:0:
256,192,96343,1,12,0:0:0:0:
256,192,96494,1,12,0:0:0:0:
256,192,96645,1,0,0:0:0:0:
256,192,96720,1,0,0:0:0:0:
256,192,96796,1,8,0:0:0:0:
256,192,96871,1,8,0:0:0:0:
256,192,96946,1,8,0:0:0:0:
256,192,97248,1,4,0:0:0:0:
256,192,97399,1,0,0:0:0:0:
256,192,97549,1,8,0:0:0:0:
256,192,97700,1,8,0:0:0:0:
256,192,97776,1,0,0:0:0:0:
256,192,97851,1,8,0:0:0:0:
256,192,97926,1,8,0:0:0:0:
256,192,98002,1,0,0:0:0:0:
256,192,98152,1,8,0:0:0:0:
256,192,98303,1,8,0:0:0:0:
256,192,98454,1,0,0:0:0:0:
256,192,98605,1,0,0:0:0:0:
256,192,98680,1,0,0:0:0:0:
256,192,98755,1,8,0:0:0:0:
256,192,98906,1,0,0:0:0:0:
256,192,99057,1,8,0:0:0:0:
256,192,99132,1,8,0:0:0:0:
256,192,99208,1,0,0:0:0:0:
256,192,99283,1,8,0:0:0:0:
256,192,99358,1,8,0:0:0:0:
256,192,99434,1,0,0:0:0:0:
256,192,99509,1,8,0:0:0:0:
256,192,99585,1,8,0:0:0:0:
256,192,99660,1,0,0:0:0:0:
256,192,99811,1,0,0:0:0:0:
256,192,99961,1,8,0:0:0:0:
256,192,100112,1,0,0:0:0:0:
256,192,100188,1,0,0:0:0:0:
256,192,100263,1,8,0:0:0:0:
256,192,100414,1,0,0:0:0:0:
256,192,100564,1,8,0:0:0:0:
256,192,100640,1,8,0:0:0:0:
256,192,100715,1,0,0:0:0:0:
256,192,100866,1,0,0:0:0:0:
256,192,100941,1,0,0:0:0:0:
256,192,101017,1,8,0:0:0:0:
256,192,101092,1,0,0:0:0:0:
256,192,101168,1,8,0:0:0:0:
256,192,101243,1,8,0:0:0:0:
256,192,101318,1,0,0:0:0:0:
256,192,101394,1,0,0:0:0:0:
256,192,101469,1,8,0:0:0:0:
256,192,101544,1,0,0:0:0:0:
256,192,101620,1,8,0:0:0:0:
256,192,101695,1,8,0:0:0:0:
256,192,101771,1,0,0:0:0:0:
256,192,101846,1,0,0:0:0:0:
256,192,101921,1,8,0:0:0:0:
256,192,102072,1,12,0:0:0:0:
256,192,102223,1,0,0:0:0:0:
256,192,102374,1,8,0:0:0:0:
256,192,102524,1,0,0:0:0:0:
256,192,102600,1,0,0:0:0:0:
256,192,102675,1,8,0:0:0:0:
256,192,102750,1,8,0:0:0:0:
256,192,102826,1,0,0:0:0:0:
256,192,102977,1,8,0:0:0:0:
256,192,103127,1,8,0:0:0:0:
256,192,103278,1,0,0:0:0:0:
256,192,103429,1,0,0:0:0:0:
256,192,103504,1,0,0:0:0:0:
256,192,103580,1,8,0:0:0:0:
256,192,103730,1,0,0:0:0:0:
256,192,103881,1,8,0:0:0:0:
256,192,103956,1,0,0:0:0:0:
256,192,104032,1,0,0:0:0:0:
256,192,104107,1,0,0:0:0:0:
256,192,104183,1,8,0:0:0:0:
256,192,104258,1,8,0:0:0:0:
256,192,104333,1,8,0:0:0:0:
256,192,104409,1,8,0:0:0:0:
256,192,104484,1,0,0:0:0:0:
256,192,104559,1,8,0:0:0:0:
256,192,104635,1,0,0:0:0:0:
256,192,104710,1,0,0:0:0:0:
256,192,104786,1,8,0:0:0:0:
256,192,104936,1,8,0:0:0:0:
256,192,105087,1,0,0:0:0:0:
256,192,105238,1,0,0:0:0:0:
256,192,105389,1,8,0:0:0:0:
256,192,105539,1,0,0:0:0:0:
256,192,105690,1,8,0:0:0:0:
256,192,105765,1,8,0:0:0:0:
256,192,105841,1,0,0:0:0:0:
256,192,105916,1,0,0:0:0:0:
256,192,105992,1,8,0:0:0:0:
256,192,106067,1,8,0:0:0:0:
256,192,106142,1,0,0:0:0:0:
256,192,106218,1,0,0:0:0:0:
256,192,106293,1,8,0:0:0:0:
256,192,106369,1,8,0:0:0:0:
256,192,106444,1,8,0:0:0:0:
256,192,106519,1,0,0:0:0:0:
256,192,106595,1,8,0:0:0:0:
256,192,106745,1,8,0:0:0:0:
256,192,106896,1,12,0:0:0:0:
256,192,107047,1,0,0:0:0:0:
256,192,107122,1,0,0:0:0:0:
256,192,107198,1,8,0:0:0:0:
256,192,107348,1,0,0:0:0:0:
256,192,107499,1,8,0:0:0:0:
256,192,107575,1,8,0:0:0:0:
256,192,107650,1,0,0:0:0:0:
256,192,107725,1,0,0:0:0:0:
256,192,107801,1,8,0:0:0:0:
256,192,107951,1,8,0:0:0:0:
256,192,108102,1,0,0:0:0:0:
256,192,108253,1,0,0:0:0:0:
256,192,108328,1,0,0:0:0:0:
256,192,108404,1,8,0:0:0:0:
256,192,108554,1,0,0:0:0:0:
256,192,108705,1,8,0:0:0:0:
256,192,108781,1,0,0:0:0:0:
256,192,108856,1,0,0:0:0:0:
256,192,108931,1,8,0:0:0:0:
256,192,109007,1,8,0:0:0:0:
256,192,109082,1,8,0:0:0:0:
256,192,109157,1,0,0:0:0:0:
256,192,109308,1,0,0:0:0:0:
256,192,109459,1,0,0:0:0:0:
256,192,109534,1,0,0:0:0:0:
256,192,109610,1,8,0:0:0:0:
256,192,109760,1,0,0:0:0:0:
256,192,109911,1,8,0:0:0:0:
256,192,109987,1,0,0:0:0:0:
256,192,110062,1,0,0:0:0:0:
256,192,110137,1,0,0:0:0:0:
256,192,110213,1,8,0:0:0:0:
256,192,110363,1,8,0:0:0:0:
256,192,110514,1,4,0:0:0:0:
256,192,110665,1,0,0:0:0:0:
256,192,110740,1,0,0:0:0:0:
256,192,110816,1,8,0:0:0:0:
256,192,110967,1,0,0:0:0:0:
256,192,111117,1,8,0:0:0:0:
256,192,111193,1,0,0:0:0:0:
256,192,111268,1,0,0:0:0:0:
256,192,111343,1,0,0:0:0:0:
256,192,111419,1,8,0:0:0:0:
256,192,111494,1,8,0:0:0:0:
256,192,111570,1,0,0:0:0:0:
256,192,111720,1,12,0:0:0:0:
256,192,111871,1,0,0:0:0:0:
256,192,112022,1,8,0:0:0:0:
256,192,112173,1,0,0:0:0:0:
256,192,112323,1,0,0:0:0:0:
256,192,112474,1,8,0:0:0:0:
256,192,112625,1,8,0:0:0:0:
256,192,112776,1,8,0:0:0:0:
256,192,112926,1,0,0:0:0:0:
256,192,113077,1,8,0:0:0:0:
256,192,113228,1,0,0:0:0:0:
256,192,113379,1,8,0:0:0:0:
256,192,113529,1,0,0:0:0:0:
256,192,113680,1,0,0:0:0:0:
256,192,113831,1,8,0:0:0:0:
256,192,113982,1,0,0:0:0:0:
256,192,114132,1,8,0:0:0:0:
256,192,114183,1,8,0:0:0:0:
256,192,114233,1,8,0:0:0:0:
256,192,114283,1,0,0:0:0:0:
256,192,114358,1,0,0:0:0:0:
256,192,114434,1,8,0:0:0:0:
256,192,114509,1,0,0:0:0:0:
256,192,114585,1,0,0:0:0:0:
256,192,114660,1,0,0:0:0:0:
256,192,114735,1,8,0:0:0:0:
256,192,114811,1,0,0:0:0:0:
256,192,114886,1,8,0:0:0:0:
256,192,114961,1,0,0:0:0:0:
256,192,115037,1,8,0:0:0:0:
256,192,115112,1,0,0:0:0:0:
256,192,115188,1,8,0:0:0:0:
256,192,115238,1,0,0:0:0:0:
256,192,115288,1,0,0:0:0:0:
256,192,115338,1,0,0:0:0:0:
256,192,115489,1,0,0:0:0:0:
256,192,115640,1,12,0:0:0:0:
256,192,115791,1,12,0:0:0:0:
256,192,115941,1,0,0:0:0:0:
256,192,116017,1,0,0:0:0:0:
256,192,116092,1,0,0:0:0:0:
256,192,116168,1,0,0:0:0:0:
256,192,116243,1,8,0:0:0:0:
256,192,116544,1,12,0:0:0:0:
